This file was generated by Ched 2.7.0.0.
#TITLE ""
#ARTIST ""
#DESIGNER ""
#DIFFICULTY 0
#PLAYLEVEL
#SONGID ""
#WAVE ""
#WAVEOFFSET 0
#JACKET ""
#REQUEST "ticks_per_beat 480"
#00002: 4
#BPM01: 120
#00008: 01
#TIL00: ""
#HISPEED 00
#MEASUREHS 00
#0001a:1414
#00014:00140014
#00118:1414
#00112:00140014
#0021a:14
#00214:00140000
#00218:0014
#00212:00000014
#00318:14
#00314:00140000
#00319:00001414
#00313:00001414
#00414:00140014
#0041a:2414
#00618:00140014
#00612:1414
#0081a:14
#00814:00140000
#00810:41
#00912:14
#00918:00140000
#01018:14
#01014:00140000
#01114:14
#01118:00140000
#0121a:14
#01214:00140000
#01218:0014
#01212:00000014
#01412:14
#01418:00140000
#01414:0014
#0141a:00000014
#01618:00140014
#01614:0014
#0161a:24
#01612:24
#01610:41
#01712:14
#01714:00140014
#01718:0014
#0171a:14
#0181a:14
#01814:00140000
#01818:0014
#01812:00000014
#02012:14
#02018:00140000
#02014:0014
#0201a:00000014
#02218:14
#02212:00140000
#0221a:0014
#02214:00000014
#02414:14
#0241a:00140000
#02412:0014
#02418:00000014
#02410:41
#0261a:1414
#02612:14
#0261f:11
#0271a:14
#02712:14
#02716:0014
#02812:1414
#0281a:14
#02912:14
#0291a:14
#02918:00140014
#02914:0014
#03012:1414
#0301a:14
#03112:14
#0311a:14
#03116:0014
#0321a:1414
#03212:14
#0331a:1424
#03312:1424
#03316:00140000
#03414:0000140000140000
#03418:00001414
#0341a:24
#0341f:21
#03512:14
#03518:0000140000140000
#03514:00001414
#03510:0041
#0361a:14
#03614:0000140000140000
#03618:00001414
#03712:14141400
#03718:0014001400000000
#0371a:00000014
#03818:0000140000140000
#03814:00001414
#03812:24
#0391a:14
#03914:0000140000140000
#03918:00001414
#04012:14
#04018:0000140000140000
#04014:00001414
#0411a:14141400
#04114:0014001400000000
#04112:00000014
#04214:00140000
#0421a:24
#04312:14
#04318:00140000
#0441a:14
#04414:00140000
#04512:14
#04518:0014000000000000
#04513:00140000
#04519:0000001400000000
#04514:0014
#0451a:00000014
#04510:41
#04618:00140000
#04612:24
#0471a:14
#04714:00140000
#04812:14
#04818:00140000
#0491a:14
#04914:0014000000000000
#04919:00140000
#04913:0000001400000000
#04918:0014
#04912:00000014
#05014:0014001400000000
#05018:00140000
#0501a:2414
#05012:00000014
#05218:0014001400000000
#05214:00140000
#05212:2414
#0521a:00000014
#05210:41
#05414:0014001400000000
#05418:00140000
#0541a:2414
#05412:00000014
#05618:0014001400000000
#05614:00140000
#05612:2414
#0561a:00000014
#05714:14141400
#05718:0014001400000000
#05712:00000014
#0571a:00000014
#05818:14141400
#05814:0014001400000000
#0581a:00000014
#05812:00000014
#05918:00000013
#05915:0000000000000013
#05916:24240000
#05912:0024
#0591a:0024
#06018:13
#0131a:00343400
#01512:00343400
#0335a:00000014
#03352:00000014
#03752:0014
#0415a:0014
#04554:0014
#04958:0014
#05952:0014
#0595a:0014
#0053a0:14343424
#007320:14343424
#0083a0:00001424
#009320:00001424
#010380:00001424
#011340:00001424
#013380:14
#0133a0:00343424
#015340:14
#015320:00343424
#019380:14000024
#0193a0:00343400
#021340:14000024
#021320:00343400
#0233a0:14000024
#023380:00343400
#025320:14000024
#025340:00343400
#0333a0:0000000014342400
#033321:0000000014342400
#042381:0014
#042391:0000000000340000
#0423a1:00000024
#043341:0014
#043331:0000000000340000
#043321:00000024
#044381:0014
#044391:0000000000340000
#0443a1:00000024
#046341:0014
#046331:0000000000340000
#046321:00000024
#047381:0014
#047391:0000000000340000
#0473a1:00000024
#048341:0014
#048331:0000000000340000
#048321:00000024
#0513a1:14
#051381:00240000
#051340:14
#051320:00240000
#051380:0014
#0513a0:00000024
#051321:0014
#051341:00000024
#053321:14
#053341:00240000
#053380:14
#0533a0:00240000
#053340:0014
#053320:00000024
#0533a1:0014
#053381:00000024
#0553a1:14
#055381:00240000
#055340:14
#055320:00240000
#055380:0014
#0553a0:00000024
#055321:0014
#055341:00000024
