This file was generated by Ched 2.7.0.0.
#TITLE ""
#ARTIST ""
#DESIGNER ""
#DIFFICULTY 0
#PLAYLEVEL
#SONGID ""
#WAVE ""
#WAVEOFFSET 0
#JACKET ""
#REQUEST "ticks_per_beat 480"
#00002: 4
#BPM01: 192
#00008: 01
#TIL00: ""
#HISPEED 00
#MEASUREHS 00
#00119:14
#00213:14
#0031a:14
#00414:14
#00518:14
#00612:14
#00719:14
#00813:14
#0171a:14
#01814:14
#0191a:14
#02014:14
#02118:14
#02212:14
#02318:14
#02412:14
#0251a:14
#02510:41
#02614:14
#02912:14
#03018:14
#0331a:14
#0341a:14
#03514:14
#03614:14
#03718:14
#03818:14
#03912:14
#04012:14
#04918:14
#0491f:11
#05018:14
#05114:14
#05214:14
#05319:14
#05313:14
#05413:14
#05419:14
#05712:0016
#05718:26
#0571f:21
#05818:16
#05812:0016
#05810:41
#0611a:14
#06214:14
#06518:0016
#06512:26
#06612:16
#06618:0016
#06912:14
#07018:14
#0731a:14
#07414:14
#07518:14
#07612:14
#0771a:14
#07814:14
#07918:14
#08012:14
#08512:14
#08618:14
#08712:14
#08818:14
#08914:14
#0901a:14
#09114:14
#05513:24
#05519:24
#00910:41
#04110:41
#08110:41
#07110:41
#0093a0:14
#0103a0:24
#011340:14
#012340:24
#013380:14
#014380:24
#015320:14
#016320:24
#027380:14
#028380:24
#031340:14
#032340:24
#041380:14
#042380:24
#043340:14
#044340:24
#0453a0:14
#0463a0:24
#047320:14
#048320:24
#059380:1626
#060320:1626
#0633a0:14
#0643a0:24
#067320:1626
#068380:1626
#071320:14
#072320:24
#081380:14
#082380:34
#083380:34
#084380:24
#0923a0:1400000034343424
