This file was generated by Ched 2.7.0.0.
#TITLE ""
#ARTIST ""
#DESIGNER ""
#DIFFICULTY 0
#PLAYLEVEL
#SONGID ""
#WAVE ""
#WAVEOFFSET 0
#JACKET ""
#REQUEST "ticks_per_beat 480"
#00002: 4
#BPM01: 192
#00008: 01
#TIL00: ""
#HISPEED 00
#MEASUREHS 00
#0011b:0013
#00118:0000000000130000
#00115:00000013
#00112:0000000000000013
#00215:13
#00218:0013000000000000
#0021b:00130013
#00212:00130000
#00317:1313000000000000
#00316:0000001300001313
#00312:1313000000000000
#0031b:0000000000001313
#00417:00000013
#0051b:13
#00517:00130000
#00516:1313
#00512:00000013
#0061b:13000013
#00612:0000001300000000
#00712:00130013
#00715:0000000000000013
#00818:1300001300000013
#0081b:0013000000001300
#00815:0000001300000000
#0151b:0000001300001300
#01512:1300001300001300
#01518:0013130000000000
#01515:00000013000000000000000000000000
#01517:0000000000130000
#0161b:0013000013130000
#01612:0013000013130000
#01616:13
#01617:0000001300000000
#01715:2300001300130000
#01712:00000013
#0171b:0013000000000013
#01718:00131300
#01815:0013000000000013
#01812:0013
#0181b:0000001300001300
#01818:1300130000130000
#0211b:1300001300001300
#02112:2300001300001300
#02118:0013000000130013
#02115:00131300
#02212:0013000000001300
#02215:1300130013000013
#02218:0000001300131300
#0221b:0013000013000000
#02514:12
#02516:0012000000000012
#02518:00120012
#0251a:0000001200000000
#0251c:0012
#02510:41
#02618:0012000000000012
#0261c:0000001200000000
#02616:0012
#0261a:0000000000120000
#02614:00000012
#02716:0000121200000012
#0271a:00000012
#0271c:0000001200000012
#02712:12
#02718:1200000000120000
#02714:00000012
#0291a:0000001212000012
#02918:00000012
#0291c:12
#02912:12
#02914:0000001212001200
#02916:0000000000000012
#0301c:0012000000000000
#0301a:00120000
#03018:0000001200000000
#03016:0012000000000000
#03014:00120000
#03012:0000001200000000
#03216:12120000
#03214:0000001200000012
#0321a:0000000000000012
#0321c:12
#03218:00001212
#03212:0012
#0331b:13000013
#03317:00130000
#03319:0013
#03312:13131313
#03417:0000001300000000
#03419:0013
#0341b:0000000000130023
#03412:1300130013001313
#03512:1300000000131300
#0351b:2300131300000000
#03516:0000232300000000
#03517:0000000000232300
#03618:0000001300000000
#03615:0000000013000013
#03612:00000013
#0361b:00131313
#03712:0000001300000000
#0371b:13131313
#03715:0013000000000000
#03814:00000013
#0381b:1300130013001313
#03812:0000001300000023
#03816:0000000000130000
#04015:0013
#04018:00000013
#04012:00130000
#0411b:13000013
#04117:00130000
#04112:13131300
#04116:00000013
#04110:41
#0421b:13
#04218:00130013
#04215:0013
#04418:1313
#04415:00130000
#0441b:00130013
#04412:00000013
#04515:13000013
#04518:13
#0451b:00330000
#04512:00330000
#04618:13
#0461b:0000131300000000
#04617:00000013
#04616:00130000
#04612:0000000000000013
#04716:0013
#04712:00000013
#04715:0000000000000013
#04818:1300130000130013
#0481b:0013001300000000
#04815:0000001300000000
#04812:0000130000130000
#0491b:1313
#04918:0013130000131300
#04912:00130013
#04915:1300001313000000
#0491f:11
#0501b:1313
#05012:00131300
#05015:1300000000130013
#05018:00130013
#05112:1300000000130000
#05116:0000131300000000
#05118:0000000000001313
#0511b:1300131300000000
#05115:0000000000000013
#05218:0000000000001313
#05215:00000000000000000000000000130013
#0531b:1313002323000000
#05312:2323001313002626
#05318:0000000000001616
#05418:0026260016161313
#05412:0016160026260000
#05415:00000000000000000000000000130013
#05518:13
#05512:0000001300001300
#05515:0000000000000013
#05618:1300000013000013
#05612:0000130000000013
#05615:00000013
#0571b:0013230000000013
#05717:0000000000130000
#05719:00000013
#05712:0000000000130000
#05714:00000013
#05716:0000000000000013
#0571f:21
#05817:0013130000001300
#05816:0013
#05812:00130013
#0581b:0000000013330033
#05810:41
#05916:1313000000130000
#0591b:0013000000130000
#05917:0000001300000013
#05912:0000001300000013
#0601b:0013000013000000
#06018:00130013
#06015:0000001300000013
#06012:0013
#06118:13
#06115:0013000000000000
#06114:00130000
#06113:0000001300000000
#06112:0000000013000013
#06213:13
#06214:0013000000000000
#06215:00130023
#0621b:0000001300000000
#06312:13130000
#06315:0000001300130000
#0641b:0000130000000013
#06418:00000000000000001300001300000000
#06415:0000000000130013
#07215:0013
#0721b:00000013
#07212:00000013
#07312:00130013
#07315:0000000013000013
#07318:00130000
#0731b:0000000013000013
#07418:0013000000000000
#0741b:0013
#07415:0013000000001300
#0091b:13131313
#00910:41
#0101b:13131313
#01112:00131313
#01212:13131313
#01918:2300001300130000
#0191b:00000013
#01912:0013000000000013
#01915:00131300
#02018:0013000000000013
#0201b:0013
#02012:0000001300001300
#02015:1300130000130000
#02312:1300001300001300
#0231b:2300001300001300
#02315:0013000000130013
#02318:00131300
#0241b:0013000000001300
#02418:13131300
#02415:0000001300131300
#02412:0013000013000000
#02812:0000001212000000
#02818:0000001212000000
#02816:00000000000000000000001200000000
#0281c:0000000000000012
#03118:00000012
#0311a:0000000000000012
#03112:00000012
#0391b:1300000000131300
#03912:2300131300000000
#03917:0000232300000000
#03916:0000000000232300
#04312:13330013
#0431b:13330013
#08117:13000013
#08110:41
#08219:13
#0821b:0000131300000000
#08218:00000013
#08417:0000121212121200
#06512:0013230000000013
#06516:0000000000130000
#06514:00000013
#0651b:0000000000130000
#06519:00000013
#06517:0000000000000013
#06616:0013130000001300
#06617:0013
#0661b:00130013
#06612:0000000013330033
#06717:1300130000130000
#06712:0013000000130000
#06716:0000001300000013
#0671b:0000001300000013
#06812:0013000013000000
#06815:0000130000130000
#06818:0000001300001300
#0681b:0000000013000013
#06918:0013000000000000
#06919:00130000
#0691a:0000001300000000
#0691b:0000000013000013
#06915:13
#0701a:13
#07019:0013000000000000
#07018:00130023
#07012:0000001300000000
#0711b:13130013
#07118:0000001300130000
#07110:41
#0751b:00130013
#07518:0000000013000013
#07515:00130000
#07512:0000000013000013
#07615:0013000000000000
#07612:0013
#07618:0013000000001300
#07712:0000130000000013
#07715:00001313
#0771b:00130000
#07718:0000000013000013
#07818:0013000000000000
#0781b:0013
#07812:0013000000001300
#0791b:0000130000000013
#07918:00001313
#07912:00130000
#07915:0000000013000013
#08015:0013000000000000
#08012:0013
#0801b:0013000000001300
#08312:13
#0831b:23
#08518:0013001300130013
#08515:23131313
#0851b:13000013
#08512:0000001300000000
#08612:0013000013001300
#0861b:00001313
#08618:0013001300130000
#08615:1300130000000013
#0921b:0000000013131313
#09212:0000000013131313
#09218:0013001300000000
#09215:13130000
#01318:00130000
#01312:0000000000130000
#01418:13
#01412:0000001300000000
#08915:0000001300130000
#08912:23000013
#08918:00131313
#0891b:1313000000000013
#09015:0013001300000013
#09012:0013
#0901b:00001313
#09018:1300130000130000
#09118:0000001300130000
#0911b:23000013
#09115:00131313
#09112:1313000000000013
#08715:0013001300130013
#08718:23131313
#08712:13000013
#0871b:0000001300000000
#0881b:0013000013001300
#08812:00001313
#08815:0013001300130000
#08818:1300130000000013
#00252:00530000
#00357:0053000000000000
#00356:0000000000000063
#0055b:53
#00557:00230000
#00556:0053
#00552:00000023
#0065b:53000053
#00652:0000005300000000
#00757:00130000
#00855:0000005300000000
#01852:0013
#0185b:00000013
#02255:0013
#02258:00000013
#0205b:0013
#02052:00000013
#02458:0013
#02455:00000013
#02556:0000000000000052
#02758:52
#02756:0000006200000012
#0275c:0000000000000012
#02852:0052
#02856:00000000000000000000002200000000
#03052:0000005200000000
#03058:0000005200000000
#0325c:52
#03252:0062
#03457:0013000000000000
#03552:00000053
#03852:0013000000000000
#0395b:00000063
#0415b:53
#04152:0053
#04157:00230000
#04156:00000023
#04352:53
#0435b:63
#04555:53
#04558:63
#04952:00000013
#0505b:13
#05158:0000000000000053
#05155:0000000000000063
#0555b:0000001300000000
#05558:53
#05552:0000001300000000
#05658:5353
#05652:0000530000000053
#0575b:00130000
#05756:0000000000000053
#0585b:0053
#05857:00130023
#05952:0000001300000013
#0595b:0000000000130000
#06158:53
#0645b:0000000000000063
#06752:0000000000130000
#0675b:0000001300000013
#06557:0000000000000063
#06552:00130000
#06652:0063
#06656:00130023
#0715b:00000053
#07358:00530000
#0735b:0053
#07455:0053000000000000
#0745b:0053
#07458:00000013
#07652:0063
#07658:0063000000000000
#07655:00000013
#07555:00630000
#07552:0063
#0785b:0053
#07852:0053000000000000
#07857:00000013
#0775b:00530000
#07758:0053
#08052:0063
#0805b:0063000000000000
#08056:00000013
#07952:00630000
#07955:0063
#08352:53
#0835b:53
#08558:0000001300000000
#08555:13000013
#08652:0013
#0865b:00000013
#08658:0013000000000000
#01755:13
#01958:13
#02152:13
#0235b:13
#0625b:0000002300000000
#06955:63
#07052:0000002300000000
#08955:0000001300000000
#08952:13000013
#09055:0013000000000000
#09052:0013
#0905b:00000013
#09158:0000001300000000
#0915b:13000013
#09258:0013000000000000
#08755:0000001300000000
#08758:13000013
#0885b:0013
#08852:00000013
#08855:0013000000000000
#0155b:0000001300000000
#01552:00000013
#0165b:0013000000000000
#002320:00130000
#002360:00000023
#003370:0013000000000000
#0033b0:0000002300000000
#003360:0000000000000013
#004320:00000023
#0053b0:1323
#005370:00530000
#005361:0013
#005321:00000053
#006361:23
#0063b0:13
#006370:0000002300000000
#006321:0000001300000000
#006361:00000023
#0063b0:00000013
#007370:00230000
#008350:0000001300000000
#008320:00000023
#009320:13000033
#009360:0000003300000000
#010360:0033000000003300
#010320:0033
#011320:23
#0113b1:13000033
#011371:0000003300000000
#012371:0033000000003300
#0123b1:0033
#012391:0000000000000033
#0133b1:23
#013320:13
#013350:0000002300000000
#013381:0000001300000000
#0133b1:00000023
#013320:00000013
#014350:0023000000000000
#014381:0013000000000000
#0143b1:0023
#014320:0013
#014350:00000023
#014381:00000013
#0153b1:23
#025361:0000000000000012
#026321:0022000000000000
#027381:12
#0273c1:00220000
#027361:0000001200000000
#027321:0000000000220000
#028321:0000000012000022
#028361:00000000000000000000005200000000
#030321:0000001200000000
#031361:22
#030380:0000001200000000
#0313c0:22
#0323c0:12
#032380:00220000
#032320:0012
#032360:00000022
#0333b0:0000000000000013
#034370:0023000000000000
#035320:00000013
#036360:00230000
#037320:0013
#037360:00000023
#037360:0000000000000013
#038320:0023000000000000
#0393b0:00000013
#040370:00230000
#0413b0:1323
#041370:00530000
#041321:0013
#041361:00000053
#042321:23
#043321:13330000
#043351:0023
#0433b0:13330000
#043380:0023
#045350:13
#045320:00332300
#045381:13
#0453b1:00332300
#046361:0000001300000000
#046321:00000023
#046371:0000000000000013
#0473b1:0023
#051381:0000000000000013
#0523b1:0023
#051350:0000000000000013
#052320:0023
#055380:13
#0553b0:0000002300000000
#056380:13
#0563b0:00230000
#056321:00130000
#056351:0023
#056380:0013
#0563b0:00000023
#056320:0000000000000013
#057360:00230000
#057360:0000000000000013
#058320:0023000000000000
#0583b0:0000000013330033
#058370:00000033
#0593b0:23
#061380:13
#0623b0:0000005300000000
#063380:00000023
#063321:00000013
#064321:00230000
#0643b1:0000000000000013
#065371:00230000
#065371:0000000000000013
#0663b1:0023000000000000
#066321:0000000013330033
#066361:00000033
#067321:23
#069351:13
#070321:0000005300000000
#071351:00000023
#0713b0:00000013
#072380:0023
#073380:00130023
#0733b0:0033
#074350:0013000000000000
#074320:0023
#0743b1:0013
#074381:00000023
#075351:00130023
#075321:0033
#076381:0013000000000000
#0763b1:0023
#076320:0013
#076350:00000023
#0773b0:00130023
#077380:0033
#078320:0013000000000000
#078360:0023
#0783b1:0013
#078371:00000023
#079321:00130023
#079351:0033
#0803b1:0013000000000000
#080371:0023
#080320:0013
#080360:00000023
#081320:13
#083320:33
#084350:23
#0833b1:13
#084381:23
