This file was generated by Ched 2.7.0.0.
#TITLE ""
#ARTIST ""
#DESIGNER ""
#DIFFICULTY 0
#PLAYLEVEL
#SONGID ""
#WAVE ""
#WAVEOFFSET 0
#JACKET ""
#REQUEST "ticks_per_beat 480"
#00002: 4
#BPM01: 192
#00008: 01
#TIL00: ""
#HISPEED 00
#MEASUREHS 00
#0011b:0013
#00115:0000000000130000
#00118:00000013
#00112:0000000000000013
#00218:13
#00215:0013000000000000
#0021b:00130000
#00318:0013000000001300
#00315:1300000000000013
#00515:13
#00512:00130000
#0051b:13
#00518:00130000
#00612:13000013
#00615:0000001300000000
#0071b:00000013
#00715:0000000000000013
#00818:1300000000000013
#0081b:0000001300000000
#00812:0013000000001300
#00815:0000001300000000
#03318:00130013
#0331b:0013
#03312:00130000
#03315:0000000013000013
#03418:0000001300130000
#03415:0013
#03412:0000000000000024
#03618:0000001300001300
#03615:0000000013000013
#04015:0013
#04018:00000013
#04012:00130000
#0411b:13
#04118:00130000
#04110:41
#0421b:13
#04218:00130013
#04215:0013
#04515:00000013
#0451b:33
#04618:13
#04615:00130000
#04712:00000013
#04718:0000000000000013
#04815:13130000
#0481b:0013000000130000
#04818:0000001300000013
#04812:0000000000130000
#04918:0013001300130000
#04915:13131300
#04912:00000013
#0491f:11
#0501b:13
#05012:0013
#05018:0000000000130013
#05015:00000013
#05112:13
#05115:0000001300001300
#05118:0000000000130013
#0511b:00130000
#05415:00000013
#0541b:00000013
#05515:13000013
#05518:0000000000000013
#0551b:13
#05612:13
#05615:00000013
#05618:0000000013000013
#05718:00000013
#05712:0000000000130000
#05715:0000000000000013
#0571b:00230000
#0571f:21
#05912:0014000000140000
#0591a:0000001400000014
#06012:0014000000000000
#06018:0000140000000014
#06014:0000001400001400
#0601a:0014
#06315:1300001300000000
#0631b:00130000
#06318:0000000000130000
#06312:00000013
#06418:00000000000000001300001300000000
#06415:0000000000130013
#06412:0013
#0721b:00001313
#07212:00001313
#07312:00130000
#07315:0000000013000013
#07318:00130013
#0731b:0013
#0741b:0013
#07418:0013000000000000
#07412:0013000000000000
#04312:13330013
#08415:0000001200120000
#08419:00121212
#0581a:0000000014343434
#05810:41
#07818:0013000000000000
#07815:0013
#0781b:0013
#07812:0013000000000000
#0921b:0013
#09218:00000013
#09212:0000000000000013
#09215:0000000000130000
#01115:13
#01112:0000000000000013
#01415:00000013
#01618:00000013
#01815:00001313
#01818:0000000000130000
#02018:00001313
#02015:0000000000130000
#02212:00001313
#02218:0000000000130000
#0241b:00001313
#02415:0000000000130000
#02512:1313
#02518:0013000000001300
#02515:0000130000000013
#0251b:0000001300000000
#02510:41
#0261b:0000001300000013
#02615:00001313
#02618:0000000000130000
#02715:13000013
#02718:00130000
#02712:0000001300000000
#0271b:0000000000130013
#02815:0000001313000000
#02918:0000001300001300
#02915:0000000013000013
#0301b:0013000000000000
#03018:00130000
#03015:0000001300000000
#03118:00000013
#03115:0000000000000013
#0321b:13
#03215:0000001300000000
#03218:0013
#03715:00001313
#03718:0000001300000013
#0371b:0013000000000000
#03815:0000001300001300
#03818:0000000000130000
#0381a:0000000000000024
#04415:1313
#04418:00130000
#0441b:00000013
#05215:00000013
#0531b:13
#05312:0000000000001313
#06212:13130000
#06218:0013000000002300
#06118:0000000000000013
#06115:00131300
#0611b:0013001300000000
#06114:14
#06515:00000013
#0651b:0000000000130000
#06518:0000000000000013
#06512:00230000
#0671a:0000000000140000
#06712:0034340000000014
#0681a:0014000000140000
#06814:00140014
#06818:0000001400000014
#06812:0014
#07118:1300001300000000
#07112:00130000
#07115:0000000000130000
#0711b:00000013
#07110:41
#07015:13130023
#0701b:0013000000000000
#0691b:0000000000000013
#06912:14131300
#06918:0013001300000000
#0751b:00130000
#07518:0000000013000013
#07515:00130013
#07512:0013
#07612:0013
#07615:0013000000000000
#0761b:0013000000000000
#0771b:00130000
#07718:0013
#07715:0000000000000013
#08015:0013000000000000
#08018:0013
#08012:0013
#0801b:0013000000000000
#07912:00130000
#07915:0013
#07918:0000000000000013
#08318:1333
#08315:1333
#0811b:13
#08112:13
#08118:0033
#08115:0033
#08110:41
#08618:00001313
#08615:0000000000130000
#08815:0000000013000013
#08818:00000013
#08912:13
#08918:13
#0891b:00000013
#08915:00000013
#09015:00001313
#09018:0000000000130013
#0911b:13
#09115:13
#09112:00000013
#09118:00000013
#0091b:00000000000000000000001300000000
#00910:41
#03512:24
#0351a:0000242400000000
#03516:0000000000242400
#0391a:24
#03912:0000242400000000
#03916:0000000000242400
#06612:0000000000343434
#0025b:00630000
#00358:0053000000000000
#00355:0000000000000063
#00555:53
#00552:00230000
#0055b:53
#00558:00230000
#00652:53000053
#00655:0000005300000000
#00756:00130000
#03452:0013000000000000
#0415b:53
#04158:00230000
#04352:53
#04952:00000013
#0505b:13
#05552:0000001300000000
#05555:63
#0555b:53
#05558:0000001300000000
#05652:53
#05658:0000000000000053
#0575b:00130000
#05755:0000000000000053
#0585a:0054
#05852:00130000
#0595a:0000001400000014
#05952:0000000000140000
#0745b:0053
#07458:00000013
#07855:0053
#07852:00000013
#0785b:0053
#07858:00000013
#05158:0000000000000053
#01155:53
#01152:0000000000000023
#02555:0000000000000053
#0275b:0000000000000053
#02855:0053
#03055:0000005300000000
#0325b:53
#03258:0053
#03355:0000000000000053
#03758:0000000000000063
#0385b:0013000000000000
#0445b:00000063
#0535b:53
#05352:0000000000000053
#06352:00000053
#06455:0000000000000063
#0675a:0000000000140000
#06752:0000001400000014
#06558:0000000000000063
#06552:00130000
#0715b:00000063
#07652:0063
#07655:00000013
#0775b:00530000
#07758:0053
#08058:0063
#08052:0063
#0805b:00000013
#08055:00000013
#07952:00630000
#07955:0063
#08358:63
#08355:53
#0815b:53
#08152:63
#08958:53
#08952:53
#0895b:00000063
#08955:00000063
#0915b:63
#09155:63
#09152:00000053
#09158:00000053
#00858:0000000000000053
#0095b:00000000000000000000002300000000
#0665b:00130000
#0023b0:00130000
#002380:00000023
#003380:0013000000000000
#0033b0:0000002300000000
#003350:0000000000000013
#004320:00000023
#005350:1323
#005320:00530000
#0053b1:1323
#005381:00530000
#006321:13000033
#006351:0000003300000000
#007361:00230000
#008381:0000000000000013
#0093b1:00000000000000000000005300000000
#010381:0023
#011351:13
#011321:0000000000000053
#012351:00000023
#013381:13000033
#0133b1:0000003300000000
#0143b1:0033000000000000
#014381:0023
#015351:13000033
#015321:0000003300000000
#016321:0033000000000000
#016351:0023
#017351:13
#017321:0000002300000000
#017381:00000013
#0183b1:0023000000000000
#019381:13
#0193b1:0000002300000000
#019351:00000013
#020321:0023000000000000
#021321:13
#021361:0000002300000000
#0213b1:00000013
#022371:0023000000000000
#0233b1:13
#023371:0000002300000000
#023321:00000013
#024361:0023000000000000
#025351:0000000000000013
#026321:0023000000000000
#0273b1:0000000000000013
#028381:0023000000000000
#028351:0013
#028321:0000000000000033
#029321:23
#030351:0000001300000000
#031321:23
#0323b1:13
#032381:00230000
#032381:0013
#0323b1:0000000000000033
#0333b1:23
#033351:0000000000000013
#034321:0023000000000000
#037381:0000000000000013
#0383b1:0023000000000000
#0413b1:1323
#041381:00530000
#043321:13330000
#043351:0023
#0443b1:00000013
#0453b1:33
#045381:00230000
#0463b1:0000001300000000
#046381:00000023
#046351:0000000000000013
#047321:0023
#051381:0000000000000013
#0523b1:0023
#0533b1:13
#053381:0000002300000000
#053321:0000000000000013
#054351:0000002300000000
#055351:13
#055321:0000002300000000
#0553b0:13
#055380:0000002300000000
#056320:13
#056350:00230000
#056380:0000000000000013
#0573b0:0033230000000000
#057350:0000000000000013
#058320:0033230000000000
#0583a0:0000000014343434
#059360:24
#063320:00000013
#064350:00230000
#064350:0000000000000013
#065320:0033230000000000
#065380:0000000000000013
#0663b0:0033230000000000
#066320:0000000014343434
#067360:34
#067320:0034342400000000
#0713b0:00000013
#072380:00230000
#0743b0:0013
#074380:00000023
#076320:0013
#076350:00000023
#0773b0:00130023
#077380:0033
#078350:0013
#078320:00000023
#0783b1:0013
#078381:00000023
#079321:00130023
#079351:0033
#080381:0013
#0803b1:00000023
#080320:0013
#080350:00000023
#0813b0:13
#081380:0033
#082380:0033
#083380:3333
#0843b0:23
#081321:13
#081351:0033
#082351:0033
#083351:3333
#084321:23
#085381:13
#0853b1:0000002300000000
#085320:13
#085350:0000002300000000
#085350:00000013
#086320:0023000000000000
#0853b1:00000013
#086381:0023000000000000
#087351:13
#087321:0000002300000000
#0873b0:13
#087380:0000002300000000
#087380:00000013
#0883b0:0023000000000000
#087321:00000013
#088351:0023000000000000
#089381:13
#0893b1:0000002300000000
#089320:13
#089350:0000002300000000
#089350:00000013
#090320:0023000000000000
#0893b1:00000013
#090381:0023000000000000
#091351:13
#091321:0000002300000000
#0913b0:13
#091380:0000002300000000
#091380:00000013
#0923b0:0023000000000000
#091321:00000013
#092351:0023000000000000
