This file was generated by Ched 2.7.0.0.
#TITLE ""
#ARTIST ""
#DESIGNER ""
#DIFFICULTY 0
#PLAYLEVEL
#SONGID ""
#WAVE ""
#WAVEOFFSET 0
#JACKET ""
#REQUEST "ticks_per_beat 480"
#00002: 4
#BPM01: 192
#00008: 01
#TIL00: ""
#HISPEED 00
#MEASUREHS 00
#0011c:0012
#0011a:0000000000120000
#00118:00000012
#00116:0000000000000012
#00214:12
#00212:0012120000000000
#00217:00120000
#0021c:00000012
#00317:1212001200001212
#00312:1212000000000000
#0031c:0000000000001212
#00319:0012
#00315:0000000000120000
#00417:00000012
#0051c:12000012
#00518:00120000
#00512:12
#0051a:0012
#00516:0012
#00712:1400001400001400
#0071a:1400001400001400
#00716:0012000000120000
#00718:00121200
#0151b:0013001300000000
#01512:13000000001300000000000013000000
#01518:00131313
#01515:00000013000013000000130000001300
#0161b:0013000013130000
#01612:0000000013130000
#01615:0013001300000000
#01618:13130000
#01712:2300130013001313
#01718:0013000000130000
#0171b:1300130013001313
#01715:0000001300000000
#0181b:0013130013001300
#01812:0013
#01818:1300001300130013
#01815:00001300130000000000000000130013
#02118:0000001600000000
#02112:2600001300001300
#02115:0016130013160016
#0211b:13000013
#02212:0013000000131300
#02215:1300131613000013
#02218:00001613000000000000130013000000
#0221b:0000000013000013
#02512:1200000000001212
#02514:0012000000000000
#02516:00120000
#02518:0000001200000000
#0251a:0012
#0251c:0000000000001212
#02510:41
#02618:0012000000120000
#0261c:0000001200000000
#0261a:0012
#02616:00000012
#02614:0000000000000012
#02716:0000121200000000
#0271a:00000012
#0271c:0012001200000012
#02712:1200000012000012
#02718:1200000000120000
#02714:00000012
#0291a:0000001212000012
#02918:00000012
#0291c:12
#02912:12000012
#02914:0000001212000012
#02916:0000000000120000
#0301a:0012001200000000
#03018:00120000
#0301c:12
#03014:0012001200000000
#03012:00120000
#03016:12
#0331b:1300130013001313
#03312:13131313
#03317:0013000000130000
#03316:0000001300000013
#03416:0000001300000000
#0341b:13131300
#03417:0013000000130000
#03412:1300130013131300
#03418:00000000000000000000000000130000
#03415:0000000000000023
#03512:1300132300001300
#0351b:2300001300132300
#03515:0016000016230000
#03516:00000000000000000000000000000013
#03518:00230000
#0401a:0014
#04014:00000014
#04018:000000130000000014000000
#04015:0000001300000000
#04016:000000000000001400001400
#04012:000000130000000000000000130000000000000000001400
#04212:1300001313000013
#0421b:0013130000131300
#04216:14141414
#04518:00131313
#04512:13
#0451b:13
#04515:0000330000000013
#04712:13000013
#04715:0000130013000013
#0471b:13
#04718:00330000
#04818:1300000013000013
#0481b:0013000000130000
#04815:00000000000013000000000000000013
#04812:00130000
#0491b:1313
#04917:00130013
#04912:13130013
#04916:0013
#04919:0000000000000013
#0491f:11
#0501b:1313
#05016:1313
#05012:00130013
#05017:00130013
#05019:0000000000000013
#05112:1300001300001313
#05115:00131300
#05118:0013000000130000
#0511b:1300000000001313
#05214:00000013
#05219:00000000000000000000000000130000
#05216:0000000000000013
#0521b:00000000130000000000000000000013
#05218:0013001313000000
#05212:0000000000130000
#05215:13000000000000130000000000000000
#05217:00000000000000000000001300000000
#05318:1616002626001616
#05312:2626001616002626
#05418:0026260016161313
#05412:0016160026260000
#05415:00000000000000000000000000130013
#05515:0013130013131313
#0551b:1300001300000000
#05518:00000013000000130013001300130013
#05512:1300001300000000
#05612:1300130000000013
#0561b:1300130000000013
#05618:00001313
#05615:0000000000130000
#0571b:1313230013000013
#05715:0000000000130000
#05718:00000013
#05717:00130000000000000000000000001300
#05712:0013
#0571f:21
#05817:0013000000000000
#0581b:00131313
#05816:00131300
#05812:0000001300001300
#05818:0000000000130013
#05815:00000000000000000000001300000000
#05810:41
#05912:1300001300000013
#0591b:1313000000130000
#05916:0014141414141414
#06012:0013000000000000
#06015:00000000130000000000001300000000
#06018:0000001300000013
#06016:00000000000000000013000000000000
#06014:00000000000000000000000000130000
#0601b:0013
#0601a:1400000000130000
#06019:00000013
#06013:00000000000000000000000000000013
#06112:0013000000000013
#06119:00130000
#0611a:0000001300000000
#06113:00130013
#06117:13
#06118:0013000000000000
#0611b:0013
#06115:0013
#06213:13
#06214:0013000000000000
#06215:00130013
#06219:13
#0621b:0000130000001313
#06218:0013
#06312:1313000013130000
#06315:00130013
#0631b:0000131300001300
#06318:1313
#06418:000000000013001300000013
#06416:13
#06412:13230023
#06415:000013230013
#0641b:000013
#0721b:13000013
#07212:0000001300001300
#07215:0013000000130000
#07218:00131300
#07312:2300131313000013
#0731b:2300000000131313
#07317:00130000
#07418:1313000013130000
#07412:0000131300001300
#07415:00130000000000000013001300001600
#0741b:0000131300001300
#00917:13000013
#0091b:00130000
#00919:0013000000000013
#00916:0000001300000000
#00912:0000000000130000
#00914:0013
#00910:41
#0101b:1313
#01012:0000001313000000
#01014:0000130000130013
#01016:0013000000001300
#01019:00000000000000000000000000130000
#01017:00000000000000000000000000000013
#0281c:0000001200000000
#02816:00000000000012001200001200120012
#02818:0012120000121212
#02812:0012000000000000
#0311a:12000012
#03118:0012000000120012
#03112:1212000000001212
#03116:00121200
#0311c:0000001212000000
#03114:0000001200000000
#04112:1313
#0411b:00130013
#04116:14141414
#04110:41
#04312:13130013
#0431b:00131313
#04316:1414
#08117:00000013
#08112:13
#08110:41
#08215:13
#08213:00130000
#08212:0000001300001300
#0841b:00120000
#08419:0000001200000000
#08417:0012
#08415:0000000000120000
#08413:00000012
#08518:0013001600130013
#08512:2600001300131600
#08515:00131300
#0851b:13130013
#08612:0013001316001300
#08618:0016001300131613
#08615:13000000130000000000000000130016
#0861b:1313
#09218:0000001316161616
#09212:0000001316161616
#09215:1319130000000000
#0921b:13
#0131b:1300130000000013
#01315:0000000013130000
#01318:0013000000000000
#0141b:1300000000130000
#01412:0000001300000013
#01415:00130000
#08912:2900131900001900
#08918:00131300
#08915:0000000000130000
#0891b:1313000000131313
#09012:1319000019001300
#09015:00000000000013000000000019130013
#09018:1300130000130013
#0901b:0000001313000000
#00612:12000012
#00614:0012000000000012
#00618:0012000000001212
#0061c:0000001200000000
#0061a:0012
#00616:0000001212000000
#01212:0013
#01219:0000001300130013
#01217:00000013
#01214:13000000000000000000000000130000
#0121b:0013000013000000
#0121a:00130000
#01216:00000000000000000000000000000013
#01112:13000013
#01113:0013000000000013
#01114:00130000
#0111b:0000001300000000
#0111a:0013
#01119:0000000000130000
#02312:1300001600001300
#0231b:0000001300001300
#02315:0016000000160016
#02318:26131300
#0241b:0013000000130000
#02418:13000000130000001300000000130013
#02415:00000013000016000000130013001300
#02412:0016000013000000
#03216:12120000
#0321c:0012120000000000
#03214:0012000000000000
#03218:0000001200000000
#03212:0012
#0321a:0012
#0191b:2300130013001313
#01915:0013000000130000
#01912:1300130013001313
#01918:0000001300000000
#02012:0013130013001300
#0201b:0013
#02015:1300001300130013
#02018:00001300130000000000000000130013
#03612:0000130000000014
#03616:0000001400000000
#0361a:00000000000000140000000000000000
#03615:0014
#03619:00000000000000000014000000000000
#03614:0000000000140000
#03618:00000000000000000000001400000000
#03613:00000014
#03617:00000000000000000000000000140000
#0361b:0013130000000000
#03712:1300130013001313
#0371b:13131313
#03716:0013000000130000
#03717:0000001300000013
#03817:0000001300000000
#03812:13131300
#03816:0013000000130000
#0381b:1300130013131300
#03815:00000000000000000000000000130000
#03818:0000000000000023
#04412:13141314
#0441b:00130013
#0441a:1414
#04417:0013000000130000
#04415:0000000000000013
#04416:0000001300000000
#04418:00000000000000000000000000000013
#0461b:1313
#04612:14131413
#0461a:00140014
#04616:0013000000130000
#04618:0000000000000013
#04617:0000001300000000
#04615:00000000000000000000000000000013
#00812:0000140024240000
#0081a:0000000024240000
#06518:0000000000130000
#06515:00000013
#06512:2300230013000013
#06516:0000000000000013
#0651b:1313
#06517:0013000000000000
#06616:0013000000000000
#06612:00131313
#06617:00131300
#0661b:0000001300001300
#06615:0000000000130013
#06618:00000000000000000000001300000000
#0671b:1300001300000013
#06712:1313000000130000
#06716:0014141414141414
#0681b:0013000000000000
#06818:00000000130000000000001300000000
#06815:0000001300000013
#06817:00000000000000000013000000000000
#06819:00000000000000000000000000130000
#06812:1413
#06813:0000000000130000
#06814:00000013
#0681a:00000000000000000000000000000013
#0691b:0013000000000013
#06914:00130000
#06913:0000001300000000
#0691a:00130013
#06916:13
#06915:0013000000000000
#06912:0013
#06918:0013
#0701a:13
#07019:0013000000000000
#07018:00130013
#07014:13
#07012:00130013
#07015:0000000013000013
#07118:0013130000130013
#07115:13000000000013001300000000000013
#0711b:13001313
#07112:00130013
#07110:41
#0751b:2300131313000013
#07512:2300000000131313
#07516:00130000
#07615:1313000013130016
#0761b:0000131300001300
#07618:00130000000000000013001300000000
#07612:0000131300001300
#07712:23131300
#07717:00130013
#0771b:2300001300130013
#07716:0000001300130013
#07817:1313000000000000
#07815:00000000130000000013000013000000
#07812:00130000000013000000001300000000
#0781b:00131313
#07818:0000001300130016
#08712:1300131600001300
#08718:26131316
#08715:0013000000130013
#0871b:0000001300130000
#0881b:0013001300001300
#08818:13000000130000001600000000130000
#08812:1316000013001600
#08815:00000000000013000000130000001316
#09115:2900131913001900
#09118:0000000000130000
#09112:1313000000131313
#0911b:00130000
#0391b:1300132300001300
#03912:2300001300132300
#03915:0016230016000000
#03917:00000000000000000000000000000013
#03918:0000000000230000
#0791b:23131300
#07916:00130013
#07912:2300001300130013
#07917:0000001300130013
#08016:1313000000000000
#08018:00000000130000000013000013000000
#0801b:00130000000013000000001300000000
#08012:0000130013001316
#08015:0000001300130000
#08312:23
#00252:00520000
#00357:0052000000000062
#0055c:52000022
#00558:00220000
#0055a:0052
#01852:0013
#0185b:00000013
#02255:0013
#02258:00000013
#02552:0000000000000052
#02758:52
#02756:0000006200000000
#0275c:0022000000000012
#02752:0000000022000012
#04952:00000013
#0505b:13
#05652:0000000000000053
#0575b:00130000
#05757:00230000000000000000000000005300
#05952:0000001300000013
#0595b:0000000000130000
#05956:0000000000000054
#07357:00530000
#07352:0023
#08558:0000001600000000
#08552:16000016
#08652:0016
#08658:0016000000001600
#01752:13
#02152:16
#08952:1900001900001900
#09052:0019000019000000
#09055:00000019
#0075a:00000054
#0155b:0000001300000000
#01552:00000013
#0165b:0013000000000000
#02458:0013
#02455:00000013
#02358:16
#0205b:0013
#02052:00000013
#0195b:13
#03054:0000005200000000
#0305a:0000005200000000
#0355b:13000013
#03552:0000001300005300
#03556:00000000000000000000000000000023
#04552:53
#0475b:63
#05352:3636000000003636
#05358:0000004646000000
#05452:0000000036360000
#05458:0046460000000000
#0605a:24
#0615b:0053
#06155:0013
#06255:00530000
#0625b:00130000
#0635b:00000053
#06456:23
#06752:0000000000130000
#0675b:0000001300000013
#06756:0000000000000064
#07058:00630000
#07052:00130000
#06556:0000000000000063
#06552:00130000
#06557:0023000000000000
#0655b:53
#06852:24
#06952:0063
#06958:0013
#0745b:00000013
#0755b:0023
#07556:00630000
#07652:00000013
#0775b:0000002300000000
#07757:00530000
#07752:0053
#07756:0000000000230000
#0785b:00000013
#08752:0000001600000000
#08758:16000016
#08858:0016
#08852:0016000000001600
#09155:1900001900001900
#09255:0019000000000000
#09258:00001616
#09252:0000000000160016
#0395b:0000001300006300
#03957:00000000000000000000000000000023
#03952:13000013
#07952:0000002300000000
#07956:00630000
#0795b:0063
#07957:0000000000230000
#08052:00000013
#0585b:00130000
#06652:00130000
#002320:00120000
#002370:00000022
#003370:0012000000000000
#0033c0:0000002200000000
#003370:0000000000000012
#004320:00000022
#0053c0:12000052
#005380:00520000
#0053a0:0032
#006380:22
#0073a0:00000014
#008360:00240000
#009320:13
#009360:00230000
#0093b0:0000001300000000
#009370:0000000000230000
#009320:00000013
#010360:23
#0103b0:0013000000000000
#010370:0000002300000000
#0113b0:13
#011370:00230000
#011320:0000001300000000
#011360:0000000000230000
#0113b0:00000013
#012370:23
#012320:0013000000000000
#012360:0000002300000000
#013320:1300002300000000
#013350:00530000005300000000000000000000
#013381:0000001300002300
#0133b1:00000000000000530000005300000000
#013320:00000013
#013360:00000000000000000000000000530000
#014360:00530000000000000000000000000000
#014320:0023000000000000
#014371:0013000023000000
#0143b1:00000053000000530000000000000000
#014320:0013
#014360:00000000000000000053000023000000
#0143b1:00000013
#014371:00000000000000000000000000530000
#015371:23
#025321:0000000000000012
#026361:0022000000000000
#027381:12220000
#0273c1:0052000000000000
#027361:0000001200220000
#027321:0052
#0303a1:0000001200000000
#0303c1:00000022
#030340:0000001200000000
#030360:00000022
#035320:00000013
#035360:00000000000000000000000000000053
#036320:0023000000000000
#0393b0:00000013
#039370:00000000000000000000000000000053
#0403b0:0023000000000000
#045320:13
#045350:00332300
#0473b0:13
#047380:00332300
#056320:0000000000000013
#057370:00530000000000000000000000000000
#057320:00230000
#057370:0000000000000013
#058320:0023000000000000
#059360:0000000000000014
#0603a0:54
#060360:0024000000000000
#0613b0:0013
#061380:0000000000000023
#062350:00130000
#062320:0023
#0633b0:00000013
#064360:53
#0643b0:00230000
#0653b0:13230000
#065370:0053000000000000
#065360:0000000000000013
#0663b0:0023000000000000
#067360:0000000000000014
#068320:54
#068360:0024000000000000
#069320:0013
#069350:0000000000000023
#070380:00130000
#0703b0:0023
#073370:00130000
#0733b0:0023
#073321:0013
#073361:00000023
#075361:00130000
#075321:0023
#0753b0:0013
#075370:00000023
#077370:00132300
#0773b0:0000005300000000
#077321:00001323
#077361:0000000000530000
#079361:00132300
#079321:0000005300000000
#0793b0:00001323
#079370:0000000000530000
#081370:13
#0813b0:00530000000000000000000000000000
#0833b0:33
#083350:00530000000000000000000000000000
#084350:23
#083321:13
#083381:00530000000000000000000000000000
#084381:23
