This file was generated by Ched 2.7.0.0.
#TITLE ""
#ARTIST ""
#DESIGNER ""
#DIFFICULTY 0
#PLAYLEVEL
#SONGID ""
#WAVE ""
#WAVEOFFSET 0
#JACKET ""
#REQUEST "ticks_per_beat 480"
#00002: 4
#BPM01: 192
#00008: 01
#TIL00: ""
#HISPEED 00
#MEASUREHS 00
#0011a:1414
#00214:1414
#00318:1414
#00412:1414
#0371a:14
#03712:00140000
#03718:0014
#03714:00000014
#0381a:14
#03812:00140000
#03818:0014
#03814:00000014
#03918:14
#03912:00000014
#03914:00140000
#0391a:0014
#04914:1414
#04918:00140014
#0491f:11
#05014:1414
#05018:00140014
#05112:1414
#0511a:00140014
#05212:1414
#0521a:00140014
#0731a:14
#07314:00140000
#07318:0014
#07312:00000014
#07418:14
#07414:00140000
#0741a:0014
#00918:1414
#00914:00140014
#00910:41
#0101a:1414
#01012:00140000
#01114:1414
#01118:00140014
#01212:1414
#0121a:00140000
#0131a:1414
#01314:00140014
#01418:1414
#01412:00140000
#01512:1414
#01518:00140014
#01614:1414
#0161a:00140000
#0171a:14
#01714:00140000
#01718:0014
#01712:00000014
#01912:14
#01918:00140000
#01914:0014
#0191a:00000014
#02118:14
#02112:00140000
#0211a:0014
#02114:00000014
#02314:14
#0231a:00140000
#02312:0014
#02318:00000014
#0251a:1414
#02514:00140000
#02510:41
#02612:1414
#02618:00140000
#0271a:1414
#02714:00140000
#02812:1414
#02818:00140000
#04118:0014
#04110:41
#04212:14
#0421a:0014
#04314:14
#04418:0014
#04518:14
#04612:0014
#04712:14
#0481a:0014
#05714:00140000
#0571a:0014
#05712:00000014
#05718:24
#0571f:21
#05818:14
#05814:00140000
#0581a:0014
#05812:00000014
#05810:41
#06018:14
#06214:00000014
#06218:3434000000000000
#06318:1400001400001400
#06314:0000140000140000
#06518:00140000
#06512:0014
#0651a:00000014
#06514:24
#06614:14
#06618:00140000
#06612:0014
#0661a:00000014
#06814:14
#07018:00000014
#07014:3434000000000000
#07114:1400001400001400
#07118:0000140000140000
#07110:41
#07512:14
#07518:00140000
#07514:0014
#0751a:00000014
#07614:14
#07618:00140000
#07612:0014
#0771a:14
#07714:00140000
#07718:0014
#07712:00000014
#07818:14
#07814:00140000
#0781a:0014
#07912:14
#07918:00140000
#07914:0014
#0791a:00000014
#08014:14
#08018:00140000
#08012:0014
#08512:14
#08518:00140000
#08514:0014
#0851a:00000014
#0871a:14
#08714:00140000
#08718:0014
#08712:00000014
#0331a:1414
#03314:00140014
#03418:1414
#03412:00140014
#0351a:14
#03514:00140014
#03518:0014
#05512:24
#0551a:24
#0181a:00343400
#02012:00343400
#02218:00343400
#02414:00343400
#06114:0034343400000000
#06918:0034343400000000
#08612:00343400
#0881a:00343400
#08110:41
#03952:00000054
#04154:14
#04354:54
#04558:54
#04752:54
#05552:54
#0555a:64
#05758:14
#06058:54
#06854:64
#06554:14
#06358:00000054
#07154:00000064
#0645a:0014
#07252:0014
#03554:00000054
#0053a0:14
#005380:0024
#006320:14
#006340:0024
#0073a0:14
#008380:24
#018380:14
#0183a0:00343424
#020340:14
#020320:00343424
#0223a0:14
#022380:00343424
#024320:14
#024340:00343424
#029380:14
#0293a0:0024
#030340:14
#030320:0024
#031380:14
#0313a0:0024
#032340:14
#032320:0024
#035340:00000014
#036320:0024
#039320:00000014
#040340:00343434
#041340:24
#043340:14
#044320:24
#045380:14
#0463a0:24
#047320:14
#048340:24
#053320:16000036
#053340:0000003600000000
#054340:0036000000000000
#054320:0026
#055320:14
#056340:24
#0553a1:14
#056381:24
#0593a1:14
#059381:00240000
#059321:0014
#059341:00000024
#060381:14
#0603a1:00000024
#061341:1434343400000000
#061321:0024
#061381:0000000000000014
#062381:3434000000000000
#0623a1:00240000
#063381:00000014
#0643a1:0024
#067321:14
#067341:00240000
#0673a1:0014
#067381:00000024
#068341:14
#068321:00000024
#069381:1434343400000000
#0693a1:0024
#069341:0000000000000014
#070341:3434000000000000
#070321:00240000
#071341:00000014
#072321:0024
#081381:14
#0823a1:34
#083361:34
#084381:24
#086341:14
#086321:00343424
#088381:14
#0883a1:00343424
#089341:14000034
#089321:0000003400000000
#090321:0034000000000000
#090341:0024
#091381:14000034
#0913a1:0000003400000000
#0923a1:0034000000000000
#092381:0000000034343424
