This file was generated by Ched 2.6.4.0.
#TITLE ""
#ARTIST ""
#DESIGNER ""
#DIFFICULTY 0
#PLAYLEVEL
#SONGID ""
#WAVE ""
#WAVEOFFSET 0
#JACKET ""
#REQUEST "ticks_per_beat 480"
#00002: 4
#BPM01: 145
#00008: 01
#TIL00: ""
#HISPEED 00
#MEASUREHS 00
#00219:14
#00313:14
#00419:14
#00513:14
#00912:14
#01218:14
#01210:41
#01318:14
#01412:14
#01512:14
#0161a:14
#0171a:14
#01814:14
#01914:14
#02018:14
#02112:14
#02218:14
#02312:14
#0241a:14
#02410:41
#02514:14
#0261a:14
#02714:14
#03618:2616
#03610:41
#03712:1616
#03818:16
#03812:0016
#04012:1616
#04118:1616
#04312:16
#05412:0016
#05418:26
#0541f:21
#05912:16
#0461a:14
#0461f:11
#04712:14
#04818:14
#0501a:14
#05112:14
#05218:14
#0101a:14
#01114:14
#04212:16
#04218:0016
#04914:14
#05314:14
#05812:16
#05818:0016
#06212:0016
#06618:14
#06714:14
#06718:0026
#06514:14
#06818:0016
#06812:26
#05510:41
#06310:41
#04410:41
#006380:14
#007380:34
#008380:24
#0283a0:14
#0293a0:24
#030320:14
#031320:24
#032380:14
#033380:24
#034340:14
#035340:3424
#039380:16362600
#043380:00001636
#044380:26
#044320:0016
#045320:3626
#055380:1626
#056320:1626
#057380:16362600
#059380:0016
#060380:26
#060320:0016
#061320:26
#061380:00001636
#062380:26
#063380:16
#064380:26
#069320:16
#070320:36
#072320:00240000
