This file was generated by Ched 2.6.4.0.
#TITLE ""
#ARTIST ""
#DESIGNER ""
#DIFFICULTY 0
#PLAYLEVEL
#SONGID ""
#WAVE ""
#WAVEOFFSET 0
#JACKET ""
#REQUEST "ticks_per_beat 480"
#00002: 4
#BPM01: 145
#00008: 01
#TIL00: ""
#HISPEED 00
#MEASUREHS 00
#0021b:00130000
#00219:0000001300000000
#00217:00001313
#00212:00001313
#00216:00130000
#00214:0000000000000013
#0371b:00000013
#03717:0023000000230013
#03716:0000002300000000
#01218:0000000000000013
#01215:13000000130000000000000000000013
#01212:0013000000000000
#0121b:13130000
#01210:41
#0131b:1300000023000023
#01312:0013000000232300
#01318:00130023
#01315:0023
#01512:0013000013001300
#0151b:0000001300130000
#01515:0000000000130000
#01518:00001313
#01618:0013130000000000
#01615:00000013000000000000000000001300
#01612:13
#0161b:13
#01718:0013000023002300
#01715:0000132300000000
#01712:13
#0171b:1300002300230023
#01915:00130000000000002300130000000000
#01918:00000013000000000000130000000000
#0191b:2300001300002300
#01912:0000231300002300
#0271b:13130000
#02712:1300130000001515
#02715:0016000000000000
#02719:0000000013131515
#02714:0000000013130000
#03317:13
#0331b:0013
#03316:00130000
#03312:13000013
#03212:13130000
#03214:0000001300001300
#03213:0000000000000013
#0321b:0013
#03216:0013
#03217:23
#03419:0000001300000000
#03414:0000000000000013
#03416:00231300
#03417:13000023
#03412:23
#0341b:0023
#00316:13130000
#0031b:13130000
#00319:0000001300000000
#00317:0013
#00312:0013
#00318:00000014
#00314:0000000000140000
#0181b:00001313
#01812:13000013
#01818:0000000000130000
#01815:0000000000000013
#01819:00000033000000000000000000000000
#0181a:00330000000000000000000000000000
#01814:00000000000000330000000000000000
#01813:00000000003300000000000000000000
#03512:14241400
#0351a:24142400
#03515:0000000000130000
#03518:0000000000130000
#07218:00000013000000000000000000000000
#07212:00130000
#07215:0013000000000000
#06916:2400001400001300
#06914:0014000000000000
#06912:00140000
#0691a:00130000000000000000140000000000
#06918:00000013000000001400000000000000
#06913:00000000000000130000000000000000
#06915:00000000000000000013000000000000
#05412:2600160000130000
#05418:16260000
#05416:00002323
#0541f:21
#06716:1400001400140014
#06712:0014000014002400
#0671a:00141424
#00912:1313
#0091b:1300000000130000
#00915:00130013
#00918:0000001300000013
#00518:0000001313000013
#0051b:00130013
#00515:00000000000000130013000000000013
#00512:13000000130000000000001300000000
#00517:13
#02112:1300000023000023
#0211b:0013000000232300
#02115:00130023
#02118:0023
#02212:13130000
#0221b:0013000013000000
#02218:1300130000130013
#02215:0013
#0231b:0013000013001300
#02312:0000001300130000
#02318:0000000000130000
#02315:00000013000000001300000013000000
#02415:0013130000000000
#02418:00000013000000000000000000001300
#0241b:13
#02412:13
#02410:41
#02612:00001313
#0261b:13000013
#02615:0000000000130000
#02618:0000000000000013
#02614:00000033000000000000000000000000
#02613:00330000000000000000000000000000
#02619:00000000000000330000000000000000
#0261a:00000000003300000000000000000000
#02515:0013000023002300
#02518:0000132300000000
#0251b:13
#02512:1300002300230023
#03612:1300000000132300
#0361b:00130000
#03616:24242300
#03610:41
#04112:00000013
#04116:0023000000230013
#04117:0000002300000000
#0401b:1300000000132300
#04012:00130000
#04016:24240000
#04017:0023
#0421b:1300000000232300
#04217:0013000023000023
#04212:23230000
#04512:00000000000000130013000013000000
#04518:0000001313130000
#0451b:00130013000000000000000000000000
#04515:2313130000000000
#04915:00000016
#04914:0013000000000000
#0491b:13
#04917:0013
#04919:00130000
#04912:0000001300000000
#0581b:0000000000130000
#05812:16260000
#05818:26160000
#05817:00002323
#0681b:0000000023000013
#06812:0000000000131300
#0681a:24
#06815:0023
#06818:00000023
#0551b:0023000000231300
#05517:0000000000000013
#05512:0000002300000000
#05510:41
#05912:0023000000231300
#05916:0000000000000013
#0591b:0000002300000000
#05917:00000023
#0601b:1300000023000023
#06017:0013000000232300
#06016:00230000
#06012:23
#06616:0013000000001300
#06617:0000130000130000
#06612:0013
#0661b:23
#06315:00130000000000000000000000000000
#0631b:2313000000000000
#06318:00000000001300000000000000140000
#06312:0000231300002414
#06314:00000000000000000014000000000000
#0631a:0000000024140000
#06310:41
#06412:00000013000000001300130000000000
#0641b:1300001300001300
#06416:00000013
#06417:0000000013130000
#0651b:00000013000000001300130000000000
#06512:1300001300001300
#06517:13000013
#06516:0000000013130000
#01415:1300130000130013
#0141b:13130000
#01412:0013000013000000
#01418:0013
#0201b:0013000013000000
#02012:13131300
#02018:13130000
#02015:0000000000130013
#00116:0000000000000014
#0081b:2313
#00818:00130013
#00815:0000001300000013
#00812:0000000000130000
#0101b:1313
#01018:00130013
#01015:0000001300000013
#01012:0000000000130000
#01112:1313
#01115:00130013
#01118:0000001300000013
#0111b:0000000000130000
#0481b:00130013
#04816:00130013
#04817:0013
#04812:1313
#0521b:13131300
#05212:0000130000000013
#05218:0000000000130000
#05215:00000013
#05316:00130000000000000000000000000000
#0531b:1300001300000013
#05312:00000013000013001300000000000000
#05315:0000000000130000
#05318:00000013
#05317:00130000
#04612:00130000
#04616:0013
#04614:00000013
#0461f:11
#04714:00130013
#04716:0013
#04712:13
#0501b:00130000
#05017:1313
#05019:00000013
#05119:00130013
#05117:0013
#0511b:13
#0571b:0013
#05712:2300002300001300
#05716:0023230023000000
#05612:2313
#05616:00130000
#0561b:00230023
#05617:0023
#03816:0013
#03812:23130000
#03817:00230023
#0381b:0023
#03917:0013
#03912:0023230023001300
#03916:2300002300000000
#04317:00000013
#0431b:23131300
#04316:1323
#04312:00000023
#0611b:00130013
#06117:2313
#06112:1323
#06116:00000023
#06212:1323
#06216:0013000000000000
#0621b:00130000
#06217:23
#06215:0000000000230000
#06218:0000000000000023
#02819:00130000
#02816:0013000000000013
#02812:13001313
#02815:0000001300000000
#02817:0013
#0281b:13000013
#02919:13
#02912:00130000
#02915:0013000000000000
#02917:00130000
#02918:00000024
#02914:0024
#03014:00130000
#03017:0013000000000013
#0301b:13001313
#03018:0000001300000000
#03016:0013
#03012:13000013
#03114:13000024
#0311b:00130000
#03118:0013000024000000
#03116:00130000
#00412:23130000
#00414:0000001300000000
#00416:00001313
#0041b:23001313
#00417:00130000
#00419:0000000000000013
#04417:00130000
#0441b:2323
#04418:0000000000230000
#04412:0000000000000023
#04410:41
#07018:26
#07012:23
#00014:0000000000000000000000000000000000000028000000000000000000000000
#00714:00000000000000000000000000000033
#00713:00330000000000000000000000000000
#00619:00000000000000000000000000000033
#03656:44340000
#0375b:00000053
#03757:0000000000000023
#03357:53
#0335b:0063
#03356:00630000
#03352:53
#00358:00000014
#01958:0000000000230000
#01955:0000000000230000
#0195b:00000043
#01952:00000033
#03555:0000000000230000
#03558:0000000000230000
#03552:00005434
#0355a:00006444
#06956:00000053
#06952:00340000
#0695a:0000000000440000
#07058:56
#07052:13
#06752:00003454
#06756:0000000000240024
#0675a:00005444
#0685a:44
#06852:34
#0085b:1313
#03257:53
#0325b:0063
#04152:00000063
#04156:0000000000000023
#04056:34440000
#0425b:53
#04257:0023000000000000
#04252:33
#04552:00000063
#04558:0000000000130000
#04555:00130000
#03456:0053
#03457:63
#0555b:00000063
#05557:0000000000000023
#05952:00000053
#05956:0000000000000023
#0605b:63
#06057:0023000000000000
#06052:33
#06656:0023000000000000
#06657:0000000000230000
#0635b:0013000000000000
#06352:0000001300000014
#0635a:0000000000140000
#06452:00000063000000000000530000000000
#0645b:53000023
#06456:00000023
#06457:0000000000530000
#0655b:00000053000000000000630000000000
#06552:63000023
#06557:00000023
#06556:0000000000630000
#00156:0000000000000024
#00054:0000000000000000000000000000000000000068000000000000000000000000
#00254:18
#00952:1313
#0105b:1313
#01152:1313
#05452:36
#05458:00460000
#05858:46
#05852:00360000
#04656:13
#0575b:0063
#06257:13
#06252:53
#06256:0023000000000000
#05652:0053
#05656:00630000
#03856:0063
#03852:00530000
#03957:0053
#04357:00000053
#0435b:0063
#04356:63
#0445b:13
#0615b:00000063
#06157:0053
#06152:53
#02958:00000044
#02954:0034
#03154:00000034
#03158:0044
#05057:13
#000340:0000000000000000000000000000000000000018000000000000000000000000
#001360:0000000000000054
#002340:28
#006380:1300333300333300
#0063b0:00003300000000330033000000003300
#006390:00000000000000000000000000000033
#007380:23
#007351:1300333300333300
#007331:00330000000000000000000000000000
#007321:00003300000000330033000000003300
#007341:00000000000000000000000000000033
#008351:23
#010321:13230000
#0113b1:13230000
#012381:00000000000000001300002300000000
#012350:00000000000000000000001300002300
#014380:00000000000000000000001300002300
#015380:1323000000000000
#015350:0000132300000000
#016350:00000000000000001300002300000000
#016381:00000000000000000000001300002300
#017351:0000001300330023
#017321:00003333
#018381:13230000
#0183a1:00330000000000000000000000000000
#0183b1:0033000000000000
#018391:00000033000000000000000000000000
#018350:00132300
#018330:00000000003300000000000000000000
#018320:0000003300000000
#018340:00000000000000330000000000000000
#019380:0000000013330000
#0193b0:00000023
#019351:0000000000130000
#019321:00000023
#020381:00000000000000000000001300002300
#022351:00000000000000000000001300002300
#023351:1323000000000000
#023381:0000132300000000
#024381:00000000000000001300002300000000
#024350:00000000000000000000001300002300
#025380:0000001300330023
#0253b0:00003333
#026350:13230000
#026330:00330000000000000000000000000000
#026320:0033000000000000
#026340:00000033000000000000000000000000
#026381:00132300
#0263a1:00000000003300000000000000000000
#0263b1:0000003300000000
#026391:00000000000000330000000000000000
#032371:13
#0323b1:0033
#033371:33000023
#0333b1:0033
#033320:1323
#033360:00330000
#034371:13
#0343b1:00230000
#034361:0013
#034321:00000023
#035321:00001424
#035351:0000000000530000
#0353a0:00001424
#035380:0000000000530000
#0363b0:00001323
#036370:0000000000330000
#037320:1323000000000000
#0373b0:0000132300000000
#037320:0000000013230000
#0373b0:00000013
#037370:0000000000000053
#0383b0:23
#038320:00130023
#038360:0033
#0393b0:1300003300002300
#039370:0033330033000000
#040320:00001323
#040360:0000000000330000
#0413b0:1323000000000000
#041320:0000132300000000
#0413b0:0000000013230000
#041320:00000013
#041360:0000000000000053
#042320:23
#0423b1:13230000
#042371:0053000000000000
#042321:0000000013000033
#042361:0000000000333300
#043361:33
#043321:00230000
#0433b1:0013
#043371:00000033
#0443b1:23
#044360:13
#044320:00230000
#044320:0013
#044350:00000023
#044381:00000013
#0453b1:23
#045321:00000013
#046361:23
#0463b0:13000033
#046390:0000330000330000
#0473b0:33000033
#047390:0000330000330000
#0483b0:23
#050320:13000033
#050340:0000330000330000
#051320:33000033
#051340:0000330000330000
#052320:23
#0543b0:00001323
#054370:0000000000330000
#055320:13
#055360:0023000000000000
#0553b0:00130000
#055370:0000002300000000
#055320:0013
#055360:0000000000230000
#0553b0:00000013
#055370:0000000000000053
#0563b0:23
#056360:00130023
#056320:0033
#057370:1300003300002300
#0573b0:0033330033000000
#058320:00001323
#058360:0000000000330000
#0593b0:13
#059370:0023000000000000
#059320:00130000
#059360:0000002300000000
#0593b0:0013
#059370:0000000000230000
#059320:00000013
#059360:0000000000000053
#060320:23
#0603b1:13230000
#060371:0053000000000000
#060361:0000000013000033
#060321:0000000000333300
#061321:33
#061361:00230000
#061371:0013
#0613b1:00000033
#062371:23
#062320:13230000
#062360:0053000000000000
#062380:0013
#0623b0:00000023
#062321:00000013
#063351:23
#0643b1:13
#064371:00000023000000000000000000000000
#064320:00000013000000000000000000000000
#064360:0000002300000000
#064320:0000000000130023
#064360:00000053
#064371:0000000000130023
#0643b1:00000053
#065321:13
#065361:00000023000000000000000000000000
#0653b0:00000013000000000000000000000000
#065370:0000002300000000
#0653b0:0000000000130023
#065370:00000053
#065361:0000000000130023
#065321:00000053
#066361:1353000000000000
#066321:00230000
#066371:0000000013530000
#0663b1:00000023
#0673a1:00001424
#067361:0000000000540000
#067320:00000014
#067360:0000000000000054
#068320:24
#069360:00000013
#070320:23
#070381:16
#072381:0023000000000000
