This file was generated by Ched 2.6.4.0.
#TITLE ""
#ARTIST ""
#DESIGNER ""
#DIFFICULTY 0
#PLAYLEVEL
#SONGID ""
#WAVE ""
#WAVEOFFSET 0
#JACKET ""
#REQUEST "ticks_per_beat 480"
#00002: 4
#BPM01: 145
#00008: 01
#TIL00: ""
#HISPEED 00
#MEASUREHS 00
#00218:0000001300001300
#00212:0013
#00215:0000130000000013
#00518:00130013
#0051b:0013
#00515:0000001300000013
#00512:1300000000130000
#01215:0013000000000000
#01218:00130000
#0121b:13
#01210:41
#0141b:0013000000000000
#01415:13
#01412:00130000
#0141a:0000000000330000
#01615:0013130000000000
#01618:00000013000000000000000000000000
#0031b:13
#00318:0000001300001300
#00312:0013
#00315:00130000
#01515:1313
#01512:00130013
#01518:0013000000130000
#0151b:0000001300001300
#05415:0000000000130000
#0541b:0023
#05418:00000023
#0541a:24240000
#05412:24240000
#0541f:21
#00915:13
#0091b:13
#00912:00130000
#00918:0000001300000000
#00418:0000130000000013
#00415:0000001300001300
#0041b:2313
#00412:23
#01012:13
#01018:1300001300000000
#01015:00130000
#04412:0000000000130000
#04415:0000000000000013
#04416:13
#0441b:2323
#04418:00000023
#04410:41
#05612:00130013
#0561b:0013
#05617:00230023
#05616:0023
#0611b:0013
#06112:00000013
#06114:13
#06119:13
#06116:0023
#06117:00000023
#0621b:1300000000130000
#06218:0000000000000013
#06216:23
#06212:0023
#06215:00000023
#06718:13130000
#06715:0013001300000000
#0671b:00000013
#06712:00002313
#06815:0000000000130000
#06812:0000000000000013
#06818:0023
#0681b:00000023
#0691b:00000013
#00116:0000000000000014
#0111b:13
#01115:1300001300000000
#01118:00130000
#00716:0013
#00712:13
#0061b:13
#01318:1300000000230023
#01315:0013000023002300
#0131b:00130000
#01715:13002323
#01718:0013000000000000
#01712:00130000
#0171b:0000002300230023
#01815:13000000000000330000000000000000
#01812:00003333130000000000000013000000
#01818:0000000000130000
#0181b:0000000000000013
#01813:00330000003300000000000000000000
#01814:0000003300000000
#0081b:00130000
#00815:0000001300000000
#00818:23
#02018:0013000000000000
#02015:00130000
#02012:13
#02019:0000000000330000
#02212:0013000000000000
#02218:13
#0221b:00130000
#02213:0000000000330000
#02418:0013130000000000
#02415:00000013000000000000000000000000
#02410:41
#02318:1313
#0231b:00130013
#02315:0013000000130000
#02312:0000001300001300
#02115:1300000000230023
#02118:0013000023002300
#02112:00130000
#02518:13002323
#02515:0013000000000000
#0251b:00130000
#02512:0000002300230023
#02618:13000000000000330000000000000000
#0261b:00003333130000000000000013000000
#02615:0000000000130000
#02612:0000000000000013
#0261a:00330000003300000000000000000000
#02619:0000003300000000
#02718:1300000000130013
#0271b:00130000
#02715:0013000013001300
#02812:13
#02814:00130000
#02818:0013000000000000
#0281a:0000001300000000
#02816:0013
#0281b:00000013
#02815:0000000000000013
#02919:13
#02913:0013000000000000
#02917:00130000
#02914:0024
#02918:00000024
#03012:13
#03014:00130000
#03018:0013000000000000
#0301a:0000001300000000
#03016:0013
#0301b:00000013
#03015:0000000000000013
#03119:13
#03113:0013000000000000
#03117:00130000
#03114:0024
#03118:00000024
#0321b:00000013
#03216:00000013
#03212:23
#03312:00000013
#03317:00000013
#0331b:23
#0341b:13
#03418:0000230023000013
#03415:0000001300002300
#03412:23
#03512:13241500
#0351a:00140000
#0351b:23
#03519:0025
#0381b:00130000
#03814:0013
#03817:00000013
#03816:00230000
#03819:0023
#03812:00000023
#03615:0000000000130000
#03618:26002323
#03612:00260000
#03610:41
#03712:1313
#03715:00130000
#03718:0023000000230000
#0371b:0000002300000000
#04312:2313
#04319:00000013
#04317:0023
#04314:00000023
#04018:0000260000130000
#04012:26
#04015:00002323
#0411b:1313
#04118:00130000
#04115:0023000000230000
#04112:0000002300000000
#0421b:0000000000130000
#04218:2300000000000013
#04212:0023
#04215:00000023
#0461b:13
#04615:13001313
#04618:0000130000130000
#04612:00130000
#0461f:11
#0471b:1313
#04712:0013000000130000
#04718:00130000
#04715:0000001300000000
#04817:00130000
#04812:00130000
#04819:0013
#04814:0013
#0481b:00000013
#04816:00000013
#05012:13
#05018:13001313
#05015:0000130000130000
#0501b:00130000
#05112:1313
#0511b:0013000000130000
#05115:00130000
#05118:0000001300000000
#05218:00001313
#05215:0000000000130013
#0531a:14140000
#05312:14140000
#05318:00001414
#05314:0000000000140000
#05512:13001313
#05515:0000130000000013
#0551b:0023000000230000
#05518:0000002300000000
#05510:41
#05818:0000000000130000
#05812:24242300
#05815:00000023
#0581a:24240000
#0591b:13001313
#05918:0000130000000013
#05912:0023000000230000
#05915:0000002300000000
#0641a:14
#06418:0000001400130000
#06412:00000014000000000000000000000000
#06415:0013
#06512:14
#06514:0000001400000000
#0651a:00000014000000000000000000000000
#06518:0013
#06515:0000000000130000
#0661b:13
#06618:0013000000000000
#06612:0013
#06615:0000000000130000
#06315:1313
#06318:00130000
#0631b:2313
#06312:00130000
#06310:41
#05719:0013
#05714:0013
#05716:23
#03912:0013000000000000
#03915:0000001300000000
#0391b:2323
#03918:00230000
#0491b:0013000000000000
#04912:13
#04918:0000001300000000
#04915:00130000
#07015:26
#00015:0000000000000000000000000000000000000026000000000000000000000000
#01915:23
#01918:00000023
#0601b:23
#06017:0023
#07217:00003232000000000000000000000000
#00358:00000013
#07055:56
#0675b:00000063
#06752:00000053
#00156:0000000000000024
#00055:0000000000000000000000000000000000000066000000000000000000000000
#00254:18
#00756:0063
#00752:53
#0065b:63
#01855:63
#01852:00230000
#01958:00000013
#02658:53
#0265b:00230000
#03658:16
#03652:00160000
#04052:16
#04058:00160000
#04258:13
#04456:13
#0445b:13
#03559:0015
#03552:0015
#05552:00000053
#05555:0000000000000023
#0595b:00000063
#05958:0000000000000023
#0605b:43
#06256:13
#0625b:13
#06855:13
#06858:13
#06458:0000000000530000
#06555:0000000000630000
#0665b:63
#06658:0023000000000000
#06652:0053
#06655:0000000000230000
#06355:6363
#0635b:6363
#06358:00530000
#06352:00530000
#0545a:14140000
#05452:14140000
#0585a:14140000
#05852:14140000
#05759:0063
#05754:0063
#06154:53
#06159:53
#000350:0000000000000000000000000000000000000016000000000000000000000000
#001360:0000000000000054
#002340:28
#0063b0:13
#007370:23
#007321:13
#007361:0033
#008321:23
#008381:00001323
#009351:00001323
#0103b1:00001323
#011321:00001323
#012321:0000000013000023
#012351:00000000000000000000003300000000
#014381:0000000013000023
#0143a1:0000000000330000
#0143b1:00000000000000000000003300000000
#0163b1:0000000013000023
#016381:00000000000000000000003300000000
#018351:13000000000000332300000000000000
#018331:00330000003300000000000000000000
#018321:00003333330000000000000000000000
#018341:0000003300000000
#019381:0013000000002300
#0203b1:0000000013000023
#020391:0000000000330000
#020381:00000000000000000000003300000000
#022351:0000000013000023
#022331:0000000000330000
#022321:00000000000000000000003300000000
#024321:0000000013000023
#024351:00000000000000000000003300000000
#026381:13000000000000332300000000000000
#0263a1:00330000003300000000000000000000
#0263b1:00003333330000000000000000000000
#026391:0000003300000000
#032321:13
#032361:0023
#032370:13
#0323b0:0023
#0333b0:13
#033370:0023
#033361:13
#033321:0023
#037351:00000013
#038351:23
#0393b1:00001323
#041381:00000013
#042381:23
#043321:13230000
#0453b1:13
#0453a1:00330000000000000000000000000000
#045391:0033000000000000
#045381:00000033000000000000000000000000
#045371:00230000
#045321:0000001300000000
#045331:00000000000000330000000000000000
#045341:0033
#045351:00000000000000000033000000000000
#045361:0000000000230000
#047381:00000013
#048381:23
#049321:00001323
#051351:00000013
#052351:23
#055321:00000013
#055351:0000000000000053
#056321:23
#057361:13
#057331:0033000000000000
#057351:00330000
#057321:0000003300002300
#057341:0033
#0573b0:13
#057380:0033000000000000
#0573a0:00330000
#057370:0000003300002300
#057390:0033
#0593b0:00000013
#059380:0000000000000053
#0603b0:23
#060370:0013
#0603a0:0000000000330000
#060380:00000033
#0603b0:0000000000000033
#061390:33
#0613b0:00230000
#060321:0013
#060351:0000000000330000
#060331:00000033
#060361:0000000000000033
#061341:33
#061361:00230000
#0633b1:1333
#063381:00330023
#063350:1333
#063320:00330023
#064380:0000000000130000
#0643b0:0000000000000023
#065350:0000000000130000
#065320:0000000000000023
#0663b0:13230000
#066380:0053000000000000
#066320:00001323
#066350:0000000000530000
#0673b0:00001333
#068380:23
#067321:00001333
#068351:23
#0693b1:13
#0693a1:00330000000000000000000000000000
#069391:0033000000000000
#069381:00000033000000000000000000000000
#069371:00230000
#069321:0000001300000000
#069331:00000000000000330000000000000000
#069341:0033
#069351:00000000000000000033000000000000
#069361:0000000000230000
#070351:16
#072371:00003232220000000000000000000000
