This file was generated by Ched 2.6.4.0.
#TITLE ""
#ARTIST ""
#DESIGNER ""
#DIFFICULTY 0
#PLAYLEVEL
#SONGID ""
#WAVE ""
#WAVEOFFSET 0
#JACKET ""
#REQUEST "ticks_per_beat 480"
#00002: 4
#BPM01: 145
#00008: 01
#TIL00: ""
#HISPEED 00
#MEASUREHS 00
#00217:00131300
#0021b:0000001300001300
#00212:0000130013000013
#00216:00000013
#00416:00131300
#00412:2300001300001300
#0041b:2300130013000013
#00417:00000013
#0051b:00000000130000000013000013000000
#00512:13000000000013000000001300000000
#00517:13000000000000000000001300000000
#00515:0000000013000013
#00518:00000000000000130000000000000013
#00516:00130000
#03717:0023000000232313
#03712:23002313
#0371b:00230000
#03716:0000002300000000
#04519:00130000000015000000000000000000
#0451b:00000013000000000000000013000000
#04514:00001500000000130000000000000000
#04516:00150013
#04512:25000000000000000013000000000000
#04517:0015
#04515:0000000000150000
#01616:00001414000000000000000000000000
#0161b:13131300
#01612:13130000
#01615:0000000000000013
#01618:00000000000000000000000000000013
#01916:23130000000000000000000000000000
#01917:00000013230000000000000000000000
#01919:0000001300000000
#01914:0000001300000000
#0191b:23000023
#01912:00230023
#03414:0000000000000013
#03412:23000000001300000000000013000000
#03418:00000013000013002300001300000000
#03415:00001300230000130000130000000000
#0341b:23130000000000000013000023000000
#03419:0000000000000013
#00312:00131300
#00316:1300001400140000
#0031b:13131300
#00314:00000018
#00812:2300000013130000
#00815:00130000
#00818:0013001300000000
#00817:00000000000000000000001300000000
#00816:0000000000000013
#0081b:00000000130000001300000000130000
#0181b:1300130013130000
#01812:00130000000013000000000013001300
#01818:00001300000000130000000000000000
#01815:00000013001300000000000000000000
#0531b:1313
#05312:1600130016130000
#05318:00130000160000000000160013001300
#05315:00000013000000000000000000130013
#05314:0000001300000000
#05319:0000001300000000
#07215:00000013000000000000000000000000
#07218:0013000000000000
#07212:00130000
#0641b:00001313
#06417:1300000000130000
#06416:0013
#06412:2300001300130013
#06415:00000013000000000000000000000000
#06616:0013131300000000
#0661b:0000001313000000
#06617:0000000000131313
#06612:2300000000000013
#06916:00140014000000140014000000000000
#06912:2414001400141300
#0691a:1400141414000000
#01012:13001300000000001300000000130000
#0101b:00000000130000000000001300000000
#01019:0000001300000000
#01017:0000000013000013
#01016:0000130000130000
#0061c:12000000000012120000000000000000
#0061a:00001200000000000012120000001200
#00618:00120012
#00714:00001200000000000012120000001200
#00716:00120012
#00712:00000000000012120000000000000000
#0091b:1300000013130000
#00918:00130000
#00915:0013001300000000
#00916:00000000000000000000001300000000
#00917:0000000000000013
#00912:13000000130000001300000000130000
#0111b:13001300000000001300000000130000
#01112:00000000130000000000001300000000
#01114:0000001300000000
#01117:0000130000130000
#01116:0000000013000013
#03914:00130000
#03912:001c001c23001300
#0391b:0000000000130000
#03918:00000000000000000000000000000013
#03915:0000000000000013
#03917:0013
#03919:00230000
#03916:23
#06315:00001300001300000000000000000000
#06318:00130000000013000000000000000000
#06316:00000000000000000014000000140000
#0631a:0000000024001414
#0631b:23130000
#06312:1300230014142400
#06310:41
#0151b:1300130000130000
#01517:0013001313131300
#01512:00001313
#02718:1600160012131415
#02716:0012
#02715:0000000000130000
#02714:00000014
#02713:0000000000000015
#02712:16160000
#03319:0000001300000013
#03314:1300000000000013
#03316:0013001300000000
#03317:0000000013130000
#03312:0013
#03313:00130000
#0331b:00130013
#03318:13
#03616:0014001400000000
#03618:16
#03612:2400160023000013
#0361b:0000000000002313
#0361a:00240000
#03610:41
#05712:001c001c24000000
#05718:00000000240000000000000000000013
#05715:0000000000000013
#05714:00140000
#0571a:00000014
#05716:24
#06512:00001313
#06516:1300000000130000
#06517:0013
#0651b:1300001300130013
#06518:00000013000000000000000000000000
#06012:14000000141c001c
#06018:00000014
#06016:2414000024000000
#0601a:00240000
#06014:00000024
#06816:0000000000140014
#06812:24002414
#0681a:24002424
#02312:1300001300130000
#02315:0000000000000013
#02316:00000014000000001300130013000000
#02318:00000000140000000000000000000013
#0231b:1300001313001300
#02314:0014000000000000
#02116:0013130000230023
#02112:1313000023002300
#0211b:13130000
#02117:00002323
#0201b:1300000000130013
#02017:0013
#02016:00000000000000000000001300000000
#02012:00130000
#02418:0014000000000000
#02416:00000014000000001300000000000000
#02414:00140000
#0241b:1300000000000013
#02412:13
#02410:41
#02517:0013130023002300
#0251b:1313002300230023
#02512:13130000
#02516:0000002300000000
#00118:1415161514151615141516151400000000000000000000000000000012000000
#00112:00160016001600000000000000000000
#00113:0015001500150015001500150000000000000000000000000000000000000000
#00114:1414141400000000
#00116:0000000000000012
#00018:0000000000000000000000000000000000000026141516151415161514151615
#00012:0000000000000000000000000000000000000026000016000000160000001600
#00013:0000000000000000000000000000000000000000001500150015001500150015
#00014:0000000000141414
#03516:00000000000000000000140000120012
#03518:0000000000000012
#03512:24142414
#0351a:14241424
#0411b:23002313
#04116:0023000000232313
#04112:00230000
#04117:0000002300000000
#04212:13000000131c001c
#04219:00000013
#04217:0013230023000000
#04214:00000023
#0421b:23
#0431b:230000130000000013000000
#04312:0013000023000013
#04316:1300000000130000
#04317:000000130013
#04319:00000013
#04314:00000023
#06112:0000140024000014
#06114:0000000000140000
#06116:000000140014
#0611a:240014
#06118:00000014
#06113:00000024
#06712:0000000014140000
#0671a:0000000014000014
#06717:0000000000000013
#06716:0000000000130000
#06714:00000024
#06718:00000024
#01218:0000000000000013
#01212:1313
#01215:00000000000000000000000000000013
#0121b:00130000
#01210:41
#0221b:0013130000130013
#02212:1300000000000000130000000000000000000000000000000013000000000000
#02217:1313000013000000
#02216:00000000000000000000001300000000
#02612:1300130013130000
#0261b:00130000000013000000000013001300
#02615:00001300000000130000000000000000
#02618:00000013001300000000000000000000
#05815:0016001600000000
#0581a:0000000000002414
#05812:2600230024000014
#05818:00260000
#0581b:23
#05415:0016001600000000
#05412:2300260000002414
#0541a:0000000024000014
#05418:26
#0541b:00230000
#0541f:21
#04016:0014001400000000
#04012:1600240000002313
#04018:00160000
#0401b:0000000023000013
#0401a:24
#05616:0000241424142414
#0561a:240000000000000000000000000000000000000000000000000000000000000000000000000000000000000000000000140000000000000000000000000000000000000000000000000000000000000000000000000000000000000000000000001400000000000000000000000000000000000000000000000000000000000000000000000000000000000000000000001400000000000000000000000000000000000000000000000000000000000000000000000000000000000000000000
#05612:0000001400140014
#05512:0024000000240014
#05516:2400002424001400
#0551a:00240024
#05510:41
#0591a:0024000000240014
#05916:2400002424001400
#05912:00240024
#06216:14142424
#0621a:2400000000140000
#06212:0000000000000014
#04417:00130000
#04416:1323
#0441b:2313
#04412:00000023
#04410:41
#04612:0000130013131300
#0461b:13000000000000000000000000130000
#04617:0000000013130000
#0461f:11
#04716:0000000013130000
#04712:13000000000000000000000000130000
#0471b:0000130013131300
#0521b:1313
#05219:0000130000130013
#05214:0000130000130013
#05212:0013
#05216:00000014
#05012:1300130013131300
#0501b:0000000013130000
#05017:13000000000000000000000000130000
#04919:0013001300000000
#04914:0013001300000000
#04912:00130013
#0491b:00130013
#04916:1414
#0511b:0000130013131300
#05116:13000000000000000000000000130000
#05112:0000000013130000
#03817:0000001300000013
#0381b:23130000
#03816:0000230000130000
#03819:00001313
#03813:0000001300000013
#03812:0000000000130000
#03815:00002323
#02812:16141616
#02818:16161616
#02816:0014001400000014
#03212:2300000000130013
#03214:0000000000000000000000000000000000000000000000000000000000000000000000000000000000000000000000000000000000000000000000000000001333000000000000000000000000000000000000000000000000000000000000000000000000000000000000000000000000000000000000000000000000000000
#03215:0013000000001300
#03216:0000001300000000
#03213:00130000
#0321b:1300130000000013
#03218:0013000000001300
#03217:0013
#03219:0000001300000000
#02918:16160000
#02916:0014000000240000
#02912:14160024
#0291a:0024
#03012:16161616
#03016:0014001400000014
#03018:16001616
#0301a:00140000
#03112:16162400
#03116:0014000000240024
#03118:00160000
#0311a:14000024
#0481b:1300001300130000
#04812:0000001300130000
#04818:00130000
#04815:00130000
#04817:000000000000000000000000000000000000000000000000000000000000000000000000000000000000000000000000000000000000000000000000000000000000000000000000000000000000000000000000000000000000000000000000000000000000000000000000000000000000000000000000000000000000000000000000000000000000000000000000000000000000000000000000000000000000000000000000000000000000000000000000000000000000000000000000000000000000000000000000000000000000000000000000000000000000000000000000000000000000000000000000000000000000000000000000000000000000000000000000000000000000000000000000000000000000000000000000000000000000000000000000000000000000000000000000000000000000000000000000000000000000000000000000000000000000000000000000000000000000000000000000000000000000000000000000000000000000000000000000000000000000000000000000000000000000000000000000000000000000000000000000000000000000000000000000000000000000000000000000000000000000000000000000000000000000000000000000000000000000000000000000000000000000000000000000000000000000000000000000000000000000000000000000000000000000000000000000000000000000000000000000000000000000000000000000000000000000000000000000000000000000000000000000000000000000000000000000000000000000000000000000000000000000000000000000000000000000000000000000000000000000000000000000000000000000000000000000000000000000000000000000000000000000000000000000000000000000000000000000000000000000000000000000000000000000000000000000000000000000000000000000000000000000000000000000000000000000000000000000000000000000000000000000000000000000000000000000000000000000000000000000000000000000000000000000000000000000000000000000000000000000000000000000000000000000000000000000000000000000000000000000000000000000000000000000000000000000000000000000000000000000000000000000000000000000000000000000000000000000000000000000000000000000000000000000000000000000000000000000000000000000000000000000000000000000000000000000000000000000000000000000001300000000000000000000000000000000000000000000000000000000000000000000000000000000000000000000000000000000000000000000000000000000000000000000000000000000000000000000000000000000000000000000000000000000000000000000000000000000000000000000000000000000000000000000000000000000000000000000000000000000000000000000000000000000000000000000000000000000000000000000000000000000000000000000000000000000000000000000000000000000000000000000000000000000000000000000000000000000000000000000000000000000000000000000000000000000000000000000000000000000000000000000000000000000000000000000000000000000000000000000000000000000000000000000000000000000000000000000000000000000000000000000000000000000000000000000000000000000000000000000000000000000000000000000000000000000000000000000000000000000000000000000000000000000000000000000000000000000000000000000000000000000000000000000000000000000000000000000000000000000000000000000000000000000000000000000000000000000000000000000000000000000000000000000000000000000000000000000000000000000000000000000000000000000000000000000000000000000000000000000000000000000000000000000000000000000000000000000000000000000000000000000000000000000000000000000000000000000000000000000000000000000000000000000000000000000000000000000000000000000000000000000000000000000000000000000000000000000000000000000000000000000000000000000000000000000000000000000000000000000000000000000000000000000000000000000000000000000000000000000000000000000000000000000000000000000000000000000000000000000000000000000000000000000000000000000000000000000000000000000000000000000000000000000000000000000000000000000000000000000000000000000000000000000000000000000000000000000000000000000000000000000000000000000000000000000000000000000000000000000000000000000000000000000000000000000000000000000000000000000000000000000000000000000000000000000000000000000000000000000000000000000000000000000000000000000000000000000000000000000
#04816:0013
#01412:0013130000130013
#0141b:1300000000000000130000000000000000000000000000000013000000000000
#01416:1313000013000000
#01417:00000000000000000000001300000000
#01317:0013130000230023
#0131b:1313000023002300
#01312:13130000
#01316:00002323
#01716:0013130023002300
#01712:1313002300230023
#0171b:13130000
#01717:0000002300000000
#07012:28
#0701b:23
#03757:0000000000000023
#03752:00000053
#06457:5300000000530000
#0645b:00000023
#06452:1300000000330000
#06456:0033
#06656:0023000000000000
#06657:0000000000230000
#06652:13
#07052:68
#0705b:13
#00852:1333
#0095b:1343
#01052:1333
#0115b:1343
#04556:00350023
#04555:0000000000450000
#03952:00000033
#0395b:0000000000230000
#03957:0053
#06355:0033000000000000
#06358:0000004300000000
#0635a:0000000000000044
#06352:0000000000340000
#0365a:00440000
#03652:34
#05452:33360000
#05458:46
#0545b:00430000
#06552:00000023
#06556:5300000000630000
#06557:0043
#0655b:0000000000430000
#06852:3434
#0685a:4444
#00158:2465266524652665246526656400000000000000000000000000000022000000
#00152:00260026002600000000000000000000
#00153:0055005500550055005500550000000000000000000000000000000000000000
#00154:2424245400000000
#00156:0000000000000022
#00058:0000000000000000000000000000000000000066246526652465266524652665
#00052:0000000000000000000000000000000000000056000026000000260000002600
#00053:0000000000000000000000000000000000000000005500550055005500550055
#00054:0000000000242424
#00258:46
#00252:36
#01952:00000013
#0195b:00000013
#0415b:00000053
#04156:0000000000000023
#0435b:000000430000000023000000
#04352:0023000000000000
#04357:000000530023
#04359:00000053
#04356:63
#04252:63
#04257:0023000000000000
#0425b:43
#05858:00460000
#05852:36330000
#0585b:43
#06152:00340000
#06156:000000540024
#0615a:000024
#06158:00000054
#06752:0034
#06757:0000000000000023
#06754:00000054
#06756:0000000000230000
#0675a:0064
#06758:00000044
#02056:00000000000000000000006300000000
#0385b:43630000
#03857:0000002300000023
#03856:0000000000230000
#03859:00006363
#04652:33
#0465b:63000000000000000000000000230000
#04657:0000000000530000
#0695a:00440000
#06952:0000000000340000
#0355a:00000044
#04052:00340000
#0405a:44
#05656:0000002400240024
#0565a:440000000000000000000000000000000000000000000000000000000000000000000000000000000000000000000000640000000000000000000000000000000000000000000000000000000000000000000000000000000000000000000000006400000000000000000000000000000000000000000000000000000000000000000000000000000000000000000000006400000000000000000000000000000000000000000000000000000000000000000000000000000000000000000000
#05552:0000000000000024
#05556:00000064
#0595a:0000000000000024
#05956:00000054
#06056:3424000000000000
#06052:54
#0575a:00000044
#06256:64
#0625a:44
#04456:63
#0445b:43
#04752:53000000000000000000000000230000
#04756:0000000000630000
#05057:53000000000000000000000000230000
#05052:13
#0505b:0000000000630000
#05156:63000000000000000000000000230000
#05152:0000000000530000
#03252:5300000000230023
#03254:0000000000000000000000000000000000000000000000000000000000000000000000000000000000000000000000000000000000000000000000000000006300000000000000000000000000000000000000000000000000000000000000000000000000000000000000000000000000000000000000000000000000000000
#03255:0023000000006300
#03256:0000002300000000
#03253:00530000
#03356:0023002300000000
#03354:53
#03357:0000000000230000
#03352:0053
#03353:00530000
#02852:0036
#02952:00360034
#0295a:0044
#03058:0046
#03158:00460000
#03152:0034
#0315a:00000044
#0485b:0000002300230000
#04852:0000002300230000
#04858:00530000
#04855:00630000
#04857:000000000000000000000000000000000000000000000000000000000000000000000000000000000000000000000000000000000000000000000000000000000000000000000000000000000000000000000000000000000000000000000000000000000000000000000000000000000000000000000000000000000000000000000000000000000000000000000000000000000000000000000000000000000000000000000000000000000000000000000000000000000000000000000000000000000000000000000000000000000000000000000000000000000000000000000000000000000000000000000000000000000000000000000000000000000000000000000000000000000000000000000000000000000000000000000000000000000000000000000000000000000000000000000000000000000000000000000000000000000000000000000000000000000000000000000000000000000000000000000000000000000000000000000000000000000000000000000000000000000000000000000000000000000000000000000000000000000000000000000000000000000000000000000000000000000000000000000000000000000000000000000000000000000000000000000000000000000000000000000000000000000000000000000000000000000000000000000000000000000000000000000000000000000000000000000000000000000000000000000000000000000000000000000000000000000000000000000000000000000000000000000000000000000000000000000000000000000000000000000000000000000000000000000000000000000000000000000000000000000000000000000000000000000000000000000000000000000000000000000000000000000000000000000000000000000000000000000000000000000000000000000000000000000000000000000000000000000000000000000000000000000000000000000000000000000000000000000000000000000000000000000000000000000000000000000000000000000000000000000000000000000000000000000000000000000000000000000000000000000000000000000000000000000000000000000000000000000000000000000000000000000000000000000000000000000000000000000000000000000000000000000000000000000000000000000000000000000000000000000000000000000000000000000000000000000000000000000000000000000000000000000000000000000000000000000000000000000000000000000000005300000000000000000000000000000000000000000000000000000000000000000000000000000000000000000000000000000000000000000000000000000000000000000000000000000000000000000000000000000000000000000000000000000000000000000000000000000000000000000000000000000000000000000000000000000000000000000000000000000000000000000000000000000000000000000000000000000000000000000000000000000000000000000000000000000000000000000000000000000000000000000000000000000000000000000000000000000000000000000000000000000000000000000000000000000000000000000000000000000000000000000000000000000000000000000000000000000000000000000000000000000000000000000000000000000000000000000000000000000000000000000000000000000000000000000000000000000000000000000000000000000000000000000000000000000000000000000000000000000000000000000000000000000000000000000000000000000000000000000000000000000000000000000000000000000000000000000000000000000000000000000000000000000000000000000000000000000000000000000000000000000000000000000000000000000000000000000000000000000000000000000000000000000000000000000000000000000000000000000000000000000000000000000000000000000000000000000000000000000000000000000000000000000000000000000000000000000000000000000000000000000000000000000000000000000000000000000000000000000000000000000000000000000000000000000000000000000000000000000000000000000000000000000000000000000000000000000000000000000000000000000000000000000000000000000000000000000000000000000000000000000000000000000000000000000000000000000000000000000000000000000000000000000000000000000000000000000000000000000000000000000000000000000000000000000000000000000000000000000000000000000000000000000000000000000000000000000000000000000000000000000000000000000000000000000000000000000000000000000000000000000000000000000000000000000000000000000000000000000000000000000000000000000000000000000000000000000000000000000000000000000000000000000000000000000000000000000000000000000000
#04856:0063
#0145b:0000000000000000000000000000000000000000000000000023000000000000
#01457:00000000000000000000005300000000
#02252:0000000000000000000000000000000000000000000000000023000000000000
#02256:00000000000000000000006300000000
#00354:00000018
#000380:0000000000000000000000000000000000000016545556555455565554555655
#001380:5455565554555655545556555400000000000000000000000000000052000000
#002380:26
#000321:0000000000000000000000000000000000000016000056000000560000005600
#000341:0000000000545454
#000331:0000000000000000000000000000000000000000005500550055005500550055
#001341:5454545400000000
#001331:0055005500550055005500550000000000000000000000000000000000000000
#001321:00560056005600000000000000000000
#001361:0000000000000052
#002321:26
#006321:1200323200323200
#006361:0032000000000032
#006341:00000000000000320032000000000032
#007321:22
#0073c0:1200323200323200
#0073a0:00320000000000320032000000000032
#007380:0032000000000032
#0083c0:22
#0103b0:13
#010360:0023000000000000
#011320:13
#011370:0023000000000000
#0123b0:1323000000000000
#012321:0013000000000000
#012361:00230000
#012361:0013
#0123b1:00000000000000000000002300000000
#012370:00000000000000000000001300000000
#012320:0000000000000023
#013360:0013
#013320:0000000000230000
#013360:00000013
#013320:0000000000000023
#0143b0:0000000013230000
#014370:00000000000000000000001300002300
#0143b0:0000000000000000000000000000000000000000000000000053000000000000
#015370:13330000
#015320:0033002300000000
#016370:0013
#016320:00000000000000000000002300000000
#016361:00000000000000000000001300000000
#0163b1:0000000000000023
#017371:0000001300330023
#0173b1:00003333
#018321:0013
#018361:0000000000230000
#0183b1:00000013
#018371:0000000000000023
#019321:00000000000000001300005323000000
#019361:00000000000000000054340000000000
#0193b0:00000000000000001300005323000000
#019360:000000000000000000000000000000000000000000000000000000000000000000000000000000000000000000000000000000000000000000000000000000000000000000000000000000000000000000000000000000000000000000000000000000000000000000000000000000000000000000000000000000000000000000000000000000000000000000000000000000000000000000000000000000000000000000000000000000000000000000000000000000000000000000000000000000000000000000000000000000000000000000000000000000000000000000000000000000000000000000000000000000000000000000000000000000000000000000000000000000000000000000000000000000000000000000000000000000000000000000000000000000000000000000000000000000000000000000000000000000000000000000000000000000000000000000000000000000000000000000000000000000000000000000000000000000000000000000000000000000000000000000000000000000000000000000000000000000000000000000000000000000000000000000000000000000000000000000000000000000000000000000000000000000000000000000000000000000000000000000000000000000000000000000000000000000000000000000000000000000000000000000000000000000000000000000000000000000000000000000000000000000000000000000000000000000000000000000000000000000000000000000000000000000000000000000000000000000000000000000000000000000000000000000000000000000000000000000000000000000000000000000000000000000000000000000000000000000000000000000000000000000000000000000000000000000000000000000000000000000000000000000000000000000000000000000000000000000000000000000000000000000000000000000000000000000000000000000000000000000000000000000000000000000000000000000000000000000000000000000000000000000000000000000000000000000000000000000000000000000000000000000000000000000000000000000000000000000000000000000000000000000000000000000000000000000000000000000000000000000000000000000000000000000000000000000000000000000000000000000000000000000000000000000000000000000000000000000000000000000000000000000000000000000000000000000000000000000000000000000000000000000000000000000000000000000000000000000000000000000000000000000000000000000000000000000000000000000000000000000000000000000000000000000000000000000000000000000000000000000000000000000000000000000000000000000000000000000000000000000000054000000000000000000000000000000000000000000000000000000000000000000000000000000000000000000000000000000000000000000000000000000000000000000000000000000000000000000000000000000000000000000000000000000000000000000000000000000000000000000000000005400000000000000000000000000000000000000000000000000000000000000000000000000000000000000000000000000000000000000000000000000000000000000000000000000000000000000000000000000000000000000000000000000000000000000000000000000000000000000000000000000000000000000000000000000000000000000000000000000000000000000000000000000000000000000000000000000000000000000000000000000000000000000000000000000000000000000000000000000000000000000000000000000000000000000000000000000000000000000000000000000000000000000000000000000000000000000000000000000000000000000000000000000000000000000000000000000000000000000000000000000000000000000000000000000000000000000000000000000000000000000000000000000000000000000000000000000000000000000000000000000000000000000000000000000000000000000000000000000000000000000000000000000000000000000000000000000000000000000000000000000000000000000000000000000000000000000000000000000000000000000000000000000000000000000000000000000000000000000000000000000000000000000000000000000000000000000000000000000000000000000000000000000000000000000000000000000000000000000000000000000000000000000000000000000000000000000000000000000000000000000000000000000000000000000000000000000000000000000000000000000000000000000000000000000000000000000000000000000000000000000000000000000000000000000000000000000000000000000000000000000000000000000000000000000000000000000000000000000000000000000000000000000000000000000000000000000000000000000000000
#020320:1323000000000000
#0203b1:0013000000000000
#020371:00230000
#020321:0000000013230000
#020361:00000000000000000000001300000000
#020321:0000000000000023
#021371:0013
#0213b1:0000000000230000
#021371:00000013
#0213b1:0000000000000023
#022321:0000000013230000
#022361:00000000000000000000001300002300
#022321:0000000000000000000000000000000000000000000000000053000000000000
#0243b1:0013
#024361:0000000000000000000000000000000000000053000023000000000000000000
#024320:00000000000000000000001300000000
#024370:0000000000000000000000000000000000000000000000000053000023000000
#025360:0000001300330023
#025320:00003333
#0263b0:0013
#026370:0000000000230000
#026320:00000013
#026360:0000000000000023
#032320:1300000000530053
#032350:0053000000005300
#032330:00530000
#032360:0000005300000000
#032340:0000000000000000000000000000000000000000000000000000000000000000000000000000000000000000000000000000000000000000000000000000005333000000000000000000000000000000000000000000000000000000000000000000000000000000000000000000000000000000000000000000000000000000
#033340:33
#033360:0053005300000000
#033330:00530000
#033320:00003323
#033370:0000000000530000
#0363b0:0013
#036370:00000000000000000053230000000000
#036321:0000000000130000
#036361:00000000000000000000005323000000
#037361:13
#0373b1:0023000000000000
#037371:00130000
#037321:0000002300000000
#037361:0013
#0373b1:0000000000230000
#037321:00000013
#037371:0000000000000053
#038321:23
#0383b1:00130000
#038371:0000005300000053
#038391:00003333
#038361:0000000000530000
#0393b1:23
#039371:00001323
#0393b1:0000000000530000
#040321:0013
#040361:00000000000000000053230000000000
#0403b0:0000000000130000
#040370:00000000000000000000005323000000
#041370:13
#041320:0023000000000000
#041360:00130000
#0413b0:0000002300000000
#041370:0013
#041320:0000000000230000
#0413b0:00000013
#041360:0000000000000053
#0423b0:23
#042321:13230000
#042371:0053000000000000
#043361:13230000
#043321:0053000000000000
#043371:000000130053
#0433b1:000053
#043391:00000033
#0443b1:23
#044360:13
#044320:00230000
#044360:0013
#044320:0000000000230000
#044371:0000000000130000
#0443b1:00000023
#044320:00000013
#044360:0000000000000023
#0443b1:0000000000000013
#045371:23
#045361:00000013
#046321:23
#0463b0:13
#046370:00230000
#046370:0000000000130000
#0463b0:00000000000000000000000000530000
#047370:23
#047321:13
#047361:00230000
#047361:0000000000130000
#047321:00000000000000000000000000530000
#048361:23
#048351:00130000
#048321:0000005300000000
#048361:0033
#0483b1:0000000000530000
#048381:00000023
#048380:00130000
#0483b0:0000005300000000
#048370:000000000000000000000000000000000000000000000000000000000000000000000000000000000000000000000000000000000000000000000000000000000000000000000000000000000000000000000000000000000000000000000000000000000000000000000000000000000000000000000000000000000000000000000000000000000000000000000000000000000000000000000000000000000000000000000000000000000000000000000000000000000000000000000000000000000000000000000000000000000000000000000000000000000000000000000000000000000000000000000000000000000000000000000000000000000000000000000000000000000000000000000000000000000000000000000000000000000000000000000000000000000000000000000000000000000000000000000000000000000000000000000000000000000000000000000000000000000000000000000000000000000000000000000000000000000000000000000000000000000000000000000000000000000000000000000000000000000000000000000000000000000000000000000000000000000000000000000000000000000000000000000000000000000000000000000000000000000000000000000000000000000000000000000000000000000000000000000000000000000000000000000000000000000000000000000000000000000000000000000000000000000000000000000000000000000000000000000000000000000000000000000000000000000000000000000000000000000000000000000000000000000000000000000000000000000000000000000000000000000000000000000000000000000000000000000000000000000000000000000000000000000000000000000000000000000000000000000000000000000000000000000000000000000000000000000000000000000000000000000000000000000000000000000000000000000000000000000000000000000000000000000000000000000000000000000000000000000000000000000000000000000000000000000000000000000000000000000000000000000000000000000000000000000000000000000000000000000000000000000000000000000000000000000000000000000000000000000000000000000000000000000000000000000000000000000000000000000000000000000000000000000000000000000000000000000000000000000000000000000000000000000000000000000000000000000000000000000000000000000000003300000000000000000000000000000000000000000000000000000000000000000000000000000000000000000000000000000000000000000000000000000000000000000000000000000000000000000000000000000000000000000000000000000000000000000000000000000000000000000000000000000000000000000000000000000000000000000000000000000000000000000000000000000000000000000000000000000000000000000000000000000000000000000000000000000000000000000000000000000000000000000000000000000000000000000000000000000000000000000000000000000000000000000000000000000000000000000000000000000000000000000000000000000000000000000000000000000000000000000000000000000000000000000000000000000000000000000000000000000000000000000000000000000000000000000000000000000000000000000000000000000000000000000000000000000000000000000000000000000000000000000000000000000000000000000000000000000000000000000000000000000000000000000000000000000000000000000000000000000000000000000000000000000000000000000000000000000000000000000000000000000000000000000000000000000000000000000000000000000000000000000000000000000000000000000000000000000000000000000000000000000000000000000000000000000000000000000000000000000000000000000000000000000000000000000000000000000000000000000000000000000000000000000000000000000000000000000000000000000000000000000000000000000000000000000000000000000000000000000000000000000000000000000000000000000000000000000000000000000000000000000000000000000000000000000000000000000000000000000000000000000000000000000000000000000000000000000000000000000000000000000000000000000000000000000000000000000000000000000000000000000000000000000000000000000000000000000000000000000000000000000000000000000000000000000000000000000000000000000000000000000000000000000000000000000000000000000000000000000000000000000000000000000000000000000000000000000000000000000000000000000000000000000000000000000000000000000000000000000000000000000000000000000000000000000000000000000000000000000000
#048320:0000000000530000
#048350:00000023
#050370:13
#0503b0:00230000
#0503b0:0000000000130000
#050370:00000000000000000000000000530000
#0513b0:23
#051361:13
#051321:00230000
#051321:0000000000130000
#051361:00000000000000000000000000530000
#052321:23
#054361:0014
#054321:00000000000000000054240000000000
#054360:0000000000140000
#0543a0:00000000000000000000005424000000
#0553a0:14
#055360:0024000000000000
#055360:00140000
#055320:0000002400000000
#0553a0:0014
#055360:0000000000240000
#055360:00000014
#055320:0000000000000054
#056360:24
#0563a0:000000000000000000000000000000000000000000000000000000000000000000000000000000000000000000000000140000000000000000000000000000000000000000000000000000000000000000000000000000000000000000000054345400000000000000000000000000000000000000000000000000000000000000000000000000000000000000000054345400000000000000000000000000000000000000000000000000000000000000000000000000000000000000000000
#056360:0000005400540054
#0573a0:24
#057360:0014
#0573a0:0000000000240000
#057321:0000000000140000
#057361:00000024
#058361:0014
#0583a1:00000000000000000054240000000000
#058360:0000000000140000
#058320:00000000000000000000005424000000
#059320:14
#059360:0024000000000000
#059360:00140000
#0593a0:0000002400000000
#059320:0014
#059360:0000000000240000
#059360:00000014
#0593a0:0000000000000054
#060360:24
#060321:14240000
#060361:0054000000000000
#061361:14
#061321:0024000000000000
#0613a0:0014000000000000
#061360:00240000
#061360:000000140054
#0613a0:000054
#061380:00000034
#0623a0:24
#062361:14
#062321:00240000
#062321:0014
#062361:00000000000000000054240000000000
#0623a1:00000014
#062361:00000000000000000000000000542400
#064371:13
#0643b1:00000023000000000000000000000000
#064381:0000132300000000
#064371:0000000000130023
#0643b1:00000053
#065361:13
#065321:00000023000000000000000000000000
#065351:0000132300000000
#065361:0000000000130023
#065321:00000053
#0663b1:1323000000000000
#066360:0013000000000000
#066320:00230000
#066320:0000000013230000
#066371:0000000000130000
#0663b1:00000023
#0673b1:13330000
#067371:0033002300000000
#067360:13330000
#067320:0033002300000000
#0673a0:0014
#067360:0000000000530000
#067380:00000024
#067341:00000014
#067371:0000000000000053
#068321:24
#069361:0000000000000000000000000000000000000000000000001353530000000000
#069371:00000000000000000000000000000000000000000000000000000000000000000000000000000000000000000000000000530053000053005300000000000000
#069381:00000000000000000000000000000000000000000000000000000000000000000000000000000000000000000000000000000000005300530000530000000000
#069391:00000000000000000000000000000000000000000000000000000000000000000000000000000000000000000000000000000000000000000053000053000000
#0693a1:00000000000000000000000000000000000000000000000000000000000000000000000000000000000000000000000000000000000000000000005300005300
#0693b1:00000000000000000000000000000000000000000000000000000000000000000000000000000000000000000000000000000000000000000000000000530053
#0703b1:23
#070320:18
#072320:0022000000000000
