This file was generated by Ched 2.6.4.0.
#TITLE ""
#ARTIST ""
#DESIGNER ""
#DIFFICULTY 0
#PLAYLEVEL
#SONGID ""
#WAVE ""
#WAVEOFFSET 0
#JACKET ""
#REQUEST "ticks_per_beat 480"
#00002: 4
#BPM01: 145
#00008: 01
#TIL00: ""
#HISPEED 00
#MEASUREHS 00
#0021a:1414
#00312:1414
#00514:1414
#02914:0014
#02918:00000014
#03118:0014
#03114:00000014
#03414:1414
#03418:00140014
#03512:14141400
#0351a:14141400
#03614:00140000
#0361a:24001414
#03610:41
#03712:14001414
#03718:00140000
#0381a:14
#03814:00140000
#03818:0014
#03812:00000014
#04312:14000024
#0431a:0024
#04618:1414
#04614:00140014
#0461f:11
#0471a:14
#04716:00140014
#04712:0014
#0481a:14
#0531a:14
#05312:14
#00418:1414
#00618:14
#0061a:0014
#0391a:14
#03916:00140000
#03912:0014
#04018:14001414
#04012:00140000
#04114:14001414
#0411a:00140000
#0421a:14000014
#04212:0014
#05718:14141400
#05714:0014001400000000
#00814:0014
#0091a:14
#00914:0014
#01018:14
#01012:0014
#01118:14
#01112:0014
#00719:14
#00718:0014
#0281a:14
#02817:0014
#03012:14
#03015:0014
#01213:00000014
#0121a:14
#01214:00140000
#01219:0014
#01210:41
#01318:14
#01312:00140000
#01418:00140014
#01412:1414
#01613:00000014
#0161a:14
#01614:00140000
#01619:0014
#01718:14
#01712:00140000
#01814:1414
#01818:00140014
#02019:00000014
#02012:14
#02018:00140000
#02013:0014
#02114:14
#0211a:00140000
#02214:00140014
#0221a:1414
#02419:00000014
#02412:14
#02418:00140000
#02413:0014
#02410:41
#02514:14
#0251a:00140000
#02618:1414
#02614:00140014
#02718:0014
#02714:00000014
#02712:24
#0271a:24
#03219:1414
#0321a:00140000
#03218:00000014
#03319:14
#0331a:00140000
#04414:0014
#04418:00000014
#0441a:24
#04410:41
#05418:26001414
#05414:0000000000140000
#05412:00260000
#0541f:21
#05512:16
#05518:0000160000140000
#05514:00001414
#05510:41
#05612:00140014
#0561a:1414
#05814:00001414
#05818:0000260000140000
#05812:26
#05918:16001414
#05912:00160000
#05914:0000000000140000
#06212:0014
#06218:00000014
#0621a:24
#06814:0014
#06818:00000014
#0681a:24
#06412:00140000
#0641a:14
#06418:0014
#06512:14
#0651a:00140000
#06514:0014
#0661a:14
#06618:0014
#06612:00140000
#06614:00000014
#0671a:14
#06712:00140000
#06718:0024
#06714:00000024
#0491a:14
#04918:0014
#04914:00140000
#05014:1414
#05018:00140014
#05112:14
#05116:00140014
#0511a:0014
#05212:14
#05218:0014
#05214:00000014
#0191a:24
#01912:24
#06112:0024
#06116:00000024
#06310:41
#00658:54
#0065a:0024
#0445a:14
#0625a:14
#00758:0024
#00759:54
#0085a:14
#03055:0024
#03052:54
#02857:0024
#0285a:54
#0535a:14
#05352:14
#03259:5464
#0325a:00240000
#03258:00000024
#03359:54
#0335a:00240000
#0685a:14
#006380:14
#0063a0:0054
#007390:34
#007380:0054
#0083a0:24
#013380:00001424
#015320:14000024
#015340:00343400
#017380:00001424
#021340:00001424
#0233a0:14000024
#023380:00343400
#025340:00001424
#0283a0:14
#028370:0034
#0293a0:24
#030320:14
#030350:0034
#031320:24
#032390:1434
#0323a0:00540000
#032380:00000054
#033390:3424
#0333a0:00540000
#045320:14000024
#048320:00140024
#048350:0034
#060320:14240000
#0603a0:0014
#060370:00000034
#0613a0:24
#063340:14343424
#069320:16000026
#070380:16
#072390:00240000
