This file was generated by Ched 2.6.4.0.
#TITLE ""
#ARTIST ""
#DESIGNER ""
#DIFFICULTY 0
#PLAYLEVEL
#SONGID ""
#WAVE ""
#WAVEOFFSET 0
#JACKET ""
#REQUEST "ticks_per_beat 480"
#00002: 4
#BPM01: 181
#00008: 01
#TIL00: ""
#HISPEED 00
#MEASUREHS 00
#0051a:14
#00614:14
#00718:14
#00812:14
#0131a:14
#01310:41
#0141a:14
#01512:14
#01612:14
#0171a:14
#01814:14
#02112:14
#02212:14
#0231a:14
#0241a:14
#02512:14
#02618:14
#03412:14
#0331a:14
#03714:14
#03812:0016
#03818:26
#0381f:21
#04012:16
#04018:0016
#04618:0016
#04612:26
#04818:16
#04812:0016
#05012:16
#05018:0016
#05814:0014
#06018:0014
#06114:0014
#0621a:0014
#06312:0014
#07218:0014
#07210:0041
#07314:0014
#07418:0014
#07514:0014
#08312:0014
#0841a:0014
#08512:0014
#08618:0014
#08714:0014
#09218:0016
#09312:16
#09318:0016
#09412:16
#09418:0016
#09512:0016
#09718:16
#09712:0016
#09812:0016
#09818:16
#09912:16
#09918:0016
#10018:0016
#10012:16
#10118:16
#10112:0016
#10212:16
#10814:0014
#10918:0014
#11012:0014
#1111a:0014
#11214:0014
#04218:16
#04212:0016
#04318:16
#04312:0016
#05112:16
#05118:0016
#0291f:11
#0761a:0024
#07712:0024
#0781a:0024
#07912:0024
#08818:0026
#09012:0026
#09618:0026
#09610:0041
#0801a:0024
#10518:0026
#03910:41
#05610:0041
#02710:41
#009390:14
#010390:24
#011330:14
#012330:24
#0193a0:14
#0203a0:24
#027320:14
#028320:24
#0293a0:14
#030380:24
#031320:14
#032340:24
#035380:14
#0363a0:24
#039380:1626
#041320:1626
#044380:16
#045380:3626
#047320:1626
#049380:1626
#052320:1636
#053320:36362600
#0543a0:14
#054380:00000034
#0553a0:0034
#056380:0024
#064380:0014
#0653a0:0034
#0663a0:24
#066340:0014
#067320:0034
#068320:24
#0683a0:0014
#069380:0034
#070380:24
#070320:0014
#071340:0034
#072340:24
#0803a0:0014
#0823a0:0024
#088380:0016
#089380:0000002600000000
#090320:0016
#091320:0000002600000000
#102380:0016
#103360:36
#103380:00003636
#104380:26
#104320:00001636
#105320:26
#105380:0016
#106360:0036
#107380:0026
#113380:0014
#115380:0024000000000000
