This file was generated by Ched 2.6.4.0.
#TITLE ""
#ARTIST ""
#DESIGNER ""
#DIFFICULTY 0
#PLAYLEVEL
#SONGID ""
#WAVE ""
#WAVEOFFSET 0
#JACKET ""
#REQUEST "ticks_per_beat 480"
#00002: 4
#BPM01: 181
#00008: 01
#TIL00: ""
#HISPEED 00
#MEASUREHS 00
#00512:0014000013000013
#00518:00000000000000000000130013000013
#0051b:0000131300000000
#00515:00000000001300000000001300000000
#00516:24
#00612:13000000000000000000001300000000
#0061b:0013000013001300
#00615:00000000130013000013000000000000
#00618:00000000001300000000130000000000
#00616:0000000000000014
#01815:1300001300000000
#0181b:0013000013000013
#01812:00000013000000000000000013000000
#01818:00000000001300000000000000000000
#0071b:1313130000001313
#00715:00130013000000000000000000130013
#00712:0000001313130000
#00718:00000000000000130013000000000000
#03818:00001300130000000013000000000000
#03815:00000013000000001300130000000000
#0381b:2300001300000013
#03812:2300001300000000
#03816:0000000000000013
#0381f:21
#0141b:0013000000130000
#01412:0000001300000000
#01415:00000013
#01418:0000000000000013
#01312:00000000001300000000000000001300
#01318:2300001300130000
#01315:00000000000000130000000013000000
#0131b:00000013000000001300000000000000
#01310:41
#03519:00000013000000000000000000000000
#0351b:0000001313000000
#03512:1300000000000013
#03514:00000000000000000000001300000000
#03517:23
#03516:0023
#03719:13000013000013002500000000000000
#03714:13000013000013000000000000000000
#03712:0025
#03912:13001313
#03917:0000000000000013
#0391b:0013000013000000
#03915:00130000
#03918:0000001300000000
#03910:41
#05217:00000013000000000000000000000000
#0521b:2300001300000000
#05216:00000000000000000000001300000000
#05212:0000000023000013
#0531b:1313
#05319:0013000000000000
#05314:0000001300000000
#05316:13001414
#05317:00130000
#05312:00130013
#05412:00000013000013000000000000000000
#05415:00000000000000000013000000000000
#05418:0013
#0541b:00000000000000000000130000000013
#05416:23
#05417:00000023
#05618:160016000013
#05612:001600241400
#05615:000000000000000000000013
#0561a:000000241400
#05610:0041
#05715:000000000013000000000000
#0571b:001300
#05718:000000000013
#05712:000000000000000000000013
#0581b:13
#05815:001300000000000000000000
#05818:000013000000000000000013
#05812:000000130000000000001300
#05912:000000000013
#05918:000000000000000000000013
#05915:001300
#0591b:000000000013000000000000
#0601b:000013
#06012:000000230013
#06018:000000000000000000000013
#06015:000013
#0611b:130000001300000013000013
#06112:001300130013
#06115:130000000013000013000000
#06118:001300130000
#06215:130000000013
#06218:001300000000000000000013
#06212:001300231300
#0621b:00132300
#0631b:001300130000
#06318:000000001300000000000013
#06315:000000000013000000001300
#06312:130013
#06418:001300000013000000000000
#06415:000013001300000000000014
#0641b:00130000
#06412:13002614
#06417:000000000014
#0651a:14
#0651b:001300130000
#06512:000000130000001300000000
#06518:000000001300000013000013
#06515:000000000013000000130000
#06612:13
#06616:00130000
#06618:0016
#0661b:00130000
#0661a:00000014
#06615:000000000014
#06617:000000000000000000000014
#08412:13000000000000000013000000130000
#08418:00000013000000002600130000002600
#08415:00001300000000000000001300000013
#0841b:00130000000000000000000013000000
#0851b:13000000000000000013000000130000
#08512:00130000001300002600000013002600
#08518:00001300260013000000001300000013
#08515:00000013000000000000130000000000
#08612:1300260013000013
#0861b:00130000001300000000130000000000
#08615:0013001300001300
#08618:00000013000000000000000000000000
#08617:0013
#08619:00000000000000000033003300000000
#08613:00000000000000000000000000330033
#08918:0000000000001313
#08915:00000000000000000000000000130013
#08916:0000001400000000
#0891a:0000002400000000
#09018:13
#09013:0014000000000000
#09012:0000001424000000
#0901a:0000001414000000
#09019:0014000000000000
#0921b:00000000000000000013000000001300
#09215:0000000000130000
#09218:00140014001400140000001300000000
#09212:00000000000000002300000013000013
#09214:1414141400000000
#09614:00130000
#09619:00130000
#0961a:00002414
#09616:1400000000140000
#09612:00000000000000002400001400001300
#09610:0041
#10319:0000000000130000
#10314:0000000000000013
#10317:00000013000000001300000000000000
#1031b:2300001300002300
#10316:00000013
#10312:0023
#1051b:00130000
#10513:0000000000000000000000000000000000130000001300000013000000130000
#10514:00000000000000002313131313131313
#10515:1300000000000000000000000000000000000013000000130000001300000013
#1051a:0000000000000000000000000000000000130000001300000013000000130000
#10519:00000000000000002313131313131313
#10518:2600000000000000000000000000000000000013000000130000001300000013
#10512:00130000
#04015:00001300130000000013000000000000
#04018:00000013000000001300130000000000
#04012:1300001300000013
#0401b:1300001300000000
#04017:0000000000000013
#04112:0013000013000000
#04118:00130000
#04115:0000001300000000
#0411b:13001313
#04212:14000000000000000014000000001300
#04218:00140000000000001400000000000000
#04214:00001400000000140000000000000000
#0421a:00000014000014000000000000000000
#04216:0000140000140000
#0421b:0000000000000013
#04318:0013000000000000
#04315:00130000
#0431b:0000001300130013
#04317:00001313
#04316:13
#04417:13
#04419:00000013000000000000000000130000
#0441b:0000001300130000
#04414:00000013000000000000000000130000
#04416:0000001300130000
#04412:13
#04517:13
#04512:13
#04516:0013
#0451b:0013
#0551b:0013000000000000
#05518:00000000001300000000000000000000
#05515:00130000
#05512:00000000000013000000001300001300
#05516:0023
#00418:1313000013130000
#00415:00130013000000000013001300000000
#0041b:0000131300002300
#00412:00000000001300130000000023000000
#01615:00000013
#01618:0000000000000013
#01612:0000000000130000
#0161b:0000001300000000
#01617:0013000000000000
#01614:00130000
#01616:0000001300000000
#01712:0013
#0171b:0000001300000000
#01718:00000000000000001300000000000013
#01715:2300000000000013
#03315:00001300000000130000130000000000
#03318:00000013000013000000000000001300
#03312:23000000130000000000000013000013
#0331b:23000000000000001300001300000000
#03415:00001300000000130000130000000000
#03412:00130013
#03418:00000013000013000000001300000000
#0341b:13001313
#0361a:00000013000000000000000000000000
#0361b:0000001300000000
#03618:0013
#03613:00000013000000000000000000000000
#03612:0000001300000000
#03615:0013
#03619:23
#03614:23
#0311b:13
#03115:00130000000000000000000000000000
#03119:00001300000000000000000000330033
#03113:00000013000000000000000000000000
#03112:0000001300000000
#03117:00130000
#03118:00000000000000130000000000000000
#03114:00000000000000000033003300000000
#11318:00131200
#11312:1300001400000000
#11317:13
#1131b:0013000000000032
#11315:00000013000000000000000000000000
#11316:0012
#1131a:00000000000000000000003232000000
#11314:00000000000000000000003232000000
#11313:0000000000000032
#10614:13131313131313131313131313131313
#10613:0013000000130000001300000013000000130000001300000013000000130000
#10615:0000001300000013000000130000001300000013000000130000001300000013
#10619:13131313131313131313131313131313
#1061a:0013000000130000001300000013000000130000001300000013000000130000
#10618:0000001300000013000000130000001300000013000000130000001300000013
#10714:13131313000000000000000000000000
#10713:0013000000130000000000000000000000000000000000000000000000000000
#10715:0000001300000013000000000000000000000000000000000000000000000000
#10719:13131313000000000000000000000000
#1071a:0013000000130000000000000000000014000000140000001400000000000000
#10718:0000001300000013000000000000000000000000000000000000000000000000
#10716:00000000000000000013001300000000
#10712:0000000000000014
#10717:00000000000000000000000000000013
#01016:1300000000000013
#01019:00000000000000000000000000000013
#0101b:13000013
#01018:00131300
#01012:0000001300000000
#01117:0013000000000000
#01114:00000013000000000000000000000000
#0111a:00130000
#01112:0000001313000000
#0111b:0000000013000013
#01115:0000000000131300
#01118:00000000000000000000001300000000
#01113:23
#01218:0013130000000000
#01215:00000013000000001300000000000000
#01212:2300001300000000
#0121b:23
#01213:00000000000000000000000000003333
#01214:00000000000000000000000000330000
#01219:00000000000000000000333300000000
#0121a:00000000000000000033000000000000
#06712:141300130000
#0671b:000000130000000013000000
#06715:000000001300000000130013
#06718:000000000013000000001300
#0681b:13
#06817:00130000
#06812:00131614
#06816:000000000000000000001414
#08112:13001300000000000013000000000000
#0811b:00130000000013000000130000000000
#08115:00000000000000130000001300000000
#08118:0013
#0801b:00000000000000000013000000000000
#08012:0000000023131313
#08019:00000000000000000000001300000013
#08017:00000000130000000000000000130000
#08016:13
#08215:13000000000000000013000000000000
#0821b:00130000000000001300000000000000
#08212:00001300000000000000001300000000
#08218:00000013000000000000130000000000
#08312:13000000000000000013000000000000
#08318:00130000000000000000130000000000
#08315:00001300000000000000001300000000
#0831b:00000013000000001300000000000000
#0871b:0013000013000013
#08712:00000000000013000000001300000000
#08718:13
#08715:00130000
#08717:00000000000000000000001300000000
#08716:0000000000000013
#0871a:00330033000000000000000000000000
#08713:00000000003300330000000000000000
#08812:1c24
#08816:0014
#11212:0000141414000000
#11217:0000000000130000
#11214:00000000000000000000001300000000
#11219:00000013
#11216:00140000001400140000000000130000
#1121b:0000000000000013
#1121a:14
#11112:1313000014140000
#11116:00000000000000000014001400000014
#1111a:0000000000000014
#1111b:00130013000000000000000000000000
#11115:00130000
#11118:0000001300000000
#1091a:0000001400000000
#1091b:1300000023130000
#10912:0013000023130000
#10918:00000013000000000000000013001300
#10915:00000000130000000000000000130000
#10916:13
#1081a:0000141414000000
#10816:00000000001300130000130000000000
#10819:00000000000000000000001300000000
#10814:00000013
#10817:00130000000000000000000000130000
#10812:1414000000000013
#11012:1300000000130000
#11018:00001300130000130000000013001300
#11015:00000013000013001300000000130000
#1101b:1300000000130000
#00818:00001300000013000000001300000000
#0081b:1300130013000013
#00815:00000013000000130000130000000000
#00812:00000000001300000000000013000000
#00915:00131300
#00912:23000013
#00917:13
#0091b:0000001300000000
#01912:0000131300000000
#01918:00000000001300000000001300000000
#0191b:0000000013000013
#01915:00000000000000000000130013000013
#0191a:0014000000000000
#01916:24
#0201b:13
#02012:0013000014000000
#02018:0000131300000000
#02015:00000000001300000000000000000000
#02016:00000000000000000000001400000000
#0201a:0000000000000014
#02618:1300001300000000
#02612:0013000013000013
#0261b:00000013000000000000000013000000
#02615:00000000001300000000000000000000
#02212:0013000000130000
#0221b:0000001300000000
#02218:00000013
#02215:0000000000000013
#02219:00130000
#02214:00330000
#0211b:00000000001300000000000000001300
#02112:00000013000000001300000000000000
#02115:2300001300130000
#02118:00001300000000130000000013000000
#02318:00000013001300000000130000000000
#02315:0013001300001300
#02312:00131300
#0231b:23000000000000130000000000000000
#02418:00000013
#02415:0000000000000013
#0241b:0000000000130000
#02412:0000001300000000
#02416:0013000000000000
#02419:00130000
#02417:0000001300000000
#0251b:0013
#02512:0000001300000000
#02515:0000000013000013
#02518:23000013
#0271b:0000131300000000
#02715:00000000001300000000001300000000
#02712:0014000013000013
#02718:00000000000000000000130013000013
#02716:24
#02710:41
#02812:13000000000000000000001300000000
#0281b:0013000013001300
#02815:00000000130013000013000000000000
#02818:00000000001300000000130000000000
#03216:00000014
#03215:00000000001300130000000000000000
#03218:0000131300000000
#03212:0013
#0321b:0013
#03214:00330033000000000000000000000000
#04615:00001300130000000013000000000000
#04618:00000013000000001300130000000000
#04612:2300001300000013
#0461b:2300001300000000
#04617:0000000000000013
#0471b:13001313
#04716:0000000000000013
#04712:0013000013000000
#04718:00130000
#04715:0000001300000000
#04818:00001300130000000013000000000000
#04815:00000013000000001300130000000000
#0481b:1300001300000013
#04812:1300001300000000
#04816:0000000000000013
#0491b:0013000013000000
#04915:00130000
#04918:00000000000013000000003300000000
#04912:13001313
#04919:0000000000330013
#0501a:14000000000000000014000000000000
#05014:00140000000000001400000000000000
#05018:00001400000000140000000000000000
#05012:00000014000014000000000000001300
#05016:0000140000140000
#05115:0013000000000000
#0511b:00130000
#05112:0000001300130013
#05116:00001313
#05118:13
#0691a:14
#06918:001300130013
#06912:000000130000000000000013
#0691b:001313
#06915:000000000013000000130000
#07016:000000130000000000001414
#07018:0016
#0701b:13130000
#0701a:00000014
#07112:141313
#07115:000013000000130000000013
#0711b:00130000
#07118:000000000013000000130000
#0721b:13
#07217:00130000
#07212:00132614
#0721a:000000000014
#07216:000000000000000000000014
#07210:0041
#07312:001313000000
#07317:00130000
#07319:000000000013000000000000
#07314:0013
#07316:140000000000000013000013
#0731b:000000000000001300130000
#0741b:13
#07412:000000130000000000001400
#07414:001300000000000000000000
#07419:001300000000
#07416:000000000000000000130000000000000000000000001400
#0741a:00000014
#07415:0026
#0761b:00130000
#07617:0000001300000000
#07616:0013000000000000
#07618:000000000000000000000013
#07612:13
#07615:0026
#0771b:001300130013
#07715:000000130013000000130013
#07718:001313
#07712:000000000000001300000000
#07812:001300260000
#07815:000000000000000000000013
#0781b:1323
#07817:00130000
#07918:131313000000
#07915:00130000
#07912:001300000013000013000000
#07916:000000000000000000000013
#09112:0000001400001300
#0911b:00000013
#0911a:0000002400000000
#09318:13
#09315:00130000000000000000000000001300
#0931b:0013000000131300
#09312:0000001300001300
#09412:13130000
#0941b:13130000
#09418:0013000000000000
#09415:0000001300000000
#0941a:0000000000000012
#09716:1400001414000000
#0971a:00140000000014000000000000000000
#09712:0014000000140000
#09715:00000013
#09718:0000000000000013
#0981b:0000130000000013
#09816:0000001300140000
#0981a:14000000000000001400001400000000
#09812:14001414
#1001a:1400001414140000
#10016:00000000000000000014000014000014
#10012:14000000140000000000001400001400
#10017:00000034000000000000000000000000
#10018:0034000000000000
#10112:14000013
#1011a:00140000000000000000000000000000
#10116:0014000000000000
#10118:0000000000131300
#1011b:0000000013000013
#10115:0000001313000000
#10217:13130000
#1021b:0013001300000000
#10216:00000000000000000000001300000000
#10212:0000000023000013
#09916:1400001414000000
#09912:00140000000014000000000000000000
#0991a:0014000000140000
#09918:00000013
#09915:0000000000000013
#10417:13
#1041b:0000000000130000
#10412:2300001300002613
#10415:0013
#10418:00132613
#0751b:000000130013000000130013
#07516:140013000013
#07512:001300131300
#07517:000000000000001300000000
#01515:0000001300130000
#0151b:0013
#01518:00000013
#03018:00000000000000000013000000000000
#03015:0013
#0301b:0000000000130000
#03016:0000000000000014
#03012:0000000000130000
#03019:00000000003300330000000000000000
#03014:00330033000000000000000000000000
#0291b:2300000000130000
#02918:00000000000000130000000000000000
#02912:0000001300000000
#02917:00130000
#02913:00000013000000000000000000000000
#02919:00001300000000000000000000330033
#02915:00130000000000000000000000000000
#0291f:11
#11513:0024000000000000
#11519:0024000000000000
#0951b:0023000000000000
#09516:0023000000000000
#09514:00000000002300000000000000000000
#09512:0023
#09517:0023
#09519:00000000002300000000000000000000
#1141c:3232323200320000
#11412:3232323200320000
#03855:0000000000130000
#03856:0000000000000063
#0145b:0053000000000000
#01452:0000001300000000
#01352:0000000000000053
#05356:00001414
#05452:0000001300000000
#05852:00130000
#06656:00630000
#06658:0016
#09252:00000033
#03952:2313
#0395b:0063
#04058:0000000000130000
#04057:0000000000000053
#0415b:23001363
#04152:0053
#04252:0000000000000053
#04557:63
#04552:63000013
#04556:0053
#0455b:00135300
#04356:23
#0555b:0013000000000000
#05552:0000000000000013
#0185b:0053
#03552:63
#0355b:0053
#03658:0063
#03655:0053
#11358:0052
#11356:0062
#10553:0000000000000000000000000000000000230000002300000023000000230000
#10554:00000000000000006363636363636363
#10555:0000000000000000000000000000000000000023000000230000002300000023
#1055a:0000000000000000000000000000000000230000002300000023000000230000
#10559:00000000000000005353535353535353
#10558:0000000000000000000000000000000000000023000000230000002300000023
#10654:63636363636363636363636363636363
#10653:0023000000230000002300000023000000230000002300000023000000230000
#10655:0000002300000023000000230000002300000023000000230000002300000023
#10659:53535353535353535353535353535353
#1065a:0023000000230000002300000023000000230000002300000023000000230000
#10658:0000002300000023000000230000002300000023000000230000002300000023
#10754:63636363000000000000000000000000
#10753:0023000000230000000000000000000000000000000000000000000000000000
#10755:0000002300000023000000000000000000000000000000000000000000000000
#10759:53535353000000000000000000000000
#1075a:0023000000230000000000000000000000000000000000000000000000000000
#10758:0000002300000023000000000000000000000000000000000000000000000000
#06857:00530000
#06852:0016
#08152:0053000000000000
#00957:63
#0095b:0000002300000000
#01056:53
#01052:0000002300000000
#02252:0063000000000000
#0225b:0000001300000000
#0215b:0000000000000063
#02652:0063
#03256:00000014
#04658:0000000000130000
#04657:0000000000000053
#0475b:2313
#04752:0053
#04855:0000000000130000
#04856:0000000000000063
#04952:23001353
#0495b:0063
#07056:00630000
#07058:0016
#07257:00530000
#07252:0016
#07452:00530000
#07456:0000002300000000
#07455:0046
#0765b:00630000
#07657:0000002300000000
#07656:0023000000000000
#07652:53
#07655:0036
#08056:53
#08057:00630000
#08657:0053
#0865b:0000000000230000
#08655:00000063
#08652:0000000000000023
#08758:53
#08755:00630000
#0875b:0023000000000000
#08752:0000002300000000
#0935b:0043000000000000
#09352:0000005300000000
#09752:0014000000000000
#09756:0024
#0975a:0000006400000000
#0985a:14
#09852:64
#0995a:0014000000000000
#09956:0024
#09952:0000005400000000
#10052:14540000
#1005a:54
#01656:0000001300000000
#02457:0000001300000000
#0785b:5313
#07857:00630000
#07852:0016
#03056:0000000000000014
#03752:0035
#03759:0045
#11553:0014000000000000
#11559:0014000000000000
#0895a:0000004400000000
#08852:0034
#09052:0034
#0915a:0000004400000000
#06452:0016
#009370:13000023
#0093b0:0000005300000000
#010360:13000023
#010320:0000005300000000
#0123b0:0013
#0123a0:00000000000000000033000000000000
#012390:00000000000000000000333300000000
#012380:00000023
#012351:00000013
#012341:00000000000000000000000000330000
#012331:00000000000000000000000000003333
#013321:23
#013321:0000000000000013
#014361:0023000000000000
#0143b0:0013000000000000
#014370:0000002300000000
#015320:13000023000000000000000000000000
#015381:00000013000023000000000000000000
#015321:0000000000000013
#016321:0023000000000000
#0173b1:13000023000000000000000000000000
#017350:00000013000023000000000000000000
#0183b0:0013
#018370:00000023
#0213b0:0000000000000013
#022370:0023000000000000
#022321:0013000000000000
#022341:00330000
#022361:0000002300000000
#0233b1:0000000000000013
#0243b1:0023000000000000
#025321:13000023000000000000000000000000
#025380:00000013000023000000000000000000
#026320:0013
#026360:00000023
#029350:0000000013230000
#029380:00000013
#029390:00000000000000000000000000330033
#0293b0:0000000000000033
#030380:23
#030351:13230000
#030341:00330033000000000000000000000000
#030321:0033000000000000
#030380:00132300
#030390:00000000003300330000000000000000
#0303b0:0000003300000000
#031350:00001323
#031340:00000000000000000033003300000000
#031320:0000000000330000
#031381:00000013
#031391:00000000000000000000000000330033
#0313b1:0000000000000033
#032381:23
#032350:13230000
#032340:00330033000000000000000000000000
#032320:0033000000000000
#035320:13
#035360:0000002300000000
#0353b0:0013
#035370:0000000000000023
#036380:0013
#0363b0:00000023
#036351:0013
#036321:00000023
#038361:0000000000000013
#039321:53
#039361:0023000000000000
#0393b1:0013
#039371:00000023
#040371:0000000000000013
#0413b1:53
#041371:0023000000000000
#041321:0013
#041361:00000023
#0413b0:00000013
#042370:23
#042320:0000000000000013
#043360:53
#043320:0023000000000000
#043320:00001333
#043360:0000000000330023
#045320:13
#045360:00230000
#045371:13
#0453b1:00230000
#0453b1:0013
#045371:00000023
#045360:0013
#045320:00000023
#046370:0000000000000013
#0473b0:53
#047370:0023000000000000
#047320:0013
#047360:00000023
#048360:0000000000000013
#049320:53
#049360:0023000000000000
#0493b0:0013
#049390:0000000000330000
#049380:00000000000000000000003300000000
#049370:00000023
#049321:00000013
#050361:23
#0513b1:00001333
#051371:0000000000330023
#052361:1300002300000000
#052321:00000033000000000000000000000000
#052371:0000000013000023
#0523b1:00000000000000000000003300000000
#0543b1:13
#054371:00000033000023000000000000000000
#054321:00000013
#054361:00000000000000000000000000000033
#055361:0023000000000000
#0553b1:0013
#055371:00000000000000000000003300002300
#0573b1:132300000000
#057320:001323000000
#057380:000000132300
#057351:000000001323
#058321:000000132300
#0583b0:000000001323
#059350:132300000000
#059381:001323000000
#059321:000000132300
#0593b0:000000001323
#060350:13535353230000000000000000000000
#060340:0053005300530053000000000000000000000000000000000000000000000000
#060381:00000000135353532300000000000000
#060391:0000000000000000005300530053005300000000000000000000000000000000
#062381:000000001323
#063351:001323000000
#063381:000000001323
#066361:00130000
#066321:0023
#068371:00130000
#0683b1:0023
#070361:00130000
#070321:0023
#072371:00130000
#0723b1:0023
#074321:00132300
#074361:0000005300000000
#076321:13230000
#076361:0053000000000000
#0763b0:00132300
#076370:0000005300000000
#076320:000000000000000000130023
#077350:132300000000
#0783b0:13
#078370:002300000000
#078370:00130000
#0783b0:0023
#0783b0:000000000000000000130023
#079370:000000132300
#0793b0:000000000000000000130023
#080360:13
#080320:00230000
#080371:00130000
#0803b1:0023
#081321:0013000000000000
#081361:0000002300000000
#081381:00000000000000000000000013333333
#082381:23
#082351:00000000133333332300000000000000
#0823b1:00000013
#0823a1:00000000000000000000000000330000
#082391:0000000000000033
#082381:00000000000000000000000000000033
#083371:23
#083321:00130000
#083331:00000000003300000000000000000000
#083341:0000003300000000
#083351:00000000000000330000000000000000
#083361:0023
#0833b1:00000013
#083391:00000000000000000000000000330033
#083371:0000000000000033
#0843b1:23
#084321:00132300
#084341:00000000003300330000000000000000
#084361:0000003300000000
#086371:0013
#086391:00000000000000000033003300000000
#0863b1:0000000000330000
#086381:00000023
#086350:00000013
#086330:00000000000000000000000000330033
#086320:0000000000000033
#087350:23
#087381:13230000
#0873a1:00330033000000000000000000000000
#0873b1:0033000000000000
#087350:00130000
#087330:00000000003300330000000000000000
#087320:0000003300000000
#087360:0023
#093320:0000001300000000
#093360:0000000000230000
#0943a0:00000000000000001200002200000000
#094341:00000000000000000000001200002200
#0973a1:0000001400240000
#097361:0054
#098321:14
#098361:00240000
#099321:0000001400240000
#099361:0054
#1003a1:14
#100381:0034000000000000
#100371:00000034000000000000000000000000
#100361:00240000
#100320:00140000
#100360:0024
#102320:13330000
#102360:0033002300000000
#102370:0000000013000023
#1023b0:00000000000000000000003300000000
#103360:1300002300000000
#103320:00000033000000000000000000000000
#105340:00000000000000001353535353535353
#105330:0000000000000000000000000000000000530000005300000053000000530000
#105350:0000000000000000000000000000000000000053000000530000005300000053
#106340:53535353535353535353535353535353
#106330:0053000000530000005300000053000000530000005300000053000000530000
#106350:0000005300000053000000530000005300000053000000530000005300000053
#107340:53535353230000000000000000000000
#107330:0053000000530000000000000000000000000000000000000000000000000000
#107350:0000005300000053000000000000000000000000000000000000000000000000
#105391:00000000000000001353535353535353
#1053a1:0000000000000000000000000000000000530000005300000053000000530000
#105381:0000000000000000000000000000000000000053000000530000005300000053
#106391:53535353535353535353535353535353
#1063a1:0053000000530000005300000053000000530000005300000053000000530000
#106381:0000005300000053000000530000005300000053000000530000005300000053
#107391:53535353230000000000000000000000
#1073a1:0053000000530000000000000000000000000000000000000000000000000000
#107381:0000005300000053000000000000000000000000000000000000000000000000
#111321:00000014
#111361:0000000000000024
#1123a1:0014000000000000
#112361:00240000
#113381:0012
#1133a1:00000000000000000000003232000000
#1133b1:0000000000000032
#1143c1:3232323200320022
#113360:0012
#113340:00000000000000000000003232000000
#113330:0000000000000032
#114320:3232323200320022
