This file was generated by Ched 2.6.4.0.
#TITLE ""
#ARTIST ""
#DESIGNER ""
#DIFFICULTY 0
#PLAYLEVEL
#SONGID ""
#WAVE ""
#WAVEOFFSET 0
#JACKET ""
#REQUEST "ticks_per_beat 480"
#00002: 4
#BPM01: 181
#00008: 01
#TIL00: ""
#HISPEED 00
#MEASUREHS 00
#00518:2313
#00512:0013000000130000
#0051b:00130013
#00515:0000001300000013
#00612:0013000000130000
#00618:1313
#0061b:00130013
#00615:0000001300000013
#03815:00130000
#03812:2313
#03818:0013000000130000
#0381b:2300001300000000
#0381f:21
#01418:00000013
#01415:0000000000130013
#0151b:13130000
#01512:0013001300000000
#01518:00001313
#01515:0000000000130000
#03915:00000013
#03918:0000000013000013
#0391b:00130000
#03912:0000001300000000
#03910:41
#0531b:13
#05315:0013000000000000
#05312:0000001300001400
#0531a:0014
#05318:00130000
#0541b:23000013000000000000000000000000
#05416:2300001300000000
#05412:00000000000000000000000023000013
#05417:00000023
#0561a:14
#05616:001400000000
#05612:0000001400000000
#05615:000013
#0561b:000000230013
#05610:0041
#06112:1313
#0611b:1313
#06118:001300001300
#06115:001300
#0641b:00000013
#06412:000000000000000000000013
#0641a:0024
#06518:1313
#06515:001300001300
#0651b:00130013
#06512:000000000013000000000013
#06618:13
#06615:00130000
#06612:00000013
#0661b:000000000000000000000013
#08918:0000000000001313
#08915:00000000000000000000000000130000
#08912:0000002400000000
#0891a:0000002400000000
#09615:00130000
#09618:13
#09616:0000000000140000
#0961a:00002414
#09612:0000000000000014
#09610:0041
#1051b:00130000
#10512:00130000
#10518:2623
#10515:0023
#04012:1300001300000000
#0401b:1313
#04018:00130000
#04015:0013000000130000
#0421b:1300000000000013
#04215:0013000000130000
#04218:00131300
#04212:0000001300000000
#04312:0000130000000013
#0431b:0000001300000000
#04315:00001313
#04318:0000000000130000
#01312:23130000
#0131b:0013001300000000
#01315:00001313
#01318:0000000000130000
#01310:41
#01615:00000013
#01618:0000000000130013
#01613:00330000
#01712:2313
#01715:0013001300000013
#0171b:2313
#01718:00130000
#01812:0000001300000000
#01815:00000013
#01818:0000000000000013
#0181b:0013
#03315:0013001300001300
#03318:0000130000130013
#0331b:2313
#03312:2313
#03018:0000000000000013
#0301a:14141400
#03012:0014000000140000
#03016:0000001400000000
#03418:0000130000130000
#0341b:13001313
#03412:13001313
#03415:0013001300000000
#01118:0013000000130013
#01115:23130013
#0111b:0000001300000000
#01112:0013
#0121b:0013000000130000
#01212:00130013
#01218:0000001300000013
#01215:2313
#08018:0000000000130013
#08012:00002313
#08016:14140000
#08115:1313
#0811b:0000000000130000
#08112:00000013
#08118:0000000000000013
#10912:0000000000130000
#10918:0000000000001313
#10915:00000000000013000000000000130000
#1091a:13
#10914:0013000000000000
#10919:00130000
#1091b:0023
#11012:1313
#1101b:0000001300130000
#11015:0000130000001313
#11018:00001300000000000000000000130000
#1111b:13
#11112:0000001300000014
#11115:0013000000000000
#11118:00000000130000000034003400000000
#1111a:0014
#11117:0000000000140000
#11114:00000000000000000000000000000034
#00815:0013000000130000
#00812:0000001300000013
#00818:00130013
#0081b:0013
#00918:00130000
#00915:0013
#00912:00000013
#0091b:23
#0101b:13
#01018:0000130000000013
#01015:0013
#01012:00000013
#07418:130000000000000000000013
#07412:00130000
#07415:001300000000230000001300
#0741b:000013000000000000130000
#07712:001313000013
#07718:130000130013000000000013
#07715:000000131300
#0771b:000000000000001300130000
#07812:13002313
#07818:000013000000000000000013
#07815:00130000
#07615:000000000000000000000013
#0761b:13130013
#07618:0023
#09112:0000002400001300
#0911b:00000013
#0911a:0000002400000000
#09317:0000001300000000
#09312:00000013
#0931b:0000000000000013
#09315:13
#09314:00330000000000000000000000000000
#09415:13
#09412:00130000
#09418:0013000000000000
#0941b:0000001300000000
#09712:0014000000001400
#0971a:0000001400000000
#09716:1400000000000014
#0981a:1400001400000014
#09816:0000140000140000
#09812:00001414
#10216:00000000000000000000001400000000
#1021a:0000000000000014
#10215:13130000
#10218:0013001300000000
#10212:0024
#10418:00132626
#10415:0000001300000000
#10412:2600000000160016
#00418:1313
#00415:0013000000130000
#0041b:00130023
#00412:0000001300002300
#01912:2313
#0191b:0013000000000000
#01915:0000130000130000
#01918:0000001300001300
#0201b:0013000000000000
#02014:0000000014000014
#02018:00000000000013000000001400000000
#02015:13
#02012:00130000
#02215:00000013
#02218:0000000000130013
#02214:00330000
#02112:0013000000130000
#02115:0000001300000000
#0211b:2313
#02118:00130013
#0231b:0013000000130000
#02318:0000001300000000
#02312:2313
#02315:00130013
#02418:00000013
#02415:0000000000130013
#0241a:00330000
#02618:00000013
#02618:00000013
#02615:0000000000000013
#02615:0000000000000013
#0261b:0000001300000000
#02612:0013
#02818:1313
#02815:0000001300130000
#02812:0013000000001300
#0281b:00130000
#03716:14000014000014000000000000000000
#03714:0028
#0291a:24140014
#02916:0014000014000014
#02912:0000001400140000
#0291f:11
#03215:00000013
#03212:14140000
#0321a:0014000014000000
#03216:0000001400000000
#03112:14140014
#03116:0014000014000014
#0311a:0000001400140000
#04112:00130013
#0411b:0000001300000000
#04115:0013
#04118:00000013
#0441a:14
#04416:00000014000000000000000000001400
#04412:0000001400000000
#0451a:0014
#04618:00130000
#0461b:2313
#04615:0013000000130000
#04612:2300001300000000
#04718:00000013
#04715:0000000013000013
#04712:00130000
#0471b:0000001300000000
#0481b:1300001300000000
#04812:1313
#04815:00130000
#04818:0013000000130000
#0491b:00130013
#04912:0000001300000000
#04915:0000000000130000
#04918:0013
#04916:0000000000000014
#05012:1300000000000013
#05018:0013000000130000
#05015:00131300
#0501b:0000001300000000
#0511b:13130000
#05112:0013001300000000
#05118:00001313
#05115:0000000000130013
#05517:0013000000000000
#0551b:00000000000000002300001300000000
#05516:0000000023000013
#05712:131300
#05718:001300000000
#0571b:0013
#05715:000013
#05719:000000000000000000000033
#05812:000000130013
#05818:000013
#05817:333300000000000000000000
#05819:003300000000
#0591b:131300
#05915:001300000000
#05912:000000130013
#05918:000013
#06215:000013
#06218:000000000013
#0621b:0023
#06212:0023
#06312:1313
#0631b:1313
#06315:001300001300
#06318:000013000013
#06715:1313
#06718:001300001300
#06712:00130013
#0671b:000000000013000000000013
#06815:130000000000000000000013
#0681b:00000013
#06818:00130000
#06918:1313
#06912:001300001300
#0691b:00130013
#06915:000000000013000000000013
#07018:130000000000000000000013
#07012:00130013
#07115:1313
#0711b:001300001300
#07112:00130013
#07118:000000000013000000000013
#07215:130000000000000000000013
#0721b:00130000
#07212:00000013
#07218:000000230013
#07210:0041
#0791b:001300000013000000000013
#07912:001300130000
#07915:130000001300000000130000
#07918:000000130000000013000000
#08215:13000013
#0821b:0013000000130000
#08212:00131300
#08218:0000001300000013
#08312:13000013
#0831b:0013000000000013
#08315:00131300
#08318:0000001300130000
#08415:1324
#08418:0013000000000000
#08412:00130000
#08419:0000000000000024
#08413:0000000000000024
#0841a:0024
#09218:1400000000130000
#09214:00000000140000000000000000000033
#0921b:0013
#09212:0000000000000013
#09219:00000000000000000033003300000000
#0991a:0014000000001400
#09912:0000001400000000
#09916:1400000000000014
#1001a:14
#10016:00140000
#10012:0014001400000000
#1011b:0000001300130013
#10112:00001313
#10316:00000014000000000000000000000000
#1031a:0000001400000000
#10318:0000000000160016
#10312:24002626
#1061b:0013
#10612:0013
#10812:0000000000130000
#1081b:00000013
#10813:0000000000000013
#11212:0000000000130000
#1121b:00000013
#11213:0000000000000013
#11215:14
#1121a:00140000
#11217:0000001400000000
#11214:00340000000000000000000000000000
#11218:00000000003400340000000000000000
#1131a:13
#11314:0013000000000000
#11319:00130000
#11315:0000001300000000
#07312:000013000000000013000013
#0731b:1313
#07318:00130013
#07315:000000000013000000000000
#07512:130000000000130000000013
#07518:000000000013000000001300
#0751b:001300001300
#07515:00130013
#0271b:2313
#02712:0013000000000000
#02718:0000130000130000
#02715:0000001300001300
#02710:41
#0871b:0013
#08716:00000014
#0901b:0013000000000000
#09012:0013000024000000
#0901a:0024
#0251b:2313
#02518:0013001300000013
#02512:2313
#02515:00130013
#05216:00000014000000000000001400000000
#05212:0000001400000014
#0521a:2424
#06015:000000000013
#06018:000013
#11516:0024000000000000
#08517:00240000
#08512:00240000
#08515:0024
#08519:0000000000000024
#08513:0000000000000024
#0851a:0024
#0881a:0024
#08812:0024
#08617:00240000
#08612:00240000
#09512:0026000026000000
#09518:00000000002600000000000000000000
#00719:00330000000000000000000000330000
#0071a:00003333000000000000000000003333
#00714:00000000000000330000000000000000
#00713:00000000000000003333000000000000
#03858:0000000000130000
#0535a:0014
#05352:00000014
#05456:0000001300000000
#06655:00530000
#06652:0013
#03958:0013
#0425b:0000000000000053
#03058:0000000000000013
#07452:00530000
#07455:0013
#09357:0000006300000000
#09355:23
#09352:0033000000000000
#09752:0014000000000000
#0975a:0000006400000000
#0985a:14
#03255:00000013
#04055:0000000000130000
#04155:0013
#0455a:0054
#04556:00000014
#04552:00340000
#04655:0000000000130000
#04755:0013
#04858:0000000000130000
#05557:0013000000000000
#05556:0000000000000013
#0765b:00630000
#07658:0013
#0995a:0014000000000000
#09952:0000005400000000
#1065b:0023
#10652:0023
#06858:00630000
#0685b:0013
#07052:00630000
#07055:0013
#0725b:00530000
#07258:0013
#04452:0000006400000000
#04456:0000000000000024
#0875b:0063
#08756:00000024
#0925b:00006343
#09258:0000000000230000
#09252:0000000000000053
#1115a:0064
#11157:0000000000240000
#11152:0000000000000054
#11255:24
#1125a:00640000
#11257:0000002400000000
#07855:00630000
#07852:0013
#03754:0018
#11556:0014000000000000
#10558:0053
#10555:0063
#0645a:0014
#007380:13
#007390:00330000000000000000000000000000
#0073a0:00003333000000000000000000000000
#0073b0:00230000
#007350:0000001300000000
#007340:00000000000000330000000000000000
#007330:00000000000000003333000000000000
#007320:0000000000230000
#007380:00000013
#007390:00000000000000000000000000330000
#0073a0:00000000000000000000000000003333
#0083b0:23
#013380:0000000000000013
#0143b0:0033000000000000
#014380:0000002300000000
#015350:0000000000000013
#016320:0033000000000000
#016330:00330000
#016350:0000002300000000
#018380:13000023000000000000000000000000
#021350:0000000000000013
#022320:0033000000000000
#022340:00330000
#022350:0000002300000000
#023380:0000000000000013
#0243b0:0033000000000000
#0243a0:00330000
#024380:0000002300000000
#026350:13000023000000000000000000000000
#0353b0:1300002300000000
#035380:00000033000000000000000000000000
#035320:0000000013000023
#035350:00000000000000000000003300000000
#036380:1300003333002300
#0363b0:00000033000000000000000000000000
#036351:00001323
#038351:0000000000000013
#039351:0023000000000000
#040381:0000000000000013
#041381:0023000000000000
#0423b1:0000000000000013
#043371:0023000000000000
#044321:0000001400000000
#044361:0000000000000054
#045321:00240000
#0453a1:0014
#045361:00000024
#046381:0000000000000013
#047381:0023000000000000
#048351:0000000000000013
#049351:0023000000000000
#0573b1:000000000013
#057391:000000000000000000000033
#058371:335333000000000000000000000000000000000000000000
#058391:003300000000
#0583b1:00230000
#0603b1:13535353535353532300000000000000
#0603a1:0053005300530053005300530053005300000000000000000000000000000000
#061341:000000000014
#061321:000000000000000000000034
#062341:343400000000
#062321:003400240000000000000000
#0643a1:143434240000
#064381:003400340034000000000000
#066351:00130000
#066321:0023
#068381:00130000
#0683b1:0023
#070321:00130000
#070351:0023
#0723b1:00130000
#072381:0023
#074321:00130000
#074351:0023
#0763b1:00130000
#076381:0023
#078351:00130000
#078321:0023
#0813b1:0013002300000000
#0863b1:0013
#0863a1:00000000000000000033000000000033
#086391:0000000000330033
#086381:00000000000000000000003300330000
#086371:00000033
#0873b1:3333
#0873a1:00330000000000330000000000000000
#087391:0033003300000000
#087381:00000033003300000000000000000000
#087371:00330000
#087361:00000054
#0883a1:24
#0923b1:00001323
#092391:00000000000000000033003300000000
#092381:0000000000330000
#092321:0000000000000013
#092341:00000000000000000000000000000033
#093351:33
#093341:00330000000000000000000000000000
#093321:0023000000000000
#093371:0000001300000000
#0933b1:0000000000230000
#0973a1:0000001400000000
#097361:0000000000240000
#099321:0000001400000000
#099361:0000000000240000
#1003a1:0014
#100391:00000000000000000034000000000000
#100381:0000000000340000
#100371:00000000000000000000003400000000
#100361:00000024
#100321:0000000000000014
#100331:00000000000000000000000000000034
#101341:34
#101351:00340000000000000000000000000000
#101361:0024000000000000
#105381:0013
#1063b1:0053
#107381:00230000
#105350:0013
#106320:0053
#107350:00230000
#1073b0:0013
#1073a0:00000000000000000033000000000000
#107390:0000000000330000
#107380:00000000000000000000003300000000
#107370:00000023
#107320:0000000000000013
#107330:00000000000000000000000000000033
#108340:33
#108350:00330000000000000000000000000000
#108360:0023000000000000
#1083b0:00130000
#1083a0:00000000003300000000000000000000
#108390:0000003300000000
#108380:00000000000000330000000000000000
#108370:0023
#1113a0:00001424
#111380:00000000000000000034003400000000
#111370:0000000000340000
#111320:0000000000000014
#111340:00000000000000000000000000000034
#112350:34
#112340:00340000000000000000000000000000
#112320:0024000000000000
#1123a0:00142400
#112380:00000000003400340000000000000000
#112370:0000003400000000
#113330:00001232
#114330:3200323200320022
#1133b1:00000000000000001200003200003200
#1143b1:0032003200320022
