This file was generated by Ched 2.6.4.0.
#TITLE ""
#ARTIST ""
#DESIGNER ""
#DIFFICULTY 0
#PLAYLEVEL
#SONGID ""
#WAVE ""
#WAVEOFFSET 0
#JACKET ""
#REQUEST "ticks_per_beat 480"
#00002: 4
#BPM01: 181
#00008: 01
#TIL00: ""
#HISPEED 00
#MEASUREHS 00
#11412:00120000
#1141c:00120000
#11416:3232003200320000
#11418:3232003200320000
#11318:00000000000000001200003232323232
#11316:00000000000000001200003232323232
#1131b:0000001300000000
#11315:130000000014000000000000000000000000000000000000
#11312:0014001300000000
#11317:001400000000
#1131a:00140000
#00517:0013130000000000
#00512:23000000001300000000001300000000
#00518:00000000000000000000130000000013
#0051b:2313000000001300
#00515:0000000000000013
#00612:1313001300001300
#0061b:13000000001300000000000000001300
#00616:0013130013000013
#00614:0000000000130000
#00617:00000000000000000000001300000000
#00619:00000000000000000013000000000000
#01818:13
#0181b:00001313000000001300000000001300
#01816:0013000013000013
#01812:00000000001313000000000000000000
#01817:0000001300000000
#00715:14000013000000001300000014000013
#00712:00130000000000000000130000130000
#00718:00001300000000000013000000001300
#0071b:00000000130000130000000000000000
#00717:0000001400000000
#03815:00000016130000001316000000000000
#03818:0013000000130000
#0381b:2300131300001313
#03812:2300001300131300
#03816:0000000000000013
#0381f:21
#0131b:2300001300130013
#0131b:0000001300000000
#01317:00000013000000001300000013001300
#01316:13000000001300000000000000000000
#01312:00000000000000130000000000000000
#01310:41
#01417:1300001300000000
#01416:00130014
#0141b:0000130000130013
#01412:1313000000130013
#01512:1300001300130013
#01516:00000013000000001300000013001300
#01517:13000000001300000000000000000000
#0151b:00000000000000130000000000000000
#03512:0000001300000000
#03516:0000000000000013
#03517:23
#0351b:0023
#03718:1324
#0371b:00000013000013000000000000000000
#03712:1300001300000000
#03715:00000013000000000000000000000000
#03714:0024
#03916:0013001300131300
#03912:0000000013000013
#03918:00130000
#0391a:0000001300000000
#0391b:0013
#03917:0000000000000013
#03914:00130000
#03910:41
#05315:1613161316001600
#05312:1313
#05318:0013001300000000
#0531b:00130013
#0541b:00000013000000000000000000000000
#05417:0000001300000000
#0541a:0014
#05416:24000000000000000014000024000000
#05412:00000000000000000000140000000013
#05612:1c001c001c00260016000013
#05618:000000261600
#0561b:000000000013
#05610:0041
#0571b:000013000013000000000000
#05712:000013001313
#05718:000000000013
#05715:000000000000000000000013
#05717:13
#05716:0013
#05815:001300130000000000000000
#05818:131300000000
#0581b:000000130000000000001300
#05816:000000000000000013000013
#05812:0013
#0601b:000013
#06016:130000000000000013000018
#06012:000000000013
#06017:0023
#06116:130013
#06117:001300130000
#06112:000013000018130000000000
#0611b:130013001313
#06115:000000000013
#06118:000000000000000000000013
#06317:000000000000000013000013
#06312:180000001300000013000013
#06316:000013000013180000000000
#0631b:000013000013000000001300
#06412:181300000000230000000000
#06416:001800000000
#0641b:00132313
#06415:000000001300000000000013
#06418:000000000013000000001300
#06512:130000130000001300130013
#06516:000014000014000014140000
#0651b:000013130000
#06518:13
#0651a:000000000014
#0661b:13
#06617:00130000
#06615:000000130013
#06616:13
#06612:00000013
#06618:000000000000000000000013
#0841b:00000000000000130013000000130000
#08415:0000001300130000
#08418:000016000000160000001600000000130000000000000000000000000000000000130000000000000000000000130000
#08412:160016001600130000000000260000000000130000260000
#09214:0000000000000000001a000000000000
#09216:00000012000000120000180000000000
#09218:16001200160012000000001600000000
#09212:00160000001600002c00000000001c1a
#0921a:00000014
#09312:18161400000000000000001300000014
#0931b:0000001200130000
#09313:00000000000000120000000000000000
#09318:00001213
#09316:00000000000000000012000000000000
#09315:00000000000000000000000000130000
#0931a:0000000000000014
#0961b:00000013001300002300000013000000
#09615:00001300160013000000001600000000
#09618:00130000000000130000130000001300
#09612:1326
#09610:0041
#1051b:23130000
#10512:0000000000000000130000000000000000130000001300000013000000130000
#10513:00000000000000002313131313131313
#10514:0000000000000000000000000000000000000013000000130000001300000013
#10515:16
#1051a:0023
#04012:1300131300001313
#0401b:1300001300131300
#04018:00131300
#04015:00001316000000000016130000000000
#04017:0000000000000013
#04212:13000000000000130000130000000000
#0421b:00130000130013000000130000001300
#04216:0000000000000013
#04215:00000013000000001300000000000000
#04218:00001300000000000013000000000000
#04317:0013131313000000
#0431b:00131300
#04312:0000001300160000
#04318:0000000000000016
#04417:0000001300000000000000000000000000000000000000000000000000000000
#0441b:1300001300000000
#04412:0000000000000000001300000000000000000000000000000000000000000000
#04416:13000013000000000000000000000000
#0441a:0000000000140000
#01712:00000000000000001300000000000013
#01716:0000001300000013
#01717:0013
#0171b:23
#02915:00131600130013000000000000001300
#02912:00000013000000000000000013000000
#0291b:0000130000131300
#02918:26000000000000130000000000130013
#0291f:11
#10613:13131313131313130000000000000000
#10612:0013000000130000001300000013000000000000000000000000000000000000
#10614:0000001300000013000000130000001300000000000000000000000000000000
#1061a:00000000000000001313131313131313
#1061b:0000000000000000000000000000000000130000001300000013000000130000
#10619:0000000000000000000000000000000000000013000000130000001300000013
#1071a:13131313000000000000000000000000
#1071b:0013000000130000000000000000000013000000000000000000000000001300
#10719:0000001300000013000000000000000000000000000000000000000000000000
#10712:00000000000000000013000013001300
#10715:00000000000000000000161300000000
#01015:13000013000000000000000000001300
#0101b:13001300000000000000130000000013
#01018:0000131300000000
#01012:00000000130000000000001300000000
#01118:23001300000000000000001300000000
#01115:00000013000000000000130000000000
#01112:2300001300000000
#0111b:0000000013000013
#01116:0013
#01215:00001300000016000013001300001300
#0121b:00000013000000001300000013000000
#01212:23131313
#01218:23000000000000000000130000130013
#0811b:13001300000000130000001300000000
#08115:00160000000000000000160000161300
#08112:0013001313001300
#08118:00000000000000000013000000000013
#08116:00130000
#08015:00000000000000000013160016130016
#08012:14000000140000000000001300000000
#0801a:14
#08018:0000001400000013
#08014:0014000000000000
#0801b:0023
#08814:14
#08818:14
#08812:0024
#09018:0000001316000000
#09012:0013000026000000
#09015:0000001300000000
#0901b:0013000000000000
#09016:14
#10912:0000141300000013
#10918:13
#1091a:0014000000000000
#10915:000000000000000014000000000000000000000000000000000000000000000000000000000000160000000000000000
#10917:000000000014000000000000000000130000000000000000
#1091b:0000001323001313
#10916:0023
#10815:16000000000016130000000000000013
#10818:000000130000000000000000000000000000000000000000000000000000150000001500000015000000150000000000
#1081b:0013130013000000
#10812:00000000001300001300000000000000
#10813:000000000000000015151500
#11012:00001c1c1c0000001300000013001300
#11019:13
#11018:0000001300000000
#11015:00000000000000130000000000160000
#11017:0013
#11014:13
#1101b:0000000000000013
#11016:0000000000130000
#11119:0000001300000000
#11112:1c1c1c1c1c0000001300000000000013
#1111b:00000000000000000013000000001300
#11115:0000000000161600
#11118:00000000000000000000001300000000
#11114:0000001300000000
#00812:000000160016001600160000000000130000000000130000
#0081b:13000013
#00818:000000000000000016000000160000001600000000130000000000000000000013000000000000000000000000000000
#00815:000000000000000000000000130000000013000000000000
#00817:0000000000000013
#0091b:2300130013130000
#00912:0000130013001313
#00918:00001300000000130000000013000013
#00915:23000013000013000000001300000000
#02016:13001300130000001400001400001400
#0201b:13000000001300001300000000001300
#02012:00001300000013000000001300000000
#03018:00000013001300130000130000000000
#03015:1613001316000000
#0301b:00130000000000000013000000001300
#03012:0000130000130000
#03017:00000013
#07315:001300130000
#07312:000000001300000013130000
#07318:000000130013001300130013
#0731b:1313
#07317:001300000000000000000000
#07316:000000000013
#07415:131300000000
#07416:00132300
#0741b:001300130000230000000000
#07412:0000001300001300
#07717:13
#0771b:00130000
#07715:000013001313
#07718:000000000013001300000013
#07712:13001c1c
#07716:001300000000
#07817:130000000000230000000013
#0781b:00130013
#07816:000013130000000000130000
#07812:1323
#07617:000000000000230000000013
#07618:00130000
#0761b:1300001300001300
#07616:13000013
#07612:0013000023000000
#07916:00001313
#07917:000000000000000000000013
#0791b:00001313
#07912:1300001c0000000013000000
#07918:001300000013000000000000
#07915:001313000000
#09112:0000001600001300
#0911b:00000013
#09118:0000002600000000
#0941a:0000000000000012
#09417:14
#09415:00140000001500000000000000000000
#09419:0015000000000000
#09412:0000000000001500000000000000160000000000000000000012000000000000
#09416:00000000150000000000001200000000
#09418:0000001612000000
#0941c:0000000000000000000000000000000000000012000000000000000000000000
#09814:0000001300000000
#09819:0000001300000000
#09816:13
#0981b:13
#09812:00131313
#09815:00000000000000000000131600001300
#09818:0016
#09717:0000001313001300
#09712:0013001300001300
#09715:13160000130000000000000000000000
#0971b:0000000000130000
#09719:0000000000000013
#09714:0000000000000013
#10415:26001616160000001600130016000000
#10412:0000001300002316
#1041b:1300001323000000
#10418:0000000000160013
#08512:13000000260000000013000000130000
#08518:00130000001300002600130000002600
#08515:00001300000013000000001300000013
#0851b:00000013000000000000000013000000
#0861b:13000000000000000000001300130000
#08615:00130000001300000000130000001300
#08618:00001300260013000013000000000013
#08612:00000013000000001300000013000000
#08912:0000001400000000
#08916:0000000000001414
#08914:00000000000000000000000000180018
#0891a:0000002400000000
#08712:1400000014000000140000000000000000000000000000001c00000000000000001c00000000000000001c0000000000
#0871a:001400140014000000000000000000000000000000000000
#08714:000000141414000000000000
#08718:000000000000001400140014000000000000000000000000
#00412:1c130000001300001c00000023000000
#00415:00000013000000130013001300000000
#00418:0000130000130000
#0041b:0013001300002300
#03315:00001300000000130000130000000000
#03318:00000013000013000000000000000000
#0331b:00000000000000000000001300001300
#03312:23000000000000000000000000000013
#03418:00000013000013000000000000000000
#0341a:00000014
#03412:00000014
#03415:00001300000000130000130000000000
#03416:00000000000000000000001400000000
#03612:0000001300000013
#0361b:00000000000000001300001300000000
#03616:0013
#03618:00000000000000000000130000130000
#03615:00000000000000000000000013000013
#03617:23
#01616:1300001300001400
#0161b:1300001300130013
#01614:00130000
#01617:0013000000000000
#01619:00130000
#01612:0000000000130013
#01917:2313130000000000
#01912:23000000001300000000001300000013
#01918:0000000000130013
#0191b:0013000000001300
#02116:00000013000000000000130000001300
#02117:2300001300000000
#02114:00000000001300000000000000000000
#02112:13000000000000131300000013000000
#0211b:0013000000000013
#02119:00130000
#02216:0000001300001300
#02212:1300130000130013
#02217:1300130000130013
#0221b:0013001300001300
#02317:00000013000000000000130000001300
#02316:2300001300000000
#02319:00000000001300000000000000000000
#0231b:13000000000000131300000013000000
#02312:0013000000000013
#02314:00130000
#0241b:1300130000130013
#02416:1300130000130013
#02412:0013001300001300
#02417:0000001300001300
#02614:13
#02612:00001313000000001300000000001300
#02617:0013000013000013
#02619:13
#0261b:00000000001313000000000000000000
#02616:0000001300000000
#0251b:0000000013000013
#02517:0000001300000000
#02516:0000000013000013
#02512:23
#02712:00000000130000000000130000000013
#0271a:00000000001300000000000000000000
#02718:00000000000000000000001300000000
#02715:00000013
#02719:0000000000000013
#0271b:23000013
#02710:41
#0281b:00000000130000000000001300000000
#02813:00000000001300000000000000000000
#02815:0000000000130000
#02818:00000000000000000013000013000000
#02812:00001313
#03118:00130000130013000000000000001300
#03115:00001600000000130000000000130013
#0311b:00000013000000000000000013000000
#03112:1600130000131300
#0321b:00131300
#03216:0000000000130000
#03212:00130000000000000000000013000000
#03215:16000013001300131600000000000000
#03218:0013001300000000
#04117:0013001300130000
#04115:00130000
#04113:0000001300000000
#0411b:00001313
#04112:0013
#04116:0000000000000013
#04119:00130000
#04512:14
#04518:0014000000130013
#0451a:00140000
#04515:00000000000000001613001316130013
#04615:00000016130000001316000013000000
#04616:0000000000000013
#04618:0013001300130000
#04612:2300001300130000
#0461b:2300130000001313
#0471b:00131313
#04712:0013001300130013
#04716:0000130013000013
#04717:0000001300000000
#04812:1300130000001313
#0481b:1300001300130000
#04818:00131313
#04815:00001316000013000016130000000000
#04817:0000000000000013
#0501b:1300000000130000
#05015:00130013000000001300000000000000
#05018:00001300000000130013000000000000
#05012:1300131300130014
#0501a:0000000000000014
#05215:0000001300000000000000000000000000000000000000000000000000000000
#05217:13
#0521b:23000013000000000000000000001300
#05219:0000000000000000001300000000000000000000000000000000000000000000
#05212:00000000000013002300001300000000
#05218:0000000000000000000000000000000000000013000000000000000000000000
#05216:0013
#05214:0000000000000000000000000000000000000000000000000013000000000000
#05516:00001300001400002400000000000000
#0551b:00000000000000000000001300000000
#05517:0000000000000013
#05512:00140000
#0551a:0000001400000000
#05917:000013000013000000000000
#05912:000013130000
#0591b:130000000013
#05916:000000000000000013000013
#06218:001300130000000000000000
#06215:131300000000
#06212:000000130000000013000013
#06217:000000000000000013000013
#0621b:000000230013
#06216:0023
#06916:001313130000
#06917:130000001313
#06912:130000000000000000130013
#0691b:000000130013130000000000
#06815:000000000000000000000013
#06818:000000130013
#06812:13
#06816:00130000
#06817:13
#0681b:00000013
#0671b:130013131300
#06716:000014000014140000140000
#06712:000000130000001400000014
#06715:13
#0671a:000000000014
#07017:13
#0701b:0013000013000000
#07015:000000130000000000001300
#07012:1300001300001300
#07018:000000000000000000000013
#07117:001313130000
#07116:130000001313
#0711b:130000000000000000130013
#07112:000000130013130000000000
#07216:13
#07212:0013000023000000
#07218:00130000
#0721b:1300001300001300
#07217:0023
#07210:0041
#08215:16001600001613000000000000001300
#08212:000000130000161616130000
#08218:000000130000000000000000000000000000000000130000000016000000160000001600000000130000000000130000
#0821b:00000013000000000000000000000000
#0831b:00000013000000130000000000000013
#08312:13000000000000001c1c13001c1c0000
#08315:00161600130013000000000000001300
#08318:00000000001300000000001300000000
#09516:0000000000000014000000000014000000000000000000000000000000000000
#09515:00000000000000000000160013000016
#0951b:00000000000000000000001300000000
#09518:00000000000000000000000000130000
#09512:00002400002400000000000000001300
#0951a:0024000024000000
#10015:00001600001300130016001600000016
#10012:13000013000000001300000013001300
#1001b:0000130013001313
#10018:0000001300130000
#10017:13
#10112:00001300000014000000001300130000
#1011a:0000001400000000
#1011b:0013000013000000
#10115:13160000000000000013000013000013
#10118:0000000000130013
#1031b:23000013000000001300000000000000
#10318:0000000000130013
#10315:0000001300000000000000000000000026000000130000002600000013000000
#10312:0000001300001300
#10317:13
#10319:0000000000000000001300000000000000000000000000000000000000000000
#0491b:0013001300000000
#04917:00131300
#04916:0000001300000000
#04912:00131300
#04918:00000000000000000000001300130013
#04915:0000000000131613
#07512:130000001300001300000000
#0751b:001300000000130000001300
#07515:000013000000130000130013
#07518:000000130013000013000000
#09918:13130000
#09915:00160000000000000000000000000000
#0991b:00001300000013000000001300000000
#09916:0000001313001300
#09912:0000000000130000
#09914:0000000000000013
#09919:0000000000000013
#11215:16131600000016001600000000000000
#11212:00131300
#1121b:00000000001300000000000000000000
#11218:000000000000000000000000000000000000000000130000000000000000000015000000150000001500000000130000
#11213:000000000000000000000000000000150015001500150000
#05112:1300000013130000
#05118:00130000130000130000001300001300
#05115:00001300000013000013000013000000
#0511b:00000013001300000000000000130013
#1021b:1313000000000013
#10218:0000130000000000130000000000000000000013000000000000000000000000
#10215:00000013000013000000000000000000
#10212:00000000001300132300001300000000
#10216:0013
#10214:0000000000000000000000000000000000000000000000000013000000000000
#11512:0024000000000000
#1151a:0024000000000000
#11452:00220000
#1145c:00220000
#11358:0052
#11356:0062
#0055b:00000013
#00652:00000013
#0135b:0000000000000053
#01356:53
#01457:2300004300000000
#01452:0063003300000000
#01456:00230000
#03552:0000001300000000
#0355b:0000000000000013
#05457:0000004300000000
#05855:00130000
#0585b:00130000
#06657:00530000
#06655:0033
#06656:63
#0665b:0043
#09352:0034000000000000
#03952:0033
#0395b:0063
#03956:0000000000230000
#03856:0000000000000063
#0385b:00430000
#03852:0000000000330000
#04256:0000000000000053
#04252:0000000000130000
#0425b:00130000
#04457:0000002300000000000000000000000000000000000000000000000000000000
#0445b:63000043000000000000000000000000
#04452:0000000000000000002300000000000000000000000000000000000000000000
#04456:33000063000033000000000000000000
#05352:1333
#0535b:00130043
#01752:0023
#01757:0053
#10552:0000000000000000000000000000000000230000002300000023000000230000
#10553:00000000000000006363636363636363
#10554:0000000000000000000000000000000000000023000000230000002300000023
#10555:36
#10653:63636363636363630000000000000000
#10652:0023000000230000002300000023000000000000000000000000000000000000
#10654:0000002300000023000000230000002300000000000000000000000000000000
#1065a:00000000000000005353535353535353
#1065b:0000000000000000000000000000000000230000002300000023000000230000
#10659:0000000000000000000000000000000000000023000000230000002300000023
#1075a:53535353000000000000000000000000
#1075b:0023000000230000000000000000000000000000000000000000000000000000
#10759:0000002300000023000000000000000000000000000000000000000000000000
#10752:00000033
#0815b:0063000000000000
#08156:00230000
#08854:54
#08858:64
#08852:0034
#0885a:0044
#09058:0046
#09052:0036
#02056:00000000000000003400004400003400
#07456:00634300
#07452:0000002300000000
#0745b:0043
#07757:23
#07857:6343
#0785b:00530000
#07856:00530023
#07852:0043
#0805a:54440000
#08054:0024000000000000
#08052:34640000
#08058:0000002400000000
#0925a:00000044
#09856:33
#0985b:53
#09852:00000013
#09757:0023
#09752:0013006300000000
#10455:00003646
#1045b:13
#08952:0000003400000000
#0895a:0000004400000000
#09152:0000003600000000
#09158:0000004600000000
#0345a:00000044
#03452:00000034
#03652:0000001300000000
#0365b:0013
#01552:0000000000000063
#01557:63
#01656:2300003300000000
#0165b:0000004300000000
#0185b:0023
#01856:0063
#02156:0000000000000063
#02152:63
#02252:23
#02256:0000003300000000
#0225b:0000004300000000
#02357:0000000000000053
#0235b:53
#0245b:23
#02457:0000004300000000
#02452:0000003300000000
#0255b:0023
#02556:0063
#02652:0023
#02657:0053
#02755:00000013
#0275b:00000013
#02858:00000013
#02852:00000013
#03052:0000000000630033
#03057:00000023
#0305b:0000000000000043
#0325b:00005343
#03256:0000000000230000
#03252:00000033
#0415b:00004363
#04152:00005333
#04157:0000000000230000
#04156:0000000000000023
#04057:0000000000000053
#04052:00330000
#0405b:0000000000430000
#04552:64340000
#04558:0024000000000000
#0455a:00440000
#04655:00330000
#0465b:0000000000000063
#04658:0000000000430000
#0475b:0043
#04756:0053
#04752:0000000000230000
#05052:00130000
#0505b:0000000000130000
#05255:0000005300000000000000000000000000000000000000000000000000000000
#05257:23
#0525b:00000023000000000000000000000000
#05259:0000000000000000005300000000000000000000000000000000000000000000
#05258:0000000000000000000000000000000000000063000000000000000000000000
#05256:0023
#05252:00000000000000000000002300000000
#05254:0000000000000000000000000000000000000000000000000063000000000000
#05556:0033000000000000
#05557:0000000000000043
#06258:00130000
#06252:00130000
#06556:00000054
#0655a:000000000024
#06957:53
#06956:0063
#06856:00630000
#06858:0043
#06857:53
#06852:0033
#06756:0064
#06752:000000000000002400000000
#07057:53
#0705b:0023000043000000
#07055:00630000
#07052:0000002300000000
#07056:0043
#07156:63
#07157:0053
#07256:63
#07252:0023000033000000
#07258:00530000
#0725b:0000002300000000
#07257:0033
#0735b:63
#07357:002300000000000000000000
#07352:00000053
#07356:000000000023
#07658:00530000
#0765b:0000002300000000
#07656:63000023
#07652:0023000033000000
#07657:0033
#0795b:0063
#07956:00000063
#09458:0062
#0945c:0000000000000000000000000000000000000022000000000000000000000000
#09456:00000000000000000000005200000000
#09452:0000000000000000000000000000000000000000000000000022000000000000
#09556:0000000000000024000000000024000000000000000000000000000000000000
#0955a:0054000000000000
#09552:00000000006400000000000000000000
#0965b:00000013
#10052:00000033
#10057:43
#1035b:00000023000000001300000000000000
#10352:00000013
#10355:0000005300000000000000000000000000000000000000000000000000000000
#10357:23
#10359:0000000000000000005300000000000000000000000000000000000000000000
#1085b:0043000000000000
#10852:0033
#11155:00000046
#10952:0000000000000033
#1095b:0000000000000043
#04858:00430000
#04855:0000000000330000
#04852:0000000000000053
#04952:0033
#0995b:0013005300000000
#09956:0023
#1015b:0043000013000000
#1105b:0000000000000043
#11052:0000000000000033
#11255:0036000046000000
#05152:1313
#1025b:13
#10258:0000000000000000000000000000000000000063000000000000000000000000
#10256:0023
#10252:00000000000000000000002300000000
#10254:0000000000000000000000000000000000000000000000000063000000000000
#03754:0034
#03758:0044
#11552:0034000000000000
#1155a:0044000000000000
#08452:0000000036000036
#08552:00360000
#08558:0000000046000046
#08658:00460000
#0645b:0043
#06452:0033
#0195b:00000013
#005380:0000001300000000
#0053b0:0023
#005351:0000000013230000
#010351:0000001300230000
#010381:0000000000001323
#0113b1:00130000
#011371:0000002300000000
#011321:00000013
#011361:0000000000000023
#013361:13
#013321:00000023000000000000000000000000
#013321:00001323
#013371:0000000000330000
#0133b1:0000000000000013
#014371:53
#0143b1:0023000000000000
#014320:0013002300000000
#014360:00530000
#015370:13
#0153b0:00000023000000000000000000000000
#0153b0:00001323
#015360:0000000000330000
#015320:0000000000000013
#016360:53
#016320:0023000000000000
#017360:13
#017320:00000023000000000000000000000000
#017371:00000013000000000000000000000000
#0173b1:0000002300000000
#017321:0013
#017361:00000023
#017370:0013
#0173b0:00000023
#0183b0:0013
#018370:00000023
#018361:0013
#018321:00000023
#0193b1:0000001323000000
#019350:0000000013230000
#021320:13
#021360:0023000000000000
#021370:00001323
#0213b0:0000000000330000
#021360:0000000000000013
#022320:53
#022360:0023000000000000
#0233b0:13
#023370:0023000000000000
#023360:00001323
#023320:0000000000330000
#023370:0000000000000013
#0243b0:53
#024370:0023000000000000
#025370:13
#0253b0:00000023000000000000000000000000
#025361:00000013000000000000000000000000
#025321:0000002300000000
#0253b1:0013
#025371:00000023
#025360:0013
#025320:00000023
#026320:0013
#026360:00000023
#026371:0013
#0263b1:00000023
#027361:13
#027321:0023000000000000
#027370:0013230000000000
#027360:0000001323000000
#0273b1:0013
#027371:0000000000230000
#028371:13
#0283b1:0023000000000000
#028360:0013230000000000
#028370:0000001323000000
#029320:0013
#029360:0000000000230000
#030320:0000000000130023
#030370:00000053
#0313b0:0013
#031370:0000000000230000
#0323b0:00001323
#032360:0000000000530000
#0333b0:1323000000000000
#033320:0000132300000000
#033380:0000000013230000
#033350:0000000000001323
#0343b0:13
#034380:0023000000000000
#034320:00130000
#034350:0000002300000000
#0343b0:0013
#034380:0000000000230000
#035320:13
#035360:0000005300002300000000000000000000000000000000000000000000000000
#0353b1:00000013000000000000000000000000
#035371:0000000000000000005300002300000000000000000000000000000000000000
#035361:0013
#035321:0000000000000000000000000000000000000053000023000000000000000000
#035370:00000000000000000000001300000000
#0353b0:0000000000000000000000000000000000000000000000000053000023000000
#036320:13
#036360:0000005300002300000000000000000000000000000000000000000000000000
#0363b1:00000013000000000000000000000000
#036371:0000000000000000005300002300000000000000000000000000000000000000
#038361:0000000000000013
#039321:0023000000000000
#0393b1:00001323
#039361:0000000000530000
#040371:0000000000000013
#0413b1:0023000000000000
#041321:00001323
#041371:0000000000530000
#0413b0:00000013
#041360:0000000000000053
#0423b0:23
#042320:0000132300000000
#042360:0000000000000013
#043320:0023000000000000
#043380:0000000000162600
#043321:0000000000001626
#0443b1:13000023000000000000000000000000
#044371:0000005300000000000000000000000000000000000000000000000000000000
#044360:00000013000023000000000000000000
#044320:0000000000000000005300000000000000000000000000000000000000000000
#044320:0000000000140000
#044360:00000000000000000000000000240000
#0443a1:00000000000000000000000000140000
#045361:24
#045320:14240000
#045380:0054000000000000
#0463b0:0000000000000013
#047370:0023000000000000
#047360:00001323
#047320:0000000000530000
#048320:0000000000000013
#049360:0023000000000000
#0503b0:0000132300000000
#052370:13
#052350:0000005300000000000000000000000000000000000000000000000000000000
#052320:00000023000000000000000000000000
#0523b1:00000013000000000000000000000000
#052391:0000000000000000005300000000000000000000000000000000000000000000
#052361:0000002300000000
#052361:0013
#052381:0000000000000000000000000000000000000053000000000000000000000000
#0523b1:00000000000000000000002300000000
#052320:00000000000000000000001300000000
#052340:0000000000000000000000000000000000000000000000000053000000000000
#052370:0000000000000023
#054320:1300000000000000005300002300000000000000000000000000000000000000
#054370:0000005300003300000000000000000000000000000000000000000000000000
#0543b0:00000013
#054360:0000000000000000000000000000000000000000000000000000005300003300
#0553b0:0053000023000000000000000000000000000000000000000000000000000000
#055320:0000000000000000000000000000000013000000000000000053000023000000
#055370:0000000000000000000000000000000000000053000033000000000000000000
#057320:13
#057360:002300000000
#0573b0:0013
#057370:000023
#058370:0013
#0583b0:000023
#059360:13
#059320:002300000000
#059370:0013
#0593b0:000023
#0603b0:1353535300000000000000000000000000000000000000000000000000000000
#0603a0:00530053005300005300530053000000000000000000000000000000000000000000000000000000000000000000000000000000000000000000000000000000
#060390:00000000000000530053005300005300000000000000000000000000000000000000000000000000000000000000000000000000000000000000000000000000
#060380:00000000000000000000000000530053230000000000000000000000000000000000000000000000000000000000000000000000000000000000000000000000
#060351:0000000000000000135300000000000000000000000000000000000000000000
#060341:00000000000000000000000000000000005300005300530053000000000000000000000000000000000000000000000000000000000000000000000000000000
#060331:00000000000000000000000000000000000000530053005300005300530053000000000000000000000000000000000000000000000000000000000000000000
#060321:00000000000000000000000000000000000000000000000000530053005300532300000000000000000000000000000000000000000000000000000000000000
#065361:000000000000000000140024
#0653a1:000000000054
#066361:13
#066321:0053230000000000
#066370:00130000
#0663b0:0000005323000000
#067360:000000142400
#067320:000000000000005400000000
#068370:13
#0683b0:0053230000000000
#068361:00130000
#068321:0000005323000000
#069371:13
#0693b1:002300000000
#069361:0013
#069321:000023
#070371:13
#0703b1:0053000000000000
#070381:00230000
#070350:00130000
#070320:0000005300000000
#070360:0023
#071360:13
#071320:002300000000
#071370:0013
#0713b0:000023
#072360:13
#072320:0053000000000000
#072350:00230000
#072381:00130000
#0723b1:0000005300000000
#072371:0023
#072321:000000000000000000132300
#072380:000000000000000000001323
#072351:000000000000000000000013
#073351:23
#0733b0:132300000000
#073370:005300000000000000000000
#073320:000000000000000000130023
#073360:000000000053
#074360:00132300
#074320:0000005300000000
#0743b0:000000000000000000132300
#074351:000000000000000000001323
#074380:000000000000000000000013
#075380:23
#076360:13
#076320:0053000000000000
#076350:00230000
#076381:00130000
#0763b1:0000005300000000
#076371:0023
#076361:00000013
#076321:000000000000000000000023
#077371:13
#0773b1:002300000000
#078371:13
#0783b1:002300000000
#0783b1:00130000
#078371:0023
#078360:00130000
#078320:0023
#078360:00000013
#078320:000000000000000000000023
#0793b0:0013
#079370:000023
#079360:00000013
#079320:000000000000000000000023
#0803a0:14240000
#080340:0054000000000000
#080321:00142400
#080381:0000005400000000
#0813b1:0013002300000000
#081361:00530000
#088341:14
#088321:0024
#088380:14
#0883a0:0024
#094380:00000000000000001200002200000000
#0943c0:0000000000000000000000000000000000000052000000000000000000000000
#094361:00000000000000000000001200002200
#094321:0000000000000000000000000000000000000000000000000052000000000000
#0953a1:00001400002400000000000000000000
#095361:0000000000000054000000000000000000000000000000000000000000000000
#095320:00000000001400002400000000000000
#095360:0000000000000000000000000054000000000000000000000000000000000000
#096320:00000013
#096350:0000000000000023
#0973b0:0013000000000000
#097380:00230000
#097320:0000001300230000
#097370:0053
#0983b0:13
#098370:00230000
#0983b0:00000013
#098380:0000000000000023
#099320:0013000000000000
#099350:00230000
#0993b0:0000001300230000
#099360:0053
#102360:0013
#102380:0000000000000000000000000000000000000053000000000000000000000000
#1023b0:00000000000000000000002300000000
#102321:00000000000000000000001300000000
#102341:0000000000000000000000000000000000000000000000000053000000000000
#102371:0000000000000023
#103371:13
#103351:0000005300000000000000000000000000000000000000000000000000000000
#103321:00000023000000000000000000000000
#1033b0:00000013000000000000000000000000
#103390:0000000000000000005300000000000000000000000000000000000000000000
#103360:0000002300000000
#105330:00000000000000001353535353535353
#105320:0000000000000000000000000000000000530000005300000053000000530000
#105340:0000000000000000000000000000000000000053000000530000005300000053
#106330:53535353535353533300000000000000
#106320:0053000000530000005300000053000000000000000000003300000033000000
#106340:0000005300000053000000530000005300000000000033000000000000000000
#106360:0000000000330000
#107320:33230000
#107340:00330000000000000000000000000000
#107360:0033000000000000
#1053a1:0013
#105371:0000000000333300
#105391:00000000000000000000000000330000
#1053b1:0000000000000033
#1063b1:3300000033000000000000003300000000530000005300000053000000530000
#106391:0000000000003300000000000000000000000053000000530000005300000053
#106371:00330000
#1063a1:00000000000000005353535353535353
#1073a1:53535353230000000000000000000000
#1073b1:0053000000530000000000000000000000000000000000000000000000000000
#107391:0000005300000053000000000000000000000000000000000000000000000000
#1073b1:0000000000001323
#108321:0013230000000000
#109321:0000000000132300
#1103b1:0000000000132300
#111321:0000000000001323
#1123b1:0013230000000000
#113381:00000000000000001200003232323232
#114381:3232003200320022
#1143c1:00320000
#113360:00000000000000001200003232323232
#114360:3232003200320022
#114320:00320000
