This file was generated by Ched 2.6.4.0.
#TITLE ""
#ARTIST ""
#DESIGNER ""
#DIFFICULTY 0
#PLAYLEVEL
#SONGID ""
#WAVE ""
#WAVEOFFSET 0
#JACKET ""
#REQUEST "ticks_per_beat 480"
#00002: 4
#BPM01: 181
#00008: 01
#TIL00: ""
#HISPEED 00
#MEASUREHS 00
#0051a:1414
#00514:00140000
#00618:00140000
#00612:1414
#0071a:14
#00714:00140000
#0131a:1414
#01314:00140014
#01310:41
#01512:1414
#01518:00140014
#02312:1414
#02318:00140014
#03314:00140014
#03318:1414
#0601a:0014
#09218:0014
#09214:00000014
#09318:0014
#09314:00000014
#0931a:14
#09312:14
#09712:00001616
#09718:26
#10814:14
#10812:0014
#1081a:00000014
#10818:00140000
#11114:14140000
#1111a:00002414
#11118:0014000000000000
#00812:14
#00818:00140000
#0101a:14
#01018:00343400
#01212:14
#01214:00343400
#0211a:1414
#02114:00140014
#0341a:1414
#03412:00140014
#03518:14
#03514:0014
#03912:1616
#03918:00160000
#03910:41
#0421a:14
#04216:00140000
#04212:0014
#0431a:14
#04314:00140000
#04318:0014
#04312:00000014
#0441a:14
#04418:0000001400000000
#04514:0014
#04518:00000014
#04718:1616
#04712:00160000
#05418:16
#05412:00000016
#05518:0016
#06118:14
#06112:14
#0611a:0014
#06114:0014
#06212:1414
#0621a:00140000
#0631a:14
#06314:14
#06318:0014
#06312:0014
#0641a:1414
#06412:00140000
#06512:1414
#06518:00140014
#06612:1414
#06618:00140000
#0671a:1414
#06714:00140014
#0681a:1414
#06814:00140000
#06912:14
#06914:0014
#0691a:00000014
#06918:00140000
#07012:0014
#07014:14
#07018:00140000
#0711a:14
#07114:00140000
#07112:00000014
#07118:0014
#07612:00000014
#0761a:0024
#07716:14
#0771a:00140014
#07712:0014
#07812:1424
#0781a:00140014
#07916:14
#07912:00140014
#0791a:0014
#0801a:1414
#08012:00140000
#08117:0000001400000000
#08315:0000001400000000
#08212:0014
#08619:0014
#08613:0014
#08713:14
#08719:14
#0941a:14
#09412:00140000
#0961a:14
#09614:00140000
#09618:00002626
#09610:0041
#09812:16
#0981a:00001414
#09914:14140000
#09918:00001414
#10012:14140000
#10018:0014
#10014:00000014
#1011a:14
#10114:0014
#10118:00000014
#10112:14
#10212:14
#1021a:00140000
#10214:0024
#1051a:2400000000140000
#10519:00002414
#10518:0000000000000014
#10512:24
#10619:14141414
#1061a:0014000000140000
#10618:0000001400000014
#10719:14
#1071a:0014000000001400
#10712:0014
#10912:00140014
#10916:14
#1091a:0024
#1101a:00000014
#11018:14140000
#11014:0014000000000000
#11012:0024
#11212:24140000
#11214:0000000000140014
#11218:00002424
#00918:14343434
#01114:14343434
#01812:1414
#01818:1414
#0171a:1414
#01714:1414
#02618:0014
#02614:14
#0261a:14
#02612:0014
#02514:14
#0251a:14
#02512:0014
#02518:0014
#05012:14
#05016:00140000
#0501a:0014
#05112:14
#05118:00140000
#05114:0014
#0511a:00000014
#07218:14
#07214:00140000
#0721a:0014
#07210:0041
#11314:0014000000000000
#11318:24240000
#0291f:11
#03818:2626
#03812:00260000
#0381f:21
#0881a:0024
#08814:0024
#09012:0024
#09018:0024
#03612:2424
#0361a:2424
#04612:2626
#04618:00260000
#05312:24242400
#0531a:24242400
#03712:24
#0371a:24
#05214:24
#05218:0024
#09515:0026
#10318:24
#10412:00002424
#1041a:00002424
#00415:00000026
#01919:00343400
#02013:00343400
#02719:00343400
#02710:41
#02813:00343400
#05610:0041
#01252:54
#0105a:64
#03752:0014
#0375a:0014
#0445a:64
#04458:0000006400000000
#08157:0000002400000000
#0805a:0064
#08355:0000002400000000
#08252:0054
#10552:14
#1055a:1400000000240000
#10558:0000000000000024
#10559:00005464
#1065a:0024000000240000
#10658:0000002400000024
#10659:54645464
#1075a:0024000000000000
#10759:54
#11552:0014000000000000
#1155a:0014000000000000
#00958:64
#01154:54
#03254:0014
#03058:0014
#03558:14
#03554:0014
#05254:14
#05258:0014
#05858:00140000
#06054:00140000
#0645a:0014
#06652:0014
#0685a:0014
#07052:0014
#0725a:0014
#07452:0014
#0765a:0014
#07852:0014
#09152:0000001400000000
#09158:0000001400000000
#0895a:0000001400000000
#08954:0000001400000000
#09555:0016
#10254:0014
#10358:14
#1045a:14
#10452:14
#00455:00000016
#004350:16000026
#0073a0:00001424
#008320:00001424
#009380:14343434
#0103a0:34
#010380:00343424
#011340:14343434
#012320:34
#012340:00343424
#0143a0:14342400
#016320:14342400
#0193a0:14
#019390:00343400
#019380:00000024
#020320:14
#020330:00343400
#020340:00000024
#0223a0:1424
#022380:00340000
#024320:1424
#024340:00340000
#027380:14
#027390:00343400
#0273a0:00000024
#028340:14
#028330:00343400
#028320:00000024
#0293a0:14
#029390:00340034
#029380:0034
#0303a0:34
#030390:00340000
#030380:0024
#031320:14
#031330:00340034
#031340:0034
#032320:34
#032330:00340000
#032340:0024
#037320:14000034000034002400000000000000
#0373a1:14000034000034002400000000000000
#0403a1:1424
#040381:00340000
#041341:1424
#041321:00340000
#0443a1:14
#044381:0000003400000000
#0453a1:24
#048321:1424
#048341:00340000
#049381:1424
#0493a1:00340000
#0563a1:0014
#057381:34
#0573a1:0034
#058381:34240000
#058321:0014
#059341:34
#059321:0034
#060341:34240000
#072341:000000000000000000143434
#073341:340000000000000000343434
#073321:000034343434340000000000
#074341:340034340000000000000000
#074321:0024
#074381:000000000000000000143434
#075381:340000000000000000343434
#0753a1:000034343434340000000000
#076381:34340000
#0763a1:0024
#0803a1:0014
#081371:0000005400000000
#0823a1:00240000
#082321:0014
#083351:0000005400000000
#084321:00240000
#084381:0014
#0843a1:0000000000000034
#085381:00240000
#085341:0014
#085321:0000000000000034
#086341:00240000
#087331:0014
#088331:24
#087390:0014
#088390:24
#088340:0014
#089340:0000002400000000
#0883a1:0014
#0893a1:0000002400000000
#090321:0014
#091321:0000002400000000
#090380:0014
#091380:0000002400000000
#094350:0016
#095350:00003600003600002600000000000000
#1033a0:00001434
#1043a0:24
#103321:00001434
#104321:24
#105391:00001454
#1053a1:0000000000540000
#105381:0000000000000054
#106391:54543454
#1063a1:0054000000540000
#106381:0000005400000054
#107391:54240000
#1073a1:0054000000000000
#1133a1:00001434
#1143a1:3434340000000000
#1153a1:0024000000000000
#113320:0014
#114320:0000003400343434
#115320:0024000000000000
