This file was generated by Ched 2.7.0.0.
#TITLE ""
#ARTIST ""
#DESIGNER ""
#DIFFICULTY 0
#PLAYLEVEL
#SONGID ""
#WAVE ""
#WAVEOFFSET 0
#JACKET ""
#REQUEST "ticks_per_beat 480"
#00002: 4
#BPM01: 220
#00008: 01
#TIL00: ""
#HISPEED 00
#MEASUREHS 00
#00119:14
#00213:14
#00319:14
#00413:14
#0111a:14
#01214:14
#01318:14
#01412:14
#0151a:14
#01614:14
#01718:14
#01812:14
#0191a:14
#01910:41
#02014:14
#02312:14
#02418:14
#03518:14
#03618:14
#03714:14
#03814:14
#03918:14
#04018:14
#04418:14
#04410:41
#04512:14
#04612:14
#04718:14
#04818:14
#04914:14
#05018:14
#05114:14
#05214:14
#0531a:14
#0541a:14
#05410:41
#05912:14
#06018:14
#06114:14
#0621a:14
#06312:14
#0631a:14
#06512:0016
#06518:26
#0651f:21
#06618:16
#06612:0016
#06610:41
#0691a:14
#07014:14
#07118:14
#07212:14
#07312:0016
#07318:26
#07418:16
#07412:0016
#0771a:14
#07814:14
#07918:14
#08012:14
#08918:0016
#08912:26
#08910:41
#09012:1616
#09118:16
#09112:0016
#09218:1616
#09312:1616
#09418:1616
#09718:0016
#09712:26
#09812:1616
#09918:16
#09912:0016
#10018:1616
#10112:1616
#10218:1616
#1091a:14
#11014:14
#11118:14
#11212:14
#1131a:14
#1141a:14
#11514:14
#11614:14
#11718:14
#11818:14
#12319:14
#12313:0014
#12419:14
#12413:0024
#0551f:11
#08119:24
#08113:24
#08219:24
#08213:24
#08319:24
#08313:24
#08419:24
#08413:24
#03310:41
#005390:14
#006390:24
#007330:14
#008330:34
#009330:24
#0213a0:14
#0223a0:24
#025320:14
#026320:24
#0273a0:14
#028380:34
#0293a0:34
#030380:24
#031320:14
#032340:34
#033320:34
#034340:24
#041340:14
#042320:34
#043340:24
#055320:14
#056340:24
#0573a0:14
#058380:24
#067380:1626
#068320:1626
#075380:1626
#076320:1626
#085380:14
#0863a0:34
#087380:34
#0873a0:0000000000000024
#095320:1626
#096380:1626
#103320:1626
#104380:1626
#105320:16
#106340:36
#107320:36
#107340:0000000000000026
#119320:14
#120320:34
#121340:24
#124330:0000000014342400
