This file was generated by Ched 2.7.0.0.
#TITLE ""
#ARTIST ""
#DESIGNER ""
#DIFFICULTY 0
#PLAYLEVEL
#SONGID ""
#WAVE ""
#WAVEOFFSET 0
#JACKET ""
#REQUEST "ticks_per_beat 480"
#00002: 4
#BPM01: 220
#00008: 01
#TIL00: ""
#HISPEED 00
#MEASUREHS 00
#0011b:1313000000000000
#00118:0000001300001300
#00115:0013
#00112:2323000000001300
#0021b:13
#00218:0013001300131300
#00215:1300001300000000
#00212:00001313
#00312:1313000000130000
#00315:0000130013000013
#0031b:2323000013000000
#00318:0000000000130013
#0041b:0013001300000013
#00412:0000130000130000
#00418:00130013
#00415:0013
#00518:0000001313000000
#00515:13000016
#00512:0000001313000000
#0061b:1313000000001300
#00617:0013
#00615:1313000000000000
#00612:0013
#00616:00000013
#00718:1313
#0071b:001313000000
#00712:1313
#00715:001313000000
#00818:1313131300130000
#00815:00130013001300130000000013000000
#0081b:0013
#00812:0000000000000013
#00915:1313000000000000
#00918:0013000000000000
#0091b:00000000000000000000000000330033
#00912:00000000000000000000000000330033
#0111b:1300000013000013
#01118:0013130000130000
#01115:00000013000013000000000013000013
#01112:1313
#01218:13000013000000001300000000000000
#01212:00001300000000000000133333003333
#01215:00000000130000130000000000000000
#0121b:0000001300000000
#01216:00000000000000000000000000130000
#01718:00001300130000130000000000000000
#01715:00000013000000000000000000000000
#01712:13000000000013000033003300333333
#01717:00000000000000000000000000333333
#01918:13001300000000000000130000130000
#01915:0000000000000013
#01912:13131313
#01910:41
#0201b:1300001300000000
#02018:00000000000000001300001300000000
#02012:13131313
#0211b:13131313
#02115:00130013000000130000130000000000
#02118:0013000000000000
#02112:00000000001300000000000000001300
#0221b:13131313
#02215:00130000000013000000000000000000
#02218:0013000000000000
#02212:00000013000000000000000013000000
#0231b:1313
#02319:0013001300000000
#02317:00130000
#02315:0000000000130000
#02318:00000000000000000000001300001300
#02312:13131313
#02412:13
#02413:0013000000000000
#02414:00130000
#02415:00000000000013000013001300001300
#02418:0000000000130000
#0241b:13131313
#02518:00130013000000000000000013000000
#02515:0013001300130000
#0251b:00000000001300130000000000001300
#02512:13131313
#0261b:1313000013130000
#02618:0000130000000013
#02615:0000001300001300
#02612:1313000013130000
#03518:1313000000130000
#03512:00130013000000000000130000000000
#0351b:00000000130013001300000000000013
#03515:00000000001300130000000000001300
#03615:13
#0361b:00130000000000000000130000000000
#03612:00001300130013000000000000000013
#03618:00000013000013000000000000000000
#03616:00000000000000000000001300000000
#03619:00000013
#03614:00000000000000000000000000130000
#03617:0000000000000013
#0371b:1300000013130000
#03715:00001300001300000000000000001300
#03718:0000131300000000
#03712:0000000013130000
#0381b:13
#03815:0013000000130000
#03812:0000001300000013
#03818:0013
#03912:0013000000000000
#03915:00130000
#03918:0000001300000000
#0391b:0013
#03917:00000013
#03916:0013
#04016:13
#04017:00130000
#04012:0000000013130000
#0401b:0000000000130000
#04018:0000000000000013
#04114:001400000014001400000014
#04118:001414001414
#0411a:2424
#04112:00240024
#04214:001400000014000000000000
#04218:001414000000
#04215:000000000000000000000000000000130000000000001400
#0421a:24002414
#04217:000000000014
#04212:00240024
#04317:00130000
#0431b:0013
#04315:0000001300130013
#04312:24130013
#0431a:24
#04418:13000000000000130000000013000000
#0441b:00000013000000000000130000000000
#04415:1300001313000013
#04410:41
#04512:13001300000000000013001300000000
#04517:00130000000000000000000000000000
#0451b:0000131300000000
#04515:00000000001300130000000000000000
#04518:0000000013130000
#04612:1313000000000000
#04617:00130013000000000000000000000000
#04614:0000131300000000
#04619:00000000001300130000000000000000
#04616:0000000013130000
#0461b:00000000000000000013001300000000
#04715:00130013000000000013001300000000
#0471b:1313000013130000
#04718:0000131300001313
#04712:00000000001300130000000000130013
#0491b:13130013
#04916:00130000
#04912:0013
#04918:0000001300130013
#05417:00130013000000000000000000000000
#05412:1313130000000000
#05416:00000000000014000013001300001400
#0541b:0000000013131300
#05410:41
#0551b:1300001300000000
#05512:13130013
#05519:00131300
#05517:0000000000130000
#0551f:11
#05618:0000000000130000
#05615:00000013
#05612:0000001300000013
#05616:0013000000000000
#05614:13130000
#0561b:1300001313000000
#05712:0000000013000013
#05715:0000000000130000
#05718:00000013
#0571b:0000000000000013
#0581b:0013000013130013
#05818:00130013
#05815:0000001300130000
#05812:0013130013000000
#05916:12000012000012000000000000000000
#05918:0012120012000000
#0591b:0000000000131313
#05912:0000000000131313
#06018:13
#0601b:0013001300130013
#06012:0013001300130013
#06017:00130000
#06016:0013
#06015:00000013
#06112:1300001300000000
#06115:0013000000000013
#06118:00130013
#0611b:0000001300130000
#0621b:1300000000000013
#06218:0000130000130000
#06212:1300000013130000
#06215:0000000000000013
#06312:1313000013131323
#06318:00130013000000000000000000000000
#06315:0000131300000000
#0631b:00000000001300130000130013002300
#06518:00000013000000000000000000000000
#06515:0000130000000013
#06517:0000001300000000
#06519:0013
#0651b:2300000000130013
#06512:2300001300000000
#06514:0013
#06516:0000000000130000
#0651f:21
#06618:13
#06615:00130000
#06617:0000000013000013
#06616:0000000000130000
#06612:2300000023000013
#0661b:0000230000230000
#06610:41
#0671b:0013000000000013
#06718:00131313
#06715:0000001300130000
#06712:0013
#06818:13
#06815:00130000
#06817:0000000013000013
#06816:00000000000000000000001300000000
#06812:2300000023000013
#0681b:00000000230000000000002300000000
#06917:13
#0691b:0000131300000000
#06916:0000001300000000
#06915:00000013
#06918:0000000000000013
#06912:1300000000130013
#0701b:13
#07018:0013001300001300
#07015:0000130000130013
#07012:0013001300000000
#0711b:13130000
#07117:0013
#07112:13000000000000130000130000000000
#07115:00000013
#07118:0000000000000013
#07116:00000013000000000000000000000000
#07212:00001300000000001300000013330033
#07218:0000130000130000
#07215:0000001300000000
#0721b:00001313
#07216:0000000000000013
#07718:0000130000000013
#0771b:0000001300000000
#07712:0013000000130000
#07715:1300001300001300
#0781b:1300000000000013
#07812:0000001313000013
#07815:0000000000130000
#07818:00000013
#0791b:1300000000000013
#07915:00130000
#07913:0013
#07912:1300000000130000
#07914:0000001300000000
#07916:0000000000000013
#08015:00130000
#08018:0000001300000000
#0801b:0000000013131313
#08012:0013000013131313
#08116:001400001400000000000000
#08112:000000001400000000001400000000000000000000130000
#0811a:24140000
#0811b:0013
#08118:0000000000130000
#08115:00000013
#08316:001400001400000000000000
#08312:000000001400000000001400000000000000000000130000
#0831a:24140000
#0831b:0013
#08318:0000000000130000
#08315:00000013
#0851b:1300001313130000
#08512:13001300130000000000000000130000
#08517:00000013000000000000000000000000
#08516:00000000000000130000000000000000
#08515:00000000000000000000133333003333
#0861b:00001300130000000000000000130000
#08616:00000013000000000000000000000000
#08612:0000001313130000
#08617:00000000000000130000000000000000
#08618:13000000000000000000133333003333
#08718:00130013000000000000000000000000
#08715:1313000000000000
#08714:0000131300000000
#08719:00000000001300130000000000000000
#08713:0000000013130000
#0871a:00000000000000000013001300000000
#08712:0000000000001323
#0871b:00000000000000000000000000130000
#08918:1313000000001300
#08915:00000013000000000000130000000000
#0891b:0000130013130013
#08912:0000000000001313
#08910:41
#09015:16161616161616161616161616000000
#09012:0000000000000013
#0901b:0000000000000013
#09115:0013131300000000
#09118:00000013001300000000000000000000
#09112:0013
#0921b:2313000000000000
#09215:00130013000000000000000000000000
#09214:00000000001300130000000000000000
#0921a:0000231300000000
#09213:00000000000000000013001300000000
#09219:0000000023130000
#09212:00000000000000000000000000130013
#09218:0000000000002313
#09315:00130000000000000000000000000000
#09318:00001300001300130000000000333333
#09312:00000013000013000033333300000000
#0931b:23
#09412:1313000000001300
#0941b:00130013000000000013001300000000
#09414:0000131300000000
#09419:00000000001300130000000000000000
#09416:0000000013130000
#09417:00000000000000000000000000130000
#09515:13000000130000130000000000000000
#09518:00130000000000000000000000000013
#09512:0013000000000013
#0951b:00000013000000000000000000000000
#09612:1313000000000013
#09618:00130000000000000013000000001300
#0961b:00000013001300000000000013000000
#09615:00130000
#10318:00130000000000000000000013000000
#10313:0013000000000000
#10319:00000013000000000000000000000000
#10314:00130000
#1031a:00000000001300000000000000000000
#10315:00000000000013000000000000000013
#10316:0013
#1031b:00000000000000130000130000001300
#10312:13000000000000000000000000130000
#10418:1300001300000000
#10412:0013130013131313
#1041b:0000130013131313
#10415:00000000000000130000000000000000
#1051b:13
#10512:13
#10518:0000000000000013
#10515:0000000000000013
#11315:1300130000130000
#11318:0013000013001300
#1131b:0000001300000013
#11312:0000001300000013
#11418:13000013000000001300000000001300
#1141b:0000000000000000001300000000000000000000000000001300000000000000
#11415:1300001300130000
#11412:0000001300000000000000000000000013000000000000000000000000000000
#1151b:1300000000130000
#11518:0000130000000013
#11519:0000001300000000
#1151a:0013
#11515:1300000000000013
#11512:00000013
#1161b:0013130013000013
#11618:00000000000013000000001300000000
#11612:0000130013000013
#11615:0000000000130000
#11915:00001300130000130000130000000013
#11918:13000013000013001300001300001300
#11912:13000013
#1201b:1313000000000000
#12018:00000000001300130013001300130013
#12015:0000131313131313
#12012:0013000000000000
#12112:12000012
#12118:00001200000000000012000000000000
#12115:00120000
#1211b:0000001200000000
#12116:0000000012000012
#12114:0000000000120000
#1221c:0000120000121200
#12212:00000000000000001200000000000012
#12216:00000000000000000000001200000000
#12218:0000000000000012
#1221a:12
#12318:1200001300000013
#12312:0013000000000000
#12315:00130000
#1231b:00001313
#12415:1300001300000000
#12412:0013000023232300
#1241b:00000013000000002300230023000000
#01315:0013130000130000
#01318:00000013000013000000000013000013
#01312:0000000013000013
#0131b:1313
#01415:13000013000000001300000000000000
#0141b:0013000000000000
#01418:00000000130000130000000000000000
#01412:0000001300000000
#01512:1300000013000013
#01515:0013130000130000
#01518:00000013000013000000000013000013
#0151b:0013
#01615:13000013000000001300000000000000
#0161b:00001300000000000000133333003333
#01618:00000000130000130000000000000000
#01612:0000001300000000
#01617:00000000000000000000000000130000
#0311b:1313000013000000
#03116:00130000000000000013000000000000
#03112:00000000130013000000000000130013
#03117:00000000001300000000000013001300
#03119:0000000000130000
#03114:00000000000000000000001300000000
#03217:0013
#03212:00000000000000000013000000000000
#03219:0000000000130000
#03214:00000000000000000000001300000000
#0321b:0000000000001313
#03216:00000000000000000000000000130013
#0341b:2300230023132300
#03412:00232323
#05015:13000000000000130000000013000000
#05012:00000013000000000000130000000000
#05018:1300001313000013
#07315:00000013000000000000000000000000
#07318:0000130000000013
#07316:0000001300000000
#07314:0013
#07312:2300000000130013
#0731b:2300001300000000
#07319:0013
#07317:0000000000130000
#07415:13
#07418:00130000
#07416:0000000013000013
#07417:0000000000130000
#0741b:2300000023000013
#07412:0000230000230000
#07512:0013000000000013
#07515:00131313
#07518:0000001300130000
#0751b:0013
#07615:13
#07618:0000130000000013
#07616:0013
#07617:0000000000130000
#0761b:2323
#07612:0000230000230000
#08416:001400001400000000000000
#0841a:000014000014000000000000
#08412:24141300
#08415:0000000000130000
#08418:00000013
#0841b:0000000000000013
#0981b:0000000000000013
#09812:0000000000000013
#09815:16161616161616161616161616000000
#09918:0013131300000000
#09915:00000013001300000000000000000000
#0991b:0013
#10012:2313000000000000
#10018:00130013000000000000000000000000
#10019:00000000001300130000000000000000
#10013:0000231300000000
#1001a:00000000000000000013001300000000
#10014:0000000023130000
#1001b:00000000000000000000000000130013
#10015:0000000000002313
#10118:00130000000000000000000000000000
#10115:00001300001300130000000000333333
#1011b:00000013000013000033333300000000
#10112:23
#1021b:1313000000001313
#10216:00000000000000000000000000130000
#10212:00130013000000000013001300000000
#10219:0000131300000000
#10214:00000000001300130000000000000000
#10217:0000000013130000
#1091b:13000033000000001300000000001300
#10918:0000001300130000
#10915:00130013
#10916:00000000000000000000000000000013
#10912:1313
#1101b:1300000000130000
#11019:0013130000000000
#11014:00000013000000000000000000000000
#11017:0000001313000000
#11012:00000000000000130000133333003333
#11016:00000000000000000000000000130000
#11115:00000000000013000000130000130013
#11112:00000033000000001300000000000000
#11118:0000130000001313
#1111b:1313
#1121b:0000000013000013
#11212:0000000013000013
#11718:1300130000130000
#11715:0013000013001300
#11712:0000001300000013
#1171b:0000001300000013
#11815:13000013000000001300000000001300
#11812:0000000000000000001300000000000000000000000000001300000000000000
#11818:1300001300130000
#1181b:0000001300000000000000000000000013000000000000000000000000000000
#0511b:13001300000000000013001300000000
#05116:00130000000000000000000000000000
#05112:0000131300000000
#05118:00000000001300130000000000000000
#05115:0000000013130000
#0521b:1313000000000000
#05216:00130013000000000000000000000000
#05219:0000131300000000
#05214:00000000001300130000000000000000
#05217:0000000013130000
#05212:00000000000000000013001300000000
#05318:00130013000000000013001300000000
#05312:1313000013130000
#05315:0000131300001313
#0531b:00000000001300130000000000130013
#06412:0023002300231300
#0641b:00002300000023000000230013330033
#06417:0000000000000013
#09715:1313000000001300
#09718:00000013000000000000130000000000
#09712:0000130013130013
#0971b:0000000000001313
#08216:001400001400000000000000
#0821a:000014000014000000000000
#08212:24141300
#08215:0000000000130000
#08218:00000013
#0821b:0000000000000013
#0481b:13330033000000001333003300000000
#04817:0013000000130000
#04812:00000000133300330000000013330033
#04816:0000001300000013
#10715:0000000000000026
#10815:0026002600260000
#10812:00000023
#1081b:00000023
#08812:0000002300232300
#0881b:0023002300232300
#01818:002300000023000000000000
#01815:002323000000
#01812:00232323
#0181b:00002323
#0101b:00330033003300330033003300000000
#01012:00330033003300330033003300000000
#02716:00000000000000000000000000333333
#02719:00000033000000000000000000000000
#02816:00000000000000000000000000333333
#03310:41
#06652:1300000013000053
#0665b:0000130000130000
#00255:0000005300000000
#00252:0023
#00355:0000000000000063
#00458:00530053
#0045b:0000002300000023
#00455:0063
#00452:0000000000230000
#00958:0053000000000000
#00955:0063000000000000
#01958:0053000000000000
#0205b:53
#02058:00000000000000000000001300000000
#0345b:00000013
#03452:00000013
#03852:0000001300000013
#03956:0053
#03957:00000053
#04056:53
#04057:00530000
#04052:0000000000530000
#04357:00530000
#0435b:0023
#04455:53
#04956:00630000
#04952:0023
#05058:63
#05559:00535300
#0555b:0000002300000000
#05557:0000000000230000
#05656:0023000000000000
#05654:53530000
#05652:0000002300000000
#06052:0013001300000000
#0605b:0000000000130013
#06252:53
#06258:00230000
#06852:1313
#0685b:00000000130000000000001300000000
#06952:53
#0695b:0000005300000000
#07058:0000005300000000
#07158:0000000000000053
#0745b:1300000013000063
#07452:0000130000130000
#0765b:1313
#07652:0000130000130000
#0775b:0000001300000000
#0795b:0000000000000053
#08852:0013000000001300
#0885b:0013000000001300
#0905b:0000000000000053
#09457:00000000000000000000000000130000
#09852:0000000000000063
#10356:0053
#10458:53
#1055b:53
#10552:53
#10558:0000000000000053
#10555:0000000000000053
#1125b:0053
#11252:0063
#11455:63
#11458:00000063000000000000000000000000
#11452:0000002300000000000000000000000000000000000000000000000000000000
#1145b:0000000000000000002300000000000000000000000000000000000000000000
#11555:0000000000000053
#11658:00000000000000000000001300000000
#11855:00000053000000000000000000000000
#11852:0000000000000000002300000000000000000000000000000000000000000000
#1185b:0000002300000000000000000000000000000000000000000000000000000000
#11858:53
#1225c:00520000
#1245b:00000053000000000000000000000000
#0185b:00000013
#01852:00000013
#01252:0000000000530000
#01256:00000000000000000000000000230000
#0165b:0000000000630000
#01657:00000000000000000000000000230000
#0645b:00000053
#06457:0000000000000023
#06552:33
#0655b:43
#02255:0000005300000000
#07252:00000063
#07256:0000000000000023
#07352:33
#0735b:43
#11052:0000000000530000
#11056:00000000000000000000000000230000
#08555:0000000000530000
#08552:00000000000000000000000000230000
#08658:0000000000630000
#0865b:00000000000000000000000000230000
#0485b:5353
#04857:0023000000230000
#04852:00630063
#04856:0000002300000023
#002350:0000001300230000
#002320:0053
#003350:0000000000000013
#004320:0023000000000000
#004380:00132300
#0043b0:0000005300000000
#004351:00001323
#004321:0000000000530000
#004380:00000013
#0043b0:0000000000000053
#005380:23
#009380:0013000000000033
#0093b0:00000000000000000000000033330033
#0103b0:33330033333300333333003323000000
#010380:0033003300330000
#009351:0013000000000033
#009321:00000000000000000000000033330033
#010321:33330033333300333333003323000000
#010351:0033003300330000
#012321:00000000000000000000133333003333
#012361:00000000000000000000000000330000
#013321:23
#0143a1:00000000000000000000145454545454
#014381:0000000000000000000000000000000000000000005400540054005400540054
#0153a1:24
#0163b1:00000000000000000000133333003333
#016371:00000000000000000000000000330000
#0173b1:23
#017321:00000000000000001333003333333333
#017361:0000000000330000
#018361:23
#017370:00000000000000000000000013333333
#0183b0:23
#019380:0013000000000000
#0193b0:0000002300000000
#0203b0:13
#020380:00230000
#022350:0000001300000000
#022320:0000000000230000
#0273b0:1333000000003300
#027390:00000033000000000000000000000000
#027370:0000333300000000
#0283b0:3333000033003300
#028390:00000033000000330000000000000000
#028370:0000333300000000
#0293b0:33333333
#029390:00000000003300330000000000000000
#029370:0000003300000000
#0303b0:3300003333002300
#030370:0033330000330000
#030390:00000000000000000033003300000000
#027321:1300333300000000
#027361:00000000000000000000000033333333
#028321:3300333300000000
#028341:00000000000000330000000000000000
#028361:00000000000000003300000033333333
#029321:33333333
#029341:00330033000000000000000000330033
#029361:0033000000000033
#030321:3300330000330033
#030361:0000003333003300
#030341:00000000000000000033003300330033
#031361:23
#032371:13
#032381:00330000000000000000000000000000
#032391:0033000000000000
#0323a1:00000033000000000000000000000000
#0323b1:00230000
#032360:00130000
#032350:00000000003300000000000000000000
#032340:0000003300000000
#032330:00000000000000330000000000000000
#032320:0023
#0333b0:13
#0333a0:00330000000000000000000000000000
#033390:0033000000000000
#033380:00000033000000000000000000000000
#033370:00230000
#033321:00130000
#033331:00000000003300000000000000000000
#033341:0000003300000000
#033351:00000000000000330000000000000000
#033361:0023
#0333b0:0013
#0333a0:00000000000000000033000000000000
#033390:0000000000330000
#033380:00000000000000000000003300000000
#033370:00000023
#033321:00000013
#033331:00000000000000000000000000330000
#033341:0000000000000033
#033351:00000000000000000000000000000033
#034361:23
#038381:00000013000023000000000000000000
#0383b1:00000000000000000000001300002300
#039361:0013
#039321:00000023
#039370:00000013
#0403b0:23
#040361:13
#040321:00230000
#040370:00130000
#0403b0:0023
#040320:0000000000130000
#040350:0000000000000023
#043370:00130023
#0433b0:0053
#044350:13
#044320:00000023000000000000000000000000
#0453b0:00000013
#0453a0:00000000000000000000000000330000
#045390:0000000000000033
#045380:00000000000000000000000000000033
#046370:23
#046360:00000013
#046350:00000000000000000000000000330000
#046340:0000000000000033
#046330:00000000000000000000000000000033
#047320:23
#0483b0:13330033230000000000000000000000
#048370:0033000000000000
#048321:00000000133300332300000000000000
#048361:0000003300000000
#0483b0:00000000000000001333003323000000
#048370:0000000000330000
#048321:00000000000000000000000013330033
#048361:0000000000000033
#049321:23
#049361:00130023
#049321:0053
#050381:13
#0503b1:00000023000000000000000000000000
#051321:00000013
#051331:00000000000000000000000000330000
#051341:0000000000000033
#051351:00000000000000000000000000000033
#052361:23
#052371:00000013
#052381:00000000000000000000000000330000
#052391:0000000000000033
#0523a1:00000000000000000000000000000033
#0533b1:23
#055391:00135323
#0553b1:0000005300000000
#055371:0000000000530000
#056341:13532300
#056361:0053000000000000
#056321:0000005300000000
#057321:13230000
#057351:0053000000000000
#0573b0:13230000
#057380:0053000000000000
#062320:13
#062350:00230000
#062381:00130000
#0623b1:0023
#0643b1:00000000000000000000000013330033
#064371:0000000000000033
#0653b1:23
#066321:0000000000000013
#067361:0023000000000000
#069321:13
#069361:00230000
#0693b1:0000001300000000
#069371:0000000000230000
#070381:0000001300000000
#0703b1:0000000000230000
#071381:0000000000000013
#0723b1:0023000000000000
#072321:00000000000000000000000013330033
#072361:0000000000000033
#073321:23
#0743b1:0000000000000013
#075371:0023000000000000
#078351:13000023000000000000000000000000
#078380:00000013000023000000000000000000
#0793b0:00130000
#079380:0000000000230000
#0793b0:0000000000000013
#080370:0023000000000000
#085350:00000000000000000000133333003333
#085320:00000000000000000000000000330000
#086350:23
#086380:00000000000000000000133333003333
#0863b0:00000000000000000000000000330000
#087380:23
#087320:0000000000000013
#088320:0023000000000000
#089350:1323000000000000
#089320:0000001323000000
#0903b0:0000000000000013
#091380:0023000000000000
#0913b0:0013
#0913a0:00000000000000000033000000000000
#091390:0000000000330000
#091380:00000000000000000000003300000000
#091370:00000023
#091321:00000013
#091331:00000000000000000000000000330000
#091341:0000000000000033
#091351:00000000000000000000000000000033
#092361:23
#093321:00000000000000001333333300000000
#093351:00000023
#093380:00000000000000000000000013333333
#0943b0:23
#095380:00000000001300230000000000000000
#0953b0:0000000013230000
#095351:0000000000132300
#095380:0000000000001323
#096350:00000000000013000023000000000000
#096320:0000000000132300
#097380:1323000000000000
#0973b0:0000001323000000
#098320:0000000000000013
#099350:0023000000000000
#099320:0013
#099330:00000000000000000033000000000000
#099340:0000000000330000
#099350:00000000000000000000003300000000
#099360:00000023
#0993b1:00000013
#0993a1:00000000000000000000000000330000
#099391:0000000000000033
#099381:00000000000000000000000000000033
#100371:23
#1013b1:00000000000000001333333300000000
#101381:00000023
#101350:00000000000000000000000013333333
#102320:23
#103360:0013
#103320:00000023
#104380:13
#1043b0:0023000000000000
#105320:13
#105350:00000023
#1053b1:13
#105381:00000023
#105381:0000000000000013
#1073b1:00000023
#105350:0000000000000013
#107320:00000023
#1093b0:00001333000000000000000000000000
#109380:00230000
#110320:00000000000000000000133333003333
#110360:00000000000000000000000000330000
#111320:23
#111320:00001333000000000000000000000000
#111350:00230000
#1123b0:13333333333333333300000000000000
#1123a0:0053005300530053005300530053005300000000000000000000000000000000
#112380:00000023
#112321:13333333333333333300000000000000
#112331:0053005300530053005300530053005300000000000000000000000000000000
#112351:00000023
#114351:13000023000000000000000000000000
#114321:0000005300000000000000000000000000000000000000000000000000000000
#114380:00000013000023000000000000000000
#1143b0:0000000000000000005300000000000000000000000000000000000000000000
#115320:00130000
#115350:0000000000230000
#115350:0000000000000013
#116320:0023000000000000
#118380:13000023000000000000000000000000
#1183b0:0000005300000000000000000000000000000000000000000000000000000000
#118351:00000013000023000000000000000000
#118321:0000000000000000005300000000000000000000000000000000000000000000
#122321:12
#122331:00320000000000000000000000000000
#122341:0032000000000000
#122351:00000032000000000000000000000000
#122361:00220000
#1223c0:00120000
#122380:0022
#1243b0:00000013000000000000000000000000
#124380:0000002300000000
