This file was generated by Ched 2.7.0.0.
#TITLE ""
#ARTIST ""
#DESIGNER ""
#DIFFICULTY 0
#PLAYLEVEL
#SONGID ""
#WAVE ""
#WAVEOFFSET 0
#JACKET ""
#REQUEST "ticks_per_beat 480"
#00002: 4
#BPM01: 220
#00008: 01
#TIL00: ""
#HISPEED 00
#MEASUREHS 00
#0011b:1313000000001300
#00118:0000001300000000
#00115:0013
#00112:2323000000000000
#00215:1300001300000000
#00218:0013000000000000
#00212:0000000000330000
#00318:1300000000130000
#00315:0013
#00312:0000000000000013
#00418:0013
#00412:0013
#0041b:00000013
#00415:0033000000001300
#00518:1313
#00512:1300001300000000
#00515:00000013
#0051b:00000013
#0061b:0013000000001300
#00618:0013
#00615:13000013
#00612:0013
#00818:0000000000130000
#00815:00000013
#00812:0000000000000013
#00918:0013000000000000
#0091b:00000000000000000000000000333333
#01118:0013001300130000
#01115:00130013
#01112:1313
#0111b:0000000000000013
#01212:13000000000000000000133333333333
#01218:0013000013000000
#01215:00130000
#0121b:0000001300000000
#01715:0013000000000000
#01718:00130000
#01712:0000001300000000
#0171b:00000000000000000033333300333333
#01918:1300000000130000
#01915:0013000000000013
#01912:00000013
#01910:41
#02018:13
#02015:0000001300000000
#0211b:13130000
#02115:0013001300000000
#02118:00001313
#02112:0000000000130013
#0221b:13000013
#02215:0013001300000000
#02218:00130000
#02518:0013001300001300
#02515:0000000000130000
#0251b:0000000000000013
#02512:13131300
#02615:1300001300001300
#0261b:0013000000000000
#02618:0000130000130013
#02612:0013
#03718:0013001300000000
#03712:1313
#03715:0000130000000013
#0371b:0000000000130000
#0381b:13
#03818:0013
#0391b:0013000000000000
#03915:00130000
#03918:0000001300000000
#03912:0013
#0401b:1300000013130000
#04012:0000000013130000
#04312:24130000
#04318:0000000000000013
#0431a:24
#04418:0000001300001300
#04415:1300000013000013
#0441b:0000000000130000
#04410:41
#04512:1300000013130000
#04518:0013000000001313
#04515:00130000
#0451b:0000001300000000
#0551b:13
#05512:13
#0551a:0000001400000000
#05518:00141400
#05516:0000000000140000
#0551f:11
#05618:0000000000130013
#05615:00000013
#05616:0014000000000000
#05614:14140000
#05612:0000001400000000
#05712:0013
#05715:0000000000130000
#05718:00000013
#0571b:0000000000000013
#05815:0013001300130000
#05818:00130013
#0581b:0013
#05812:0000000000000013
#05912:0000000000130013
#05918:13131300
#05915:0013001300000000
#0591b:00000013
#06015:0013001300000000
#06012:0000000000130013
#0601b:13130000
#06018:00001313
#0611b:13
#06118:0013000000000013
#06115:00130013
#06112:0000001300130000
#06218:0000130000000013
#0621b:13
#06215:0000000000130000
#06312:1300000013001323
#06318:0013000000000000
#06315:00130000
#0631b:0000001300130023
#06518:0000130013000013
#06515:0000001300000000
#0651b:2300000000130000
#06512:2300000000130000
#0651f:21
#06612:2400000000000013
#0661a:00240000
#06614:0024
#06618:0000000000240000
#06610:41
#0671b:0013000000000013
#06715:00130013
#06718:0000001300130000
#06712:0013
#06915:0000001300000013
#06918:13000013
#07018:1300001300001300
#07015:0013000000000013
#07118:0000130000130000
#07112:1313
#07115:00000013
#0711b:0000000000000013
#07215:00131300
#07218:0000001300000000
#0791b:1300000000130000
#07912:13130000
#07918:0013
#07915:0000001300000013
#08018:0000130000130000
#08015:0000001300001300
#0801b:0013
#08012:0000000000000013
#08912:1300000000000013
#08918:0013000000001300
#08915:0000130000130000
#0891b:0000001313000000
#08910:41
#09118:00130013
#09115:0000001300130000
#0911b:0013
#09112:0000000000000013
#09215:0013000000000000
#09214:0000001300000000
#09213:0000000000130000
#09212:0000000000000013
#0921b:23
#0921a:00230000
#09219:0023
#09218:00000023
#09318:0013001300001300
#09315:0000130000130013
#09312:0013
#0931b:23
#09518:13000013
#09515:0013000000000013
#0951b:0000000000130000
#09612:13
#09618:0013000000000000
#09615:00130000
#10318:0013000000000013
#10315:00130000
#1031b:0000001300000000
#10312:1313
#10415:13001313
#10418:0000001300130013
#11318:13131300
#11315:0013000000130013
#1131b:00000013
#11312:0000001300000000
#11418:0013
#11415:0000000000130013
#1141b:00000013
#11412:0000001300000000
#11512:00130000
#11515:0000001300000013
#11518:1313
#1151b:0000000000130000
#1161b:00130013
#11615:0000001300000000
#11618:0013
#11612:0000000000130013
#12119:0012001200000000
#12115:00120000
#12114:0012
#12116:0000000000120000
#1211a:00000012
#12118:0000000000000012
#1221a:00001212
#12214:0000000000120012
#1231a:12
#12312:0013000000000000
#12318:00130000
#12315:0000001300000013
#1231b:00001313
#12418:13132626
#12412:0013000000260000
#12415:0000001300000000
#0151b:0013000000000000
#01515:00130013
#01518:0000001300130013
#01512:0013
#01615:13130000
#0161b:00001300000000000000133333333333
#01618:0000001300000000
#01612:0013
#06815:0000000000000013
#06812:24
#0681a:00240000
#06814:0024
#06818:00000000000000000000002400000000
#09012:0000000000000013
#1021b:0000000000130013
#10212:13130000
#10218:0013001300000000
#10215:00001313
#10512:13
#10518:0000000000000013
#11112:0000001300000000
#1111b:0013
#11115:0013000000130013
#11118:00130013
#1121a:0014
#11212:0000000000000013
#11718:13130013
#11715:0013000000130013
#11712:0000001300000000
#1171b:0013
#04818:13333333000000000000000000000000
#04812:13333333000000000000000000000000
#04815:00000000000000001333333333333333
#0481b:00000000000000001333333333333333
#00712:1414
#00716:001400000000
#0071a:001400
#01318:0013001300130000
#01315:00130013
#01312:0013
#0131b:0000000000000013
#01412:13
#01418:0013000013000000
#01415:00130000
#0141b:0000001300000000
#02312:13130000
#02318:0013001300000000
#02315:00001313
#0231b:0000000000130013
#02412:13
#02418:0013000000000000
#02415:00131300
#0241b:0000001300000000
#0311b:0013000000000013
#03115:0000130000130000
#03118:0000001300001300
#03112:0013
#03212:13131300
#03218:0013001300001300
#03215:0000000000130000
#0321b:0000000000000013
#03518:13130000
#03515:0013000000000013
#0351b:0000000013130000
#03512:0000000013130000
#03618:13000013
#0361b:0000131300130000
#03612:0000131300000000
#03615:0013000000000013
#04615:13130000
#0461b:0013001300000000
#04612:00001313
#04618:0000000000130013
#04712:1313
#04718:0013000000130000
#04715:00130013
#0471b:0000001300000013
#0491b:00130000
#04915:0000000000000013
#05015:0000001300001300
#05018:1300000013000013
#05012:0000000000130000
#0511b:1300000013130000
#05115:0013000000001313
#05118:00130000
#05112:0000001300000000
#05218:13130000
#05212:0013001300000000
#0521b:00001313
#05215:0000000000130013
#0531b:1313
#05315:0013000000130000
#05318:00130013
#05312:0000001300000013
#0641b:0023002300231300
#06412:0023002300231300
#07315:0000130013000013
#07318:0000001300000000
#07312:2300000000130000
#0731b:2300000000130000
#0741b:0000000000000013
#0741a:24
#07412:00240000
#07418:0024
#07414:0000000000240000
#07512:0013000000000013
#07518:00130013
#07515:0000001300130000
#0751b:0013
#07718:0000001300000013
#07715:13000013
#07815:1300000000130013
#07812:00000013000000000000000000000000
#07818:00001313
#07618:0000000024000013
#0761a:24
#07612:00240000
#07614:0000000000240000
#08112:0000000000140000
#08116:00000014
#0811a:000034003400000034003400000000000000000000140000
#0821a:0000000000140000
#08216:00000014
#08212:000034003400000034003400000000000000000000140000
#0941b:13130000
#09415:0013001300000000
#09418:00001313
#09412:0000000000130000
#0971b:1300000000000013
#09715:0013000000001300
#09718:0000130000130000
#09712:0000001313000000
#09915:00130013
#09918:0000001300130000
#09912:0013
#0991b:0000000000000013
#10018:0013000000000000
#10019:0000001300000000
#1001a:0000000000130000
#1001b:0000000000000013
#10012:23
#10013:00230000
#10014:0023
#10015:00000023
#10115:0013001300001300
#10118:0000130000130013
#1011b:0013
#10112:23
#0981b:0000000000000013
#10915:0013001300130000
#10918:00130013
#1091b:1313
#10912:0000000000000013
#1101b:13000000000000000000133333333333
#11015:0013000013000000
#11018:00130000
#11012:0000001300000000
#11818:0013
#11815:0000000000130013
#1181b:00000013
#11812:0000001300000000
#11918:13
#1201b:13
#12012:13
#12015:00003300000033000033003300330033
#12018:0000330033333333
#08312:0000000000140000
#08316:00000014
#0831a:000034003400000034003400000000000000000000140000
#0841a:0000000000140000
#08416:00000014
#08412:000034003400000034003400000000000000000000140000
#10715:0000000000000023
#10818:0023000000260000
#10815:0000002300000000
#10812:00000026
#0341b:00232323
#03412:00232323
#0411a:2424
#04112:00240024
#04114:2424
#04118:00240024
#0421a:24002424
#04212:00240024
#04214:2424
#04218:00240000
#08812:0023002300000000
#08818:00000023
#0881b:0023002300000000
#08815:0000000000230000
#01812:00232323
#0181b:00232323
#0101b:00333333003333330033333300000000
#0271b:00000000000000000000000000333333
#02918:00000000000000000000000000333333
#03012:00000000000000000033333333333333
#03312:00333333003333330033333300333333
#03310:41
#05410:41
#06652:14
#0665a:00140000
#06654:0014
#06658:0000000000140000
#00255:0000005300000000
#00352:0000000000000063
#00358:53
#00958:0053000000000000
#01955:0063000000000000
#02058:53000000000000000000001300000000
#0345b:00000013
#03452:00000013
#03952:0063
#0405b:53
#04352:00530000
#04455:53
#05558:00545400
#0555a:0000002400000000
#05556:0000000000240000
#06055:0013001300000000
#06052:0000000000130013
#0625b:63
#06258:00530000
#06852:14
#0685a:00140000
#06854:0014
#06858:00000000000000000000001400000000
#06958:53
#06955:0000005300000000
#07058:0000005300000000
#0715b:0000000000000053
#07955:0000000000000053
#0885b:0013000000000000
#08858:00000013
#08852:0013000000000000
#09052:0000000000000063
#10352:0053
#10455:53
#10552:53
#10558:0000000000000053
#1125a:0054
#11555:0000000000000053
#0185b:00000013
#01852:00000013
#01252:0000000000530000
#02255:0000005300000000
#04858:63
#04852:63
#04855:0053
#0485b:0053
#0165b:0000000000630000
#02455:0053
#03855:0000001300000000
#03852:0000000000000013
#0495b:00630000
#05058:63
#05656:0024000000000000
#05654:54540000
#05652:0000002400000000
#0655b:13
#06552:13
#07758:0000006300000000
#07755:63
#0745a:14
#07452:00140000
#07458:0014
#07454:0000000000140000
#07352:13
#0735b:13
#0765a:14
#07652:00140000
#07658:0014
#07654:0000000000140000
#07852:00000053000000000000000000000000
#07855:53
#0985b:0000000000000053
#1105b:0000000000630000
#11958:63
#12052:63
#1205b:63
#002350:0000001300000000
#002320:0000000000332300
#003380:13
#0033b0:00230000
#003320:0000000000000013
#004350:0033230000000000
#0083b0:1333333323000000
#0083a0:00330033003300330000000000000000
#009380:0013000000000000
#0093b0:00000000000000000000000033333333
#010380:3333
#0103b0:00333333333333330033333323000000
#012320:00000000000000000000133333333333
#013350:23
#014330:00000000000000000000145454545454
#014320:0000000000000000000000000000000000000000005400540054005400540054
#015330:24
#0163b0:00000000000000000000133333333333
#017380:23
#0173b0:00000000000000001333333300333333
#017370:00000033
#0183b0:23
#019350:0013000000000000
#019320:0000002300000000
#020380:13
#0203b0:00230000
#020380:00000000000000001300002300000000
#022350:0000001300000000
#022320:0000000000230000
#024350:0013
#024320:00000023
#027320:1333000000000000
#027330:00000033000000000000000000000000
#027340:0000332300000000
#0273b0:00000000000000000000000013333333
#028380:3333000023000000
#028390:00000033000000330000000000000000
#0283a0:0000333300000000
#028350:0000000000001333
#028340:00000000000000000000000000000033
#029330:3333000000000000
#029340:00000033000000000000000000000000
#029350:00230000
#029380:00000000000000001300000033333333
#0303b0:23
#030320:00000000130000003333333333333333
#031360:23
#033320:13333333003333333333333300333333
#033360:00330033
#034320:23
#038350:00001333000023000000000000000000
#038320:00000000000000000000133300002300
#039320:0013
#039360:00000023
#0403b0:13
#040370:00230000
#043320:00130000
#043350:0000000000230000
#044350:13
#044320:00000023000000000000000000000000
#048380:13333333000000000000000000000000
#0483b0:00230000
#048321:13333333000000000000000000000000
#048351:00230000
#048351:00000000000000001333333333333333
#049321:23
#0483b0:00000000000000001333333333333333
#049380:23
#0493b0:00130000
#049380:0000000000230000
#050380:13
#0503b0:00000023000000000000000000000000
#0543b0:13
#0543a0:00330000000000000000000000000000
#054390:0033000000000000
#054380:00000033000000000000000000000000
#054370:00230000
#054320:0013
#054330:00000000000000000033000000000000
#054340:0000000000330000
#054350:00000000000000000000003300000000
#054360:00000023
#055380:00145424
#0553a0:0000005400000000
#055360:0000000000540000
#056340:14542400
#056360:0054000000000000
#056320:0000005400000000
#057320:13
#057350:00230000
#0573b1:13
#057381:00230000
#0623b1:1323
#062381:00330000
#069381:13
#0693b1:00230000
#069351:0000001300000000
#069321:0000000000230000
#070381:0000001300000000
#0703b1:0000000000230000
#0713b1:0000000000000013
#072381:0023000000000000
#077351:13
#077321:00230000
#077381:0000001300000000
#0773b1:0000000000230000
#078351:1300002300000000
#078321:00000033000000000000000000000000
#079351:0000000000000013
#080321:0023000000000000
#0813a1:143434003434240000000000
#081361:00340000
#082321:143434003434240000000000
#082361:00340000
#0833a1:143434003434240000000000
#083361:00340000
#084321:143434003434240000000000
#084361:00340000
#0853b1:13
#085381:0033
#0863b1:33
#087381:33
#0873b1:0000000000000023
#085350:0013
#086320:33
#087350:33
#087320:0000000000000023
#090380:13333333330000000033333323000000
#0903a0:00000000003333333300000000000000
#090320:0000000000000013
#091350:0023000000000000
#0953b0:00000000133300002300000000000000
#096380:00000000000013000033330000000000
#0963b0:0000000000003323
#098350:13333333330000000033333323000000
#098330:00000000003333333300000000000000
#0983b0:0000000000000013
#099380:0023000000000000
#103320:0013
#103350:00000023
#104350:13
#104320:00230000
#105320:13
#105350:00000023
#105380:0000000000000013
#1073b0:00000023
#1103b0:00000000000000000000133333333333
#111380:23
#1123a0:14343434343434343400000000000000
#112390:0054005400540054005400540054005400000000000000000000000000000000
#112370:00000024
#114380:13
#1143b0:00000023000000000000000000000000
#115350:0000000000000013
#116320:0023000000000000
#118380:13
#1183b0:00000023000000000000000000000000
#119380:13
#1203b0:33
#120380:0000330033333333
#121380:23
#120321:13
#120351:00003300000033000033003300330033
#121351:23
#122321:13
#122331:00330000000000000000000000000000
#122341:0033000000000000
#122351:00000033000000000000000000000000
#122361:00230000
