This file was generated by Ched 2.7.0.0.
#TITLE ""
#ARTIST ""
#DESIGNER ""
#DIFFICULTY 0
#PLAYLEVEL
#SONGID ""
#WAVE ""
#WAVEOFFSET 0
#JACKET ""
#REQUEST "ticks_per_beat 480"
#00002: 4
#BPM01: 220
#00008: 01
#TIL00: ""
#HISPEED 00
#MEASUREHS 00
#0011a:1414000000000000
#00118:0000001300001300
#00115:0013
#00112:2424000000001300
#0011b:0013
#0021b:13001313
#00218:0013001300130000
#00215:1300001300000000
#00212:00001313
#00312:1414000013130000
#00315:00000000130000000000001300000000
#0031b:00000000000000001300000000130000
#00318:0000130000001313
#0031a:2424000000000000
#0041b:0013130000001300
#00412:0000131300131300
#00415:0000001300000013
#00418:00000000000000000000000000000013
#00518:0000001300000013
#0051b:0013
#00515:00000000000000001300130016000013
#0051a:1414000000000000
#00512:2424001300000000
#0061b:00000013
#00612:1414000013000000
#00618:0000131313000013
#00615:00000000130000000000130013000013
#0061a:2424000000000000
#00818:1313131300130013
#00815:00130013001300130013000000130000
#0081b:00001313
#00812:00000000000000000000001300000013
#0091b:13
#00915:0013000000000000
#00918:0013000000000000
#00919:00000000000000000000000000210021
#00916:0000000000000021
#0111b:1300000013130013
#01118:0013000000001300
#01115:00000013160013000000130000000016
#01112:13001313
#01218:1313
#01212:0013000000130000
#01215:00000016130000160000000000000000
#0121b:00000000000013000000000000000013
#01217:00000000000000000000001300000000
#01214:00000013
#01219:00000000000000000000000000130000
#01216:0000000000000013
#01718:0013130000130013
#01715:00000013001300160000001300000013
#01712:00000000000013000013000000130000
#0171b:13001313
#01917:13131300
#0191b:0013001300130000
#01918:00000000000000000000000000130000
#01915:0000000000000013
#01912:13131313
#01910:41
#0201b:13000000000013130000000000001300
#02018:00000000130000000000001313000000
#02012:13131313
#02015:0016000000000000
#0211b:13131313
#02115:00130013000000000000000000000000
#02118:0013000000000000
#02112:13000000001300000000000000001300
#02116:00000000000000130000130000000000
#02114:00000013
#0221b:1300131313001313
#02215:00130000000000000013000000000000
#02218:0013000000130000
#02212:00000013000000000000001300000000
#02216:00000000001300130000000000130013
#0231b:13130000
#02318:00001300000013000000131300001300
#02312:13131313
#02315:00000000000000130000000000000000
#02412:13000000130000000013000000000000
#02416:0013001300000000
#02418:0000000000130000
#02415:00000000000000000000001300001600
#0241b:13131313
#02518:00130013000013000000000000130000
#02515:00001300001300000000000000001300
#0251b:00000000000000130000130000000013
#02516:0000000000130000
#02512:13131313
#02612:13000000000013001300000000130000
#02618:00130000130000000000001300000000
#02615:00001300001300160016000013001600
#0261b:00000013000000001300130000000013
#0351b:13131313
#03512:00130000001300000000000013000000
#03518:0013001300130013
#03515:00000013000000130000130000000013
#0361b:13131313
#03615:00130000000013000000001300130000
#03618:0013001300130013
#03612:00000013000000001300000000000013
#0371b:13131313
#03715:00001300001300000000130000001300
#03718:0000001300130000
#03712:00001313
#0381b:1300000013000013
#03815:00001313000000000000001300000000
#03812:1300001313000000
#03818:00000013000000000000131300000000
#03912:0013000000001300
#03915:00001300130000000000000000130013
#03918:1300131300000013
#0391b:0000001313000000
#04012:1300000013161616
#04018:00130000001300000013001600160016
#04015:00001300130000130000000000000000
#0401b:00000013000013000000000000000000
#04118:001300000013001300000013
#04115:001313001313
#0411b:23232323
#04112:23232323
#04215:001313000013
#04218:001300000013000000000013
#04212:23232323
#0421b:23230023
#04315:0000000000130013
#04316:0000001300000000
#04312:23130013
#04318:0000000000001313
#04317:00130000
#0431b:2300001300130000
#04418:13001613
#0441b:13000013000000000000130000000000
#04412:00000013000013000000000000000000
#04415:00000000000000130000000000001300
#04410:41
#04512:13001300000000000013001300000013
#04516:00130000000000000000130000000000
#0451b:0000131300001300
#04517:00000000001300000000000000000000
#04515:00000000000000161600000000130000
#04518:0000000000000013
#04717:00141400000000000000000000000000
#04714:00000013000000000000000000000000
#0471b:13001313
#04715:00000000001414000013001300000000
#04718:0000000000130013
#04712:00000000000000130000000000130013
#04719:00130000
#0481b:0000000013130000
#04815:00000000000000000013000000130000
#04812:00000000000000140000001300000013
#04818:0000000000001313
#04817:00131300000000000000000000000000
#04813:00000014000000000000000000000000
#0481a:14
#04816:00000000001313000000000000000000
#04819:00140000
#0491b:13130013
#04918:0000000000130013
#04917:0000001300000000
#04915:0000000000001313
#04916:00130000
#04912:0000001300130000
#05416:00130000000014000000000000001400
#0541a:0013000000000000
#05414:00000013000000000000000000000000
#05418:00130000
#05412:1300000000000013
#0541b:0000001313000000
#05417:00000000000000000013000000000000
#05413:0000000000130000
#05419:00000000000000000000001300000000
#05415:00000013
#05410:41
#0551b:1300001300000000
#05512:1300000000130000
#05516:0000001300000000
#05514:00131300
#05519:00131300
#05517:0000000000130000
#0551f:11
#05618:0000000000130000
#05615:00000013
#05612:0013000000000013
#05617:0013000000000000
#05619:13130000
#0561b:0000001300000013
#05614:13130000
#05616:0000001300000000
#05712:0033000013130013
#05715:0000000000131300
#05718:00000000000000131300000013000000
#0571b:0000000000000013
#05818:13000013000013001300001300001300
#0581b:00000000001300000000000000130000
#05815:00130000130000130013000013000013
#05812:0013000000130000
#05912:1200000000131313
#05916:0012000000000000
#05917:00000012000000000000000000000000
#05918:00121200
#0591b:0000000000131313
#0591c:12
#06018:13
#0601b:0013001300130013
#06012:0013001300130013
#06017:00130000
#06016:0013
#06015:00000013
#06112:13000000000013000000001300001300
#06115:00001300001300130013000016000013
#06118:00130000130000001300000000000000
#0611b:00000013000013000000130000130000
#0621b:13000013000000001300000000001300
#06212:00000000130000130000001300130000
#06218:00001300001300000000130013000000
#06215:00130000000013000013000000000013
#0631b:1300000000000023
#06315:00130000000000000000000000000000
#06318:00001600001300160000000000000000
#06312:00000016130016001c1c1c1c1c1c2300
#06418:0000000000001313
#06415:00000000000000000000000000130013
#06412:0023002300230000
#0641b:0023002300230000
#06718:00001300000000130000130000000000
#06715:13000000160000000000001300000000
#06712:00001300000016000013000000001300
#0671b:13000000001300001300000013001300
#06812:26000013000000002600001300001300
#06817:0000000000000013
#06818:00130000260013000013002600000000
#06815:00001300001300000000130000000000
#0681b:00000000000000130000000000000000
#0691b:1300130013130013
#06912:1313001300130000
#06918:00000013
#06915:00000000000000000000001300000000
#06917:0013001300000000
#06916:0000000013000013
#0711b:1313130000130013
#07112:1300001313130000
#07115:0000000000001313
#07117:00000013000000000000000000000000
#07116:00000000000000130000000000000000
#07118:00000000000000000000000000130000
#0721c:0012121212000000
#07212:0000000013130000
#07217:00000000000000000000001300000000
#07214:00000013
#07219:00000000000000000000000000130000
#07216:0000000000000013
#0721b:00000000000000000000000000000013
#07218:00000012001200120000000000000000
#07718:00130000130000000000000013001300
#0771b:0000001300130000
#07712:0000001300130000
#07715:13001300130000000000000013000013
#0781b:1300000000000000001300000000000000000000000000000000000013000000
#07812:1300001313000013
#07815:00000000000000000000130000130000
#07818:00000000000000000013000013000000
#07816:0000001300000000000000000000000000000000000000000000000000000000
#07817:00000013000000000000000000000000
#0791b:13000000000000000000000000000013
#07912:13
#07918:00130013001300130000130013001300
#07915:00001300130013001613001300130000
#0801b:0013131313001300
#08017:0000000000130013
#08016:00001313
#08012:0000131300130013
#0811a:001300000000000000000000
#08115:000017000000000000130000
#08114:00170000
#08113:001300
#08112:230000000000000000001300000000000000000000130000
#0811b:2313
#08118:0000000000130000
#08319:001400000000000000000000
#08315:000017000000000000130000
#08314:00170000
#08313:001400
#08312:240000000000000000001400000000000000000000130000
#0831b:00001313
#08318:0000000000130013
#0831a:24
#08518:13
#08512:0013130000130000
#08516:00000013000000000000000000000000
#0851b:00000000000013001300001300000000
#08517:00000000000000130000000000000000
#08513:00000013
#0851a:00000000000000000000000000130000
#08514:0000000000000013
#08519:00000000000000000000000000000013
#08615:13
#0861b:0013130000130000
#08617:00000013000000000000000000000000
#08612:00000000000013001300001300000000
#08616:00000000000000130000000000000000
#0861a:00000013
#08613:00000000000000000000000000130000
#08619:0000000000000013
#08614:00000000000000000000000000000013
#08715:00130013000000000000000000000000
#08718:1313141415151626
#08714:00000000001400140000000000000000
#08713:00000000000000000015001500000000
#08712:00000000000000000000000000162600
#08918:13001300000000000000000013130000
#08915:00000013000000000000131300000000
#0891b:00000000130013001313000000000000
#08912:00000000130000000000000000001313
#08910:41
#09018:16161616000000001616161600000000
#09012:00000000161616160000000016000000
#0901b:0000000000000013
#09016:0000000000000013
#09115:0013000000130013
#09112:00000013000000000000001300000013
#09117:00130000
#09114:00000000001300000000000000000000
#09119:0000001300000000
#0911b:00001313
#09118:00000000000000000013000000130000
#09116:00000000000000130000000000000000
#09315:00130000000013000000130013000000
#09318:00001300001300130013000000000013
#09312:0000000013000013
#0931b:23000000000000000000001300130000
#09412:1300000000001300000000001c1c0000
#09417:00130000000000130000000000000000
#09414:0013000013000000
#09419:00000013000000000013000000000000
#09416:0000130000130000
#0941b:00000000001300000000001300000000
#09515:13000000131300000000000000000000
#09518:00130000000000000000000000000013
#09512:0013000000000000
#0951b:00000013000000000000000000000000
#09612:1300000000000013
#09619:00130000000000000000000000000000
#09613:0013000000000000
#0961a:00000013000000000000000000000000
#09614:00130000
#0961b:00000000001300000000000013001300
#10318:00130000000000000000000013000013
#10313:0013000000000000
#10319:00000013000000000000000000000000
#10314:00130000
#1031a:00000000001300000000000000000000
#10315:0000001300000013
#10316:0013
#1031b:00000000000000130000130000000000
#10312:13000000000000000000000000130000
#11315:0013130000130000
#11318:0013000013131300
#11312:1300001300000013
#1131b:2300231323002313
#11415:1313130000130000
#11418:0013000013131300
#11412:0000001300000013
#1141b:2300231323002313
#1161b:00000000001300000000000000000000
#11615:13000000000016161616000000000000
#11612:000016001300000000001c1c1c1c1c1c
#11618:00130016000000000000000000000000
#11917:0013130000000000
#1191b:13000013000000000000000000130000
#11916:0000001313000000
#11912:13000000000000130000130000000000
#11915:00000000000000000000001300000013
#11918:0000000000001313
#1201b:1313000000000000
#12012:1313000000000000
#12019:0000212121212121
#12016:00000000002100210021002100210000
#12112:12000012
#12116:0000120000000012
#1211a:00121200
#12117:00000000000000000012000000000000
#12114:0012000000120000
#1211c:0000001200000012
#12118:0012001200001200
#12213:12
#12215:00120000000000000000000000000000
#12217:0012000000000000
#12219:00000012000000000000001200001200
#1221b:00120000
#12212:0012
#1221c:0000000000120000
#12216:00000000000000000000000012000012
#12313:12
#12312:0013000013001300
#12315:00130000
#12318:0000001300000013
#12415:1300001300000000
#12412:00001313000000002400240024000000
#1241b:00001313000000000000000000000000
#1241a:0000000024242400
#00712:13001313
#00715:001313000000
#0071b:13001313
#00718:00130000
#01512:1300000013001313
#01515:00001300130016000000130000000016
#01518:00000013000000000000000013000000
#0151b:0000000013130000
#01615:13000016000000161300000000000000
#0161b:0013000000130000
#01618:00130000
#01612:00000000000013000000000000000013
#01616:00000000000000000000001300000000
#01619:00000013
#01614:00000000000000000000000000130000
#01617:0000000000000013
#03117:00130000000000000000000013000000
#0311b:0013000013000000
#03112:00000000130013000000000000130000
#03116:00000000001300000013000000000000
#03119:0000000000130013
#03114:00000000000000000000001300000013
#0321b:13131300
#03215:00001300000013000013000000000000
#0321a:0000000000130000
#03214:00000000000000000000001300000000
#03219:00000013
#03213:00000000000000000000000000130000
#03218:00160000001600000000000000001300
#03212:00000016000000160000000000000013
#0331b:13131313
#03315:00130000001300000013000000130000
#03318:0013001300130013
#03312:00000013000000130000001300000013
#03310:41
#03415:0000000000160000
#0341b:23232323
#03412:23232323
#07618:26001300001300000000000000001300
#07615:00130000000013000000000000001300
#0761b:00000013000000000000000013000000
#07612:00000000260000132c002c0013000000
#08212:2313
#08215:0000170000130000
#08218:00000013
#0821b:230000000000000000001300000000000000000000130000
#08213:001300000000000000000000
#08214:001700000000
#0821a:001300
#08412:24001313
#08415:0000170000130013
#08418:00000013
#0841b:0000000000000013
#08413:001400000000000000000000
#08414:001700000000
#08419:001400
#0841a:240000000014000000000000
#09715:13001300000000000000000013130000
#09718:00000013000000000000131300000000
#09712:00000000130013001313000000000000
#0971b:00000000130000000000000000001313
#10212:0000000000130000000000131c1c1c00
#1021b:1300001300000000
#10216:00130000000000130000000000000000
#10219:0013000013000000
#10214:00000013000000000013000000000000
#10217:0000130000130000
#10512:1c0000000000191c
#11212:0000000016000013
#1121b:0000000000000013
#11218:0016
#11515:13
#11512:0000131c19161316
#11518:00001300000000000000130000000016
#1151b:23232323
#01412:0000001300130000
#01415:13000016000000161300000000000000
#0141b:0013000000000000
#01418:00130000
#0281b:0013000000001300
#02812:1300001300000000
#02815:00000000000000000013001300000000
#02818:0000000000130000
#03012:1300001313000000
#0301b:00001300130000000033333333333333
#02712:0000001300000000
#02715:0000001300000000
#09814:13130000131300001313000013000000
#09819:00001313000013130000131300000000
#09812:0000000000000013
#09817:0000000000000013
#0921b:0013000000000000
#09217:27130013000013000000000000000000
#09213:00000000271300130000000000000000
#09216:00000000000000002713001300001300
#0921a:0000000000130000
#09212:00000000000000000000000027130013
#05216:00000013
#05219:00000000000000000000000000130000
#05214:0000000000000013
#05217:00000000000000000000000000000013
#05212:1313000013130000
#0521b:00130013000000000013001300000000
#05215:0000131300000000
#05218:00000000001300130000000000000000
#05312:13000000001300001300000013001300
#0531b:00130000130000001300130000000000
#05315:00001613000016000013001300000000
#05318:00000000000000130000000000130013
#07012:1300130013130000
#0701b:1313001300130000
#07015:0000000000001316
#07018:00000000000000000000001300000000
#07016:0013001300000000
#07017:0013
#1041c:00000012001200120012001200120012
#10418:0012121212121212
#1041b:13
#10718:000000000013000000000000
#1071b:23232323
#10715:0000000000000022
#10719:0000000000000022
#10712:330000330033330000000000
#10618:000000000000000000000013
#10612:000000000000000000000033
#1091b:1300001313130013
#10916:0014140000141400
#10912:13000013000013001300000013001300
#10915:00000000000000000000000000000013
#11018:13000000000000000000000000130000
#11012:0013130000131313
#11016:00000014000000140000000000000000
#1101b:00000000000013001300000000000013
#11015:00000000000000000000001300000000
#1111b:13000013000013001300000000000013
#11112:1300001313131300
#11116:0014140000140000
#11115:00000000000000000000000000130000
#11118:0000000000000013
#11812:2300231323002319
#11818:1313130000130000
#11815:0013000013131300
#1181b:0000001300000000
#11718:0013130000130000
#11715:0013000013131300
#1171b:1300001300000013
#11712:2300231323002313
#05012:13000013000000001600130000000000
#0501b:00000013000013000000000000000000
#05018:00000000000000130000000000001300
#05015:13000013
#0511b:13001300000000000013001300000013
#05117:00130000000000000000130000000000
#05112:0000131300001300
#05116:00000000001300000000000000000000
#05115:00000000000000161600000000001300
#05118:00000000000000000000000000130000
#07315:00130013000013001300000013000013
#07318:0013130013130013
#07312:2300130000130000
#0731b:2300001300001300
#07412:1300230000230000
#07416:0000140014140000
#07415:0016001600000013
#07418:00000013
#0741b:2300000023000013
#07515:00001300160000130000130000000000
#07518:13000000000016000000001300000000
#07512:13000000001300001300000013001300
#0751b:00001300000000000013000000001300
#10118:00130000000013000000130013000000
#10115:00001300001300130013000000000013
#1011b:0000000013000013
#10112:23000000000000000000001300130000
#10012:2713000000000000
#10016:00130013270013000000000000000000
#1001a:00000000001300130000000000000000
#10017:00000000000000000013001327001300
#10013:0000000027130000
#1001b:00000000000000000000000000130013
#04617:00000013
#04614:00000000000000000000000000130000
#04619:0000000000000013
#04616:00000000000000000000000000000013
#0461b:1313000013130000
#04612:00130013000000000013001300000000
#04618:0000131300000000
#04615:00000000001300130000000000000000
#09918:0013000000130013
#0991b:00000013000000000000001300000013
#09916:00130000
#09919:00000000001300000000000000000000
#09914:0000001300000000
#09912:00001313
#09915:00000000000000000013000000130000
#09917:00000000000000130000000000000000
#01312:1300000013130013
#01315:00001300160000000000000013000016
#01318:00000013000013000000130000000000
#0131b:00001313
#06612:2300000023000013
#06615:0016001600001300
#06618:0000000000000013
#0661b:1300230000230000
#06616:0000140014140000
#06610:41
#06518:00130013000013001300000013000013
#06515:0013130013130013
#0651b:2300130000130000
#0651b:23
#06512:2300001300001300
#0651f:21
#10812:00000023
#1081b:00000023
#10815:0022002200220000
#10819:0000002200220000
#0881b:0000002300230000
#08818:00000026
#08812:0026002300232600
#01815:002600002623000000000000
#01818:000023000000000000260000
#01812:23232326
#0181b:23232300
#01016:2121212121212100
#01019:00210021002100210021002100210000
#00255:0000005300000000
#00252:0023
#00358:0000000000000063
#00955:0063000000000000
#00958:0053000000000000
#0345b:00000013
#03452:00000013
#03852:0000001300000013
#0385b:1300001300000013
#03858:00000053000000000000000000000000
#03855:00000000000000000000006300000000
#05554:00535300
#05556:0000002300000000
#05552:0000000000230000
#0555b:0000002300000000
#05559:00535300
#05557:0000000000230000
#06052:0013001300130013
#0605b:0013001300130013
#06852:1616
#06858:00000000160000000000001600000000
#07155:0000000000000063
#0775b:0000001300000000
#07752:0000001300000000
#08858:0016000000001600
#08852:0016000000001600
#09056:0000000000000063
#09452:000000000000000000000000001c0000
#10356:0053
#10552:5c0000000000005c
#1225b:00520000
#1245b:00000053000000000000000000000000
#1245a:0000000014141400
#12452:0000000014141400
#01858:00000016
#01852:00000016
#01258:1313
#01255:00130000
#0115b:13
#01552:1313
#01555:00130000
#01558:00000013
#01655:1313
#01658:00130000
#0175b:13
#04152:3333
#0415b:00430043
#04252:3333
#0425b:00430043
#0435b:43
#04352:33
#0595b:0000000000131313
#05952:0000000000131313
#00455:0000005300000000
#03052:2353
#0305b:00230000
#02752:0000002300000000
#02755:0000002300000000
#0355b:13131313
#0365b:13131313
#0375b:13131313
#0395b:0053
#07658:16
#07652:000016001c1c0000
#07852:53
#07857:00000053000000000000000000000000
#07856:0000002300000000000000000000000000000000000000000000000000000000
#0785b:0000000000000000002300000000000000000000000000000000000000000000
#1095b:13
#10952:13
#11058:13
#11052:00130000
#1105b:0013
#11152:13
#1115b:13
#11252:0066
#11258:0056
#1135b:00130013
#11352:13
#11358:0013
#1145b:00130013
#11455:13
#11458:0013
#1155b:00130013
#11555:13
#11752:00130013
#1175b:13
#11755:0013
#11852:00130013
#11858:13
#11855:0013
#05657:0023000000000000
#05659:63630000
#0565b:0000002300000000
#05652:0023000000000000
#05654:63630000
#05656:0000002300000000
#0745b:1313
#07452:0000130000130000
#08152:13
#08352:14
#09257:17
#09253:00170000
#09256:0017
#09252:00000017
#10052:17
#10056:00170000
#10053:0017
#10057:00000017
#1085b:00000013
#10852:00000013
#0825b:13
#0845a:14
#09857:0000000000000053
#01352:13
#01455:1313
#01458:00130000
#06652:1313
#0665b:0000130000130000
#06552:13
#0735b:13
#002350:0000001300230000
#002320:0053
#003380:0000000000000013
#004320:0023000000000000
#004350:0000001300000000
#0043b0:0000000000230000
#009350:0013000000000000
#009320:00000023
#009381:0013000000000000
#0093b1:00000023
#014351:00000000000000000000193939393939
#014371:0000000000000000000000000000000000000000005500550055005500550055
#015351:29
#027321:1333000000000000
#027351:00000033000000000000000000000000
#027381:00230000
#0273b0:0013330000003300
#027350:0000003300000033
#027380:00000000000000000000000000330033
#0283b0:23
#027321:0000001300000000
#027381:00000023
#028380:0013000000000000
#028350:00000033000000000000000000000000
#028320:00230000
#028350:0000001300000000
#028380:00000000000000330000000000000000
#0283b0:0023
#028320:00000013
#028350:00000000000000000000000000330033
#028380:0000000000000033
#029320:23
#0293b1:13230000
#029381:00330033000000000000000000000000
#029351:0033000000000000
#029320:00133323
#029350:00000000003300330000000000000000
#029380:0000003300000000
#0293b1:00001333
#029381:00000000000000000000000000330033
#029351:0000000000000033
#0303b1:23
#030320:13
#030380:0023000000000000
#0303b0:00130000
#030350:0000002300000000
#030320:0013
#0303b0:00000000000000000033333333333333
#0313b0:23
#038380:00000013000000000000000000000000
#0383b0:0000002300000000
#038350:00000000000000000000001300000000
#038320:0000000000000023
#0393b0:0013
#039350:00000023
#0423b0:0000000013230000
#055340:00135323
#055360:0000005300000000
#055320:0000000000530000
#055391:00133323
#0553b1:0000003300000000
#055371:0000000000330000
#056391:13532300
#056371:0053000000000000
#0563b1:0000005300000000
#056340:13332300
#056320:0033000000000000
#056360:0000003300000000
#0573b0:13
#057320:00230000
#057321:1333000000000000
#0573b1:00230000
#059361:0000001222000000
#071351:0000000000000013
#072321:0023000000000000
#078321:13000023000000000000000000000000
#078361:0000005300000000000000000000000000000000000000000000000000000000
#078370:00000013000023000000000000000000
#0783b0:0000000000000000005300000000000000000000000000000000000000000000
#079320:00000000000000000000000000000013
#080320:0023000000000000
#087380:0000000000000016
#088380:0026000000000000
#089350:1323000000000000
#089320:0000001323000000
#090360:0000000000000013
#091320:0023000000000000
#093320:00000013000000000000000000000000
#093350:00000000002300000000000000000000
#095380:00000000001300230000000000000000
#095351:00000000000000132300000000000000
#0953b0:0000000013230000
#095321:0000000000132300
#095380:0000000000001323
#095321:00000000000000000000000000001323
#096351:00000000000013000023000000000000
#096380:00000000000000000013230000000000
#096321:0000000000132300
#097381:1323000000000000
#0973b1:0000001323000000
#098371:0000000000000013
#0993b1:0023000000000000
#1013b1:00000013000000000000000000000000
#101381:00000000002300000000000000000000
#103361:0013
#103321:00000023
#105321:1c
#1053b1:00000023
#105321:000000000000001c
#106321:000000000000000000000033
#107321:330000330033330000230000
#1063b0:000000123200
#1063c0:000000000000003200220000
#107391:0000000000000012
#108391:0022000000000000
#112321:16363636363636363600000000000000
#112331:0054005400540054005400540054005400000000000000000000000000000000
#1123b1:00000023
#112380:16363636363636363600000000000000
#112390:0054005400540054005400540054005400000000000000000000000000000000
#112320:00000023
#1223b0:00120000
#122370:0022
#1233b0:00001323
#1243b0:00000013000000000000000000000000
#124380:0000002300000000
