This file was generated by Ched 2.7.0.0.
#TITLE ""
#ARTIST ""
#DESIGNER ""
#DIFFICULTY 0
#PLAYLEVEL
#SONGID ""
#WAVE ""
#WAVEOFFSET 0
#JACKET ""
#REQUEST "ticks_per_beat 480"
#00002: 4
#BPM01: 220
#00008: 01
#TIL00: ""
#HISPEED 00
#MEASUREHS 00
#0011a:14
#00112:14
#0021a:14
#00212:14
#00318:14
#00314:0014
#00418:14
#00414:0014
#00512:14
#0051a:14
#00612:14
#0061a:14
#00714:14
#00718:0014
#00814:14
#00818:0014
#00914:14
#01118:0014
#01214:14
#0121a:0014
#01312:14
#01318:0014
#01414:14
#01618:14
#01612:0014
#01514:0014
#0171a:14
#01714:0014
#0191a:1414
#01914:00140014
#01910:41
#02112:1414
#02118:00140014
#0231a:14
#02314:00140000
#02318:0014
#02312:00000014
#02418:14
#02414:00140000
#0241a:0014
#02512:14
#02518:00140000
#02514:0014
#0251a:00000014
#02614:14141414
#02618:0014001400140014
#03518:1414
#03514:00140014
#0361a:1414
#03612:00140014
#0431a:0014
#04312:24
#04414:14
#04418:0014
#04410:41
#04512:1414
#04518:00140014
#04614:1414
#0461a:00140014
#04712:14
#04718:00140000
#04714:0014
#0471a:00000014
#04812:14
#04818:00140000
#04814:0014
#0481a:00000014
#04912:14
#0491a:0014
#05014:14
#05018:0014
#05112:1414
#05118:00140014
#05214:1414
#0521a:00140014
#05312:14
#05318:00140000
#05314:0014
#0531a:00000014
#05412:14
#05418:00140000
#05414:0014
#0541a:00000014
#05410:41
#0561a:0014
#05812:0014
#05918:14141414
#06014:14141414
#0611a:14
#06112:00140000
#06118:0014
#06114:00000014
#0621a:14
#06212:00140000
#06218:0014
#06214:00000014
#0631a:14
#0651a:24141414
#06512:24
#0651f:21
#06614:14141414
#06610:41
#0671a:14
#06714:00140000
#06718:0014
#06712:00000014
#0691a:1414
#06914:00140014
#07112:1414
#07118:00140014
#07214:1414
#0721a:00140000
#07312:24141414
#0731a:24
#07418:14141414
#07512:14
#07518:00140000
#07514:0014
#0751a:00000014
#07712:1414
#07718:00140014
#0791a:1414
#07914:00140014
#08018:1414
#08012:00140014
#08118:0014
#08114:00000014
#0811a:24
#08112:24
#08214:0014
#08218:00000014
#08212:24
#0821a:24
#08318:0014
#08314:00000014
#0831a:24
#08312:24
#08414:0014
#08418:00000014
#08412:24
#0841a:24
#0891a:1414
#08914:00140014
#08910:41
#09018:1414
#09012:00140014
#0911a:1414
#09114:00140014
#09218:1414
#09212:00140014
#0931a:14
#09314:00140000
#09318:0014
#09312:00000014
#09418:1414
#09412:00140000
#09414:00000014
#0951a:14
#09514:00140000
#09518:0014
#09512:00000014
#09812:1414
#09818:00140014
#09914:1414
#0991a:00140014
#10012:1414
#10018:00140014
#10114:1414
#1011a:00140014
#10212:14
#10218:00140000
#10214:0014
#1021a:00000014
#10314:1414
#1031a:00140000
#10318:00000014
#10412:14
#10418:00140000
#10414:0014
#1041a:00000014
#10512:0000000000000014
#1091a:1414
#10914:00140014
#11018:14140000
#11012:00001414
#1111a:14141414
#11114:0014001400140014
#11314:00140000
#11318:0014
#11312:00000014
#1141a:14
#11414:00140000
#11418:0014
#11412:00000014
#1151a:14140000
#11514:00001414
#11718:00140000
#11714:0014
#1171a:00000014
#11712:14
#11812:14
#11818:00140000
#11814:0014
#1181a:00000014
#11912:14140000
#11918:00001414
#12014:14141414
#12018:0014001400140014
#12114:14
#12118:0014
#12212:14
#1221a:0014
#12312:14
#12318:00140000
#12314:0014
#1231a:00000014
#12414:14142400
#12418:0014001400000000
#0551f:11
#01818:24
#0181a:00002424
#01812:00002424
#01814:00240000
#03412:00240024
#0341a:0024
#04112:24
#04118:00240000
#04114:0024
#0411a:00000024
#04212:24
#04218:00240000
#04214:0024
#0421a:00000024
#08818:00000024
#08814:00000024
#0961a:24
#09612:24
#0971a:2424
#09712:2424
#03718:00343400
#03814:00343400
#03310:41
#00954:54
#03452:00000014
#06358:0000000000000014
#0635a:54
#08858:00000014
#08854:00000014
#10552:0000000000000054
#10856:00000014
#12454:00000014
#009340:14
#011320:24
#0143a0:0000000014545454
#014390:00000000000000000054005400540054
#0153a0:24
#0203a0:14
#020380:0024
#022320:14
#022340:0024
#027340:14
#027320:0034
#028340:34
#028320:0024
#029380:14
#0293a0:0034
#030380:34
#0303a0:0024
#031320:14
#031340:0034
#032320:34
#032340:0024
#0333a0:14
#033380:0034
#0343a0:24
#037380:14343400
#0373a0:00000024
#038340:14343400
#038320:00000024
#0393a0:14
#039380:0034
#0403a0:34
#040380:0024
#055320:14
#055340:0034
#056320:24
#0573a0:14
#057380:0034
#0583a0:24
#0633a0:14
#063380:0000000000000024
#068380:14240000
#068340:00001424
#0703a0:14
#070380:0024
#076340:14240000
#076380:00001424
#078320:14
#078340:0024
#0853a0:14
#086380:34
#0873a0:34
#087380:0000000000000034
#088380:0034003400342400
#085321:14
#086341:34
#087321:34
#087341:0000000000000034
#088341:0034003400342400
#105321:1400000000003434
#107361:0000000000000034
#108361:0034003400342400
#1123a1:14343400
#112391:0034003400000000
#1133a1:24
#1163a1:14
#116381:0024
#124341:0000000014342400
