This file was generated by Ched 2.7.0.0.
#TITLE ""
#ARTIST ""
#DESIGNER ""
#DIFFICULTY 0
#PLAYLEVEL
#SONGID ""
#WAVE ""
#WAVEOFFSET 0
#JACKET ""
#REQUEST "ticks_per_beat 480"
#00002: 4
#BPM01: 140
#00008: 01
#TIL00: ""
#HISPEED 00
#MEASUREHS 00
#00019:14
#00119:14
#00213:14
#00313:14
#00419:14
#00513:14
#00619:14
#00713:14
#01618:2616
#01610:41
#01712:1616
#01818:1616
#02012:1616
#02118:1616
#02212:1616
#02418:14
#02410:41
#02512:14
#02618:14
#02712:14
#0281a:14
#02914:14
#0301a:14
#03114:14
#03218:14
#03210:41
#03312:14
#0341a:14
#03514:14
#03618:14
#03712:14
#0381a:14
#0381f:11
#03914:14
#0401a:14
#04114:14
#04218:14
#04312:14
#05212:0016
#05218:26
#05318:16
#05312:0016
#05418:1616
#05512:16
#05518:0016
#05618:0016
#05612:16
#05712:16
#05718:0016
#05812:1616
#05918:16
#05912:0016
#06812:0016
#06818:26
#06918:16
#06912:0016
#07018:16
#07012:0016
#07212:16
#07218:0016
#07312:16
#07318:0016
#07412:16
#07418:0016
#0601a:14
#06010:41
#06112:14
#06218:14
#06314:14
#0641a:14
#06512:14
#06618:14
#06714:14
#0441f:21
#04510:41
#00810:41
#0083a0:14
#0093a0:24
#010320:14
#011320:24
#012380:14
#013380:24
#014340:14
#015340:24
#019380:1626
#023320:1626
#0443a0:14
#0453a0:24
#046340:14
#047340:24
#048380:14
#049380:24
#050320:14
#051320:24
#071380:1626
#075320:1600000000000026
