This file was generated by Ched 2.7.0.0.
#TITLE ""
#ARTIST ""
#DESIGNER ""
#DIFFICULTY 0
#PLAYLEVEL
#SONGID ""
#WAVE ""
#WAVEOFFSET 0
#JACKET ""
#REQUEST "ticks_per_beat 480"
#00002: 4
#BPM01: 140
#00008: 01
#TIL00: ""
#HISPEED 00
#MEASUREHS 00
#0161b:00130000000000000000000000001300
#01615:00000013000000000000000000000013
#01618:0000001313000000
#01612:2613
#01610:41
#0171b:1313
#01712:00130000000000000000000000000000
#01718:00000013000000000000000000000000
#01715:0000001313000000
#02018:00130000000013000000000000000000
#02015:00000013000000001300000000000000
#0201b:0000000013000013
#02012:26000000000000000000000000000013
#0211b:13000000000000000000000000000013
#02115:00130000000013000000000000000000
#02118:00000013000000001300000000000000
#02112:0013
#01916:0014001400000000
#01912:00000000140000002400001400000000
#01918:0000000000140000
#0191a:2400000024002424
#01812:1313
#0181b:00130000000000000000000000000000
#01815:00000013000000000000000000000000
#01818:0000001313000000
#01816:0000000000000014
#02212:13000000000000000000000000000013
#02218:00130000000013000000000000000000
#02215:00000013000000001300000000000000
#0221b:0013
#0231b:13000000000000000033333300000000
#02315:00130000000013000033333300000000
#02318:00000013000000001300000000000000
#02312:0013
#02316:0000000000000014
#02412:26131300
#0241b:0000130013000013
#02416:0000001300000000
#02415:00000000000000000000001300000000
#02418:26
#02410:41
#02515:00000013000000001300000000000000
#0251b:13000000000013001300000000000013
#02512:1300000000000013
#02612:1300001300130000
#02618:00000013000000001300000013000000
#02615:0000000013000013
#0281b:00131300
#02812:2500130013000013
#02817:0000001300000000
#02818:00000000000000000000001300000000
#02819:25
#02918:00000013000000001300000000000000
#02912:13000000000013001300000000000013
#0291b:1300000000000013
#02915:0013000000000000
#02712:1300000000001313
#0271b:13000000000000000013001300000000
#02715:0013001313130000
#02718:00000013000000130000000000130000
#0301b:1300001300000000
#03015:00000013000000001300000000000000
#03018:0000000013000013
#03012:00000000000000000000001300000000
#0311b:13
#03118:00001300000000130000160000130000
#03112:1300000000000016
#03115:0013001323002300
#0321b:00130000
#03218:2600001313000013
#03215:0013
#03212:00000000230000000000001323000000
#03210:41
#0331b:1300001300130013
#03318:0013
#03315:13000000000000001300000000000013
#03312:00000013230000000000000023000000
#03415:0013
#0341b:1300001300000000
#03418:0000000013000013
#03412:00000013230000000000000023000000
#03518:00000000000000130013001300000000
#03512:00000013230000001300130000000000
#0351b:13000000000000000000000000130000
#03515:1300001300001313
#03612:25130000
#03615:0000001313000013
#03618:0013
#0361b:00000000230000000000001323000000
#03619:25
#03712:1300001300130013
#03715:0013
#03718:13000000000000001300000000000013
#0371b:00000013230000000000000023000000
#03812:13000000000000000000001300000000
#0381b:00000013000000001300000000000000
#03818:0000001300000013
#03815:00000000000000130000000000000013
#0381f:11
#0391a:14140000
#03916:0014000000000000
#03912:00140014000000001600000000001600
#03915:0000001300001300
#03918:00000000000000130000160000130000
#04015:0013001300130013
#04012:00131313
#0401b:00000000130000000000001300000000
#04018:2616
#0411b:00131313
#04112:16000000130000001600001300000000
#04118:0013001300130013
#04212:13131600
#04215:00001300000013000000001300130013
#04218:1600130000131313
#0421b:0013
#0441b:0000000000000000130000000000000000000013000000000000000000001300
#04418:26000000000000130000000000000000
#04415:0000000000000000000013000000000000000013000000000000000013000000
#04412:16001300000000130000000000000000
#0441f:21
#04512:1300000000130000
#04515:00000013000000001300000000000000
#04518:00130000000013000000130000000000
#0451b:00000013000000001300000000000000
#04510:41
#04618:1600000000000000000013000000000000000013000000000000000000000000
#04612:2600000000000000130000000000000000000013000000000000000000000000
#04615:00000000000000130000000000000000
#0461b:00001300000000130000000000000000
#04616:0000000000000014
#0471b:0000130000000013
#04712:13261600
#04716:0014001400000000
#04718:2600000026130000
#04715:00000000000000000000001300000000
#04818:16
#04816:0014000000000000
#0481b:0000000000000000130000000000000000000013000000000000000000000000
#04817:00000000000000130000000000000000
#04812:26000015
#04915:1300001300130000
#04918:00130013000000001300000000000000
#04912:00000013000000001300000000000000
#0491b:0000000000130000
#05118:0014000000000000
#05112:00000014000014000000240024000000
#05114:00140000000000000000000000000000
#05116:0000240024140014
#0511a:2400001424000024
#05212:00130000000000000000000000001300
#05218:26000013000000000000000000000013
#05215:0000001313000000
#0521b:0013
#05312:1313
#0531b:00130000000000000000000000000000
#05315:00000013000000000000000000000000
#05318:0000001313000000
#05615:00130000000013000000000000000000
#05618:26000013000000001300000000000000
#05612:0000000013000013
#0561b:00000000000000000000000000000013
#05712:13
#05718:00130000000013000000000000000000
#05715:00000013000000001300000000000000
#0571b:0013
#05516:0014001400000000
#0551a:00000000240000002400001400000000
#05512:2400000024002424
#05514:0000000000240000
#0541b:13000000000000000013000000000000
#05412:00130000000000001300000000000000
#05418:00000013000000000000000000001300
#05415:00000000000013000000001300000000
#0581b:13
#05815:00130000000013000000000000000000
#05818:00000013000000001300000000000000
#05812:0013
#05816:0000000000000014
#05914:12
#05918:0000001200001600
#0591a:00120000000000000000000000000000
#05912:0012
#0591b:0000000000230000
#0601b:00130000
#06012:26000000000000001313000000000000
#06017:00000000000000000000001300000000
#06015:0000130000000013
#06018:26
#06010:41
#0611b:13001300130000000013000000001300
#06112:1300001313000000
#06114:0013000000000000
#06116:00130000
#06117:00000000000000130000000000000000
#06115:00000000000000000000001300000000
#06212:13000000000000130000000000001300
#06217:13000000000000000000001300000000
#0621b:0013001313000000
#06214:0000000000130000
#06216:0013000000000000
#06312:1300260013000013
#06315:0013000000131300
#0631b:0000130000000013
#06318:26000000000013002600001300000000
#0641b:13000000000000130000000000001300
#06416:13000000000000000000001300000000
#06412:0013001313000000
#06419:0000000000130000
#06417:0013000000000000
#06516:0000000000000014
#06512:13000000000000130000000000000000
#06518:1300000000000000000000000000000000130000000000000000000000000000
#06515:0000000000000000130000000000000000130000000000000000000000000000
#0651b:00001300000000130000000000000000
#06612:1600000000000000000013000000000000000013000000000000000000000000
#0661b:13000000000000130000000000000000
#06618:0000000013000000000013000000000000000013000000000000000000000000
#06615:00000013000000130000000000000000
#06616:0000000000000014
#0671a:0014002400001400
#06712:2400240000000024
#06716:2400002400240000
#06812:00130000000000000000130000001300
#06818:26000013000000000000130000000013
#06815:0000001323000000
#0681b:0013
#0691b:00130000000000000000130000000000
#06915:00000013000000000000130000000000
#06918:0000001323000000
#06912:2313
#07215:00130000000013000000130000001300
#07218:26000013000000001300000000000000
#0721b:00000000000000000000130000000013
#07212:0023
#07312:1300000000130000
#07318:00130000000013000000130000000000
#07315:00000013000000001300000000000000
#0731b:0023
#0701b:1313
#07012:00130000000000000000130000000000
#07018:00000013000000000000130000000000
#07015:0000001323000000
#07016:0000000000000014
#07415:00130000000013000000130000000000
#07418:00000013000000001300000000000000
#0741b:2300000000130000
#07412:0023
#0751a:12
#07518:00000012000000000000000000000000
#07512:0000001200000000
#07514:00120000000000000000000000000000
#07516:0012
#0751c:0022
#0001c:12
#0001a:00120000
#00018:0012
#00114:00120000
#00116:0012
#0021a:00120000
#00218:0012
#00314:00120012
#00316:0012
#00418:12
#0041a:00120000
#0041c:0012
#00514:00120000
#00512:0012
#0061a:00120000
#0061c:0012
#0071c:12
#00718:0000000000000014
#00714:00000000000000000000000000000014
#00712:00000000000000002400002400000000
#0071a:00000000000000002400002400000000
#0111b:1313000013000000
#01115:00130013000000000000000000000000
#01112:00000000001300130000140000001400
#01116:00000014
#0111a:00000000000000000000001400140000
#01118:0000131300000000
#01218:2613000013000013
#01215:0000130000130000
#0121b:00000000001300000000001300000000
#01212:26000000000000130000000000130000
#01318:0000130000130000
#01312:13000000001300000000001300000000
#0131b:00000000000000130000000000130000
#01315:0013000013000013
#01512:00001400140000000014001400000000
#01516:14000014000014000000140000140000
#0151a:00000000001400002400000024001400
#00815:0013000013000013
#0081b:00000000001300000000001300000000
#00818:26
#00810:41
#00918:0013000013000013
#00912:13000000001300000000001300000000
#0091b:13
#0101b:13
#01012:1300000000000013
#01015:0013000013000000
#01018:00000000001300000000001300000000
#0141b:0013000013000013
#01412:00000000000000130000000000130000
#01418:13000000001300000000001300000000
#01415:0000130000130000
#05012:1600000000000000130000000000000000000013000000000000000000000000
#05016:00001400000000130000000000000000
#05019:00000015
#05018:26
#07112:2400240024002424
#07116:0024002400240000
#0711a:24000000240000002400002400000000
#04318:26262600
#04312:0026002600000000
#0165b:00530000000000000000000000000000
#01655:00000053000000000000000000000000
#01658:0053
#01652:1653
#01752:00530000000000000000000013000000
#01758:00000053000000000000000013000000
#01755:0053
#0175b:0053
#02058:00630000000000000000000000000000
#02055:00000053000000006300000000000000
#0205b:0063
#02052:16
#02155:00530000000000000000000013000000
#02158:00000063000000005300000000000000
#02152:0053
#0215b:00000013
#0185b:00530000000000000000000000000000
#01855:00000053000000000000000000000000
#01852:0053
#01858:0053
#02258:00630000000000000000000000000000
#02255:00000053000000006300000000000000
#0225b:0063
#02355:00530000000000000000000000000000
#02358:00000063000000005300000000000000
#02352:0053
#02452:16
#02458:16
#0245b:0053
#02455:00000000000000000000002300000000
#02555:00000053000000005300000000000000
#0255b:2353
#02852:1563
#02858:00000000000000000000006300000000
#02859:15
#02958:00000063000000006300000000000000
#02952:0063
#02658:00000053000000000000000000000000
#02655:0053
#02652:5300000000230000
#0305b:23
#03055:00000063000000000000000000000000
#03058:0023
#03052:00000000000000000000005300000000
#0315b:53
#03158:0023000000160000
#03152:6300000000000016
#03155:0023000000000000
#03258:1653
#0335b:6300000000230000
#03358:00005313
#0345b:23
#03458:0023
#03655:0063
#03659:15
#03652:15
#03752:5300000000230000
#03755:00006313
#03852:53
#0385b:0063
#03856:00000013000000000000000000000000
#03857:00000000000000000000001300000000
#04058:16
#0405b:00000000000000000000006300000000
#03958:0000000000160000
#03952:0000000000000016
#04152:16000000000000000000005300000000
#0445b:0000000000000000000000000000000000000023000000000000000000000000
#04458:16000000000000530000000000000000
#04455:0000000000000000000000000000000000000023000000000000000000000000
#04452:00000000000000530000000000000000
#04552:0000000000230000
#04555:00000053000000006300000043000000
#04558:0000000000230000
#0455b:00006343
#04652:1600000000000000000000000000000000000023000000000000000000000000
#04655:00000000000000630000000000000000
#04658:0000000000000000000000000000000000000023000000000000000000000000
#0465b:00000000000000630000000000000000
#04852:16
#0485b:0000000000000000000000000000000000000023000000000000000000000000
#04857:00000000000000530000000000000000
#04755:00000000000000000000005300000000
#04958:00000063000000005300000033000000
#0495b:0000000000230000
#04955:0000000000230000
#04952:00005333
#0515a:0064
#05156:0000000000240024
#05152:00000054
#05252:00630000000000000000000000000000
#05258:16000063000000000000000000000000
#0525b:0063
#05255:0063
#0535b:00630000000000000000000013000000
#05355:00000063000000000000000013000000
#05352:0063
#05358:0063
#05655:00530000000000000000000000000000
#05658:16000063000000005300000000000000
#05652:0053
#05758:00630000000000000000000013000000
#05755:00000053000000006300000000000000
#0575b:0063
#05752:00000013
#05452:00630000000000000000000000000000
#05458:00000063000000000000000000000000
#0545b:00000000000000000053000000000000
#05455:00000000000000000000005300000000
#05855:00530000000000000000000013000000
#05858:00000063000000005300000000000000
#05852:0053
#0585b:00000013
#0605b:00530000
#06057:00000000000000000000006300000000
#06052:16
#06058:16
#0615b:00000000000000000053000000000000
#06155:00000000000000000000005300000000
#06252:53330000
#06257:53000000000000000000005300000000
#06256:0023000000000000
#0625b:0023000000000000
#06358:1616
#06352:00160000
#0645b:63430000
#06456:63000000000000000000006300000000
#06452:0023000000000000
#06457:0023000000000000
#06652:1600000000000000000000000000000000000023000000000000000000000000
#06655:00000000000000530000000000000000
#0665b:00000000000000530000000000000000
#06658:0000000000000000000000000000000000000023000000000000000000000000
#06756:5400005400540000
#0675a:0024001400002400
#06752:1400000000140000
#06852:00630000000000000000230000000000
#06858:16000063000000000000230000000000
#0685b:0063
#06855:0053
#0695b:00630000000000000000230000000000
#06955:00000063000000000000230000000000
#06952:00006333
#06958:00005333
#07255:00530000000000000000230000000000
#07258:16000063000000005300000000000000
#0725b:0000000000230000
#07252:0053
#07358:00630000000000000000230000000000
#07355:00000053000000006300000043000000
#07352:0000000000230000
#0735b:00005343
#07052:00630000000000000000230000000000
#07058:00000063000000000000230000000000
#0705b:0063
#07055:0053
#07455:00530000000000000000230000000000
#07458:00000063000000005300000000000000
#0745b:0000000000230000
#07452:0053
#07558:00000062000000000000000000000000
#07556:0052
#0755c:0052
#0715a:00000000000000001400002400000000
#07152:14
#00058:0052
#00156:0062
#00258:0052
#0045c:0062
#0065c:0062
#00552:0052
#00858:16
#00855:0053000053000000
#0085b:00000000005300000000005300000000
#00958:0063000063000000
#00952:00000000006300000000006300000000
#04358:0016
#06552:53000000000000530000330000000000
#06558:5300000000000000000000000000000000230000000000000000000000000000
#0655b:00002300000000530000430000000000
#06555:0000000000000000530000000000000000230000000000000000000000000000
#01055:0053000053000000
#01058:00000000006300000000006300000000
#02758:00000053000000000000000000000000
#04258:16
#04252:0016
#05952:00002216
#05958:00000016
#01952:00000000000000000000002400000000
#0555a:00000000000000000000002400000000
#0355b:53
#01252:16
#01258:16
#05052:0000000000000000000000000000000000000023000000000000000000000000
#05056:00000000000000630000000000000000
#05058:16
#000350:12
#001320:22
#000381:0012
#0003b1:00000022
#001391:12
#0023c1:22
#001360:0012
#001330:00000022
#002350:12
#003320:22
#002381:0012
#0023b1:00000022
#003391:12
#0033c1:00000022
#004321:12
#005361:22
#0043c0:0012
#004390:00000022
#0053c0:12
#006380:22
#005321:0012
#005351:00000022
#006361:12
#007321:22
#0063c0:0012
#006390:00000022
#008351:0013000000000000
#008321:00000000002300000000000000000000
#0083b0:00000000001300000000000000000000
#008380:0023
#008351:0013
#008321:00000000000000000000002300000000
#0083b0:00000000000000000000001300000000
#008380:0000000000000023
#009380:0013000000000000
#0093b0:00000000002300000000000000000000
#009321:00000000001300000000000000000000
#009351:0023
#009380:0013
#0093b0:00000000000000000000002300000000
#009321:00000000000000000000001300000000
#009351:0000000000000023
#010351:0013000000000000
#010321:00000000002300000000000000000000
#010380:00000000001300000000000000000000
#0103b0:0023
#010351:0013
#010321:00000000000000000000002300000000
#010380:00000000000000000000001300000000
#0103b0:0000000000000023
#0133b0:1323000000000000
#014320:1323000000000000
#0153a0:1424000000000000
#0163b0:00130000000000000000000000000000
#016380:00000023000000000000000000000000
#016351:00000013000000000000000000000000
#016321:0000002300000000
#016321:0013
#016351:00000023
#016380:0013
#0163b0:00000023
#017320:00130000000000000000000000000000
#017350:00000023000000000000000000000000
#017381:00000013000000000000000000000000
#0173b1:0000002300000000
#0173b1:0013
#017381:00000023
#017350:0013
#017320:00000023
#0183b0:00130000000000000000000000000000
#018380:00000023000000000000000000000000
#018351:00000013000000000000000000000000
#018321:0000002300000000
#018321:0013
#018351:00000023
#018380:0013
#0183b0:00000023
#019320:1424000000000000
#0193a0:0000142400000000
#019320:00000000000000000000001400000000
#019360:0000000000000024
#020380:00130000000000000000000000000000
#0203b0:00000023000000000000000000000000
#020351:00000013000000000000000000000000
#020321:0000002300000000
#0203b1:0013
#020381:00000023
#020350:0013
#020320:00000023
#021350:00130000000000000000000000000000
#021320:00000023000000000000000000000000
#021381:00000013000000000000000000000000
#0213b1:0000002300000000
#021321:0013
#021351:00000023
#021380:0013
#0213b0:00000023
#022380:00130000000000000000000000000000
#0223b0:00000023000000000000000000000000
#022351:00000013000000000000000000000000
#022321:0000002300000000
#0223b1:0013
#022381:00000023
#022350:0013
#022320:00000023
#023350:00130000000000000000000000000000
#023320:00000023000000000000000000000000
#023381:00000013000000000000000000000000
#0233b1:0000002300000000
#023321:0013
#023351:00000000000000000033333323000000
#023380:0013
#0233b0:00000000000000000033333323000000
#0243b0:0013
#024380:00000000000000000000002300000000
#024351:00000000000000000000001300000000
#024321:0000000000000023
#0253b1:13
#025381:00000023000000000000000000000000
#025350:00000013000000000000000000000000
#025320:0000002300000000
#0253b0:0013
#025380:00000023
#025351:0013
#025321:00000023
#026321:13
#026351:00000023000000000000000000000000
#026380:00000013000000000000000000000000
#0263b0:0000002300000000
#026350:00001323
#026320:0000000000530000
#027380:00000013000000000000000000000000
#0273b0:0000002300000000
#028320:0013
#028350:00000000000000000000002300000000
#028381:00000000000000000000001300000000
#0283b1:0000000000000023
#029381:00000013000000000000000000000000
#0293b1:0000002300000000
#029321:0013
#029351:00000023
#029380:0013
#0293b0:00000023
#0303b0:13
#030380:00000023000000000000000000000000
#030351:00000013000000000000000000000000
#030321:0000002300000000
#030381:0013
#0303b1:00000000000000000000002300000000
#030320:00000000000000000000001300000000
#030350:0000000000000023
#0313b0:13230000
#031380:0053000000000000
#031321:13230000
#031351:0053000000000000
#032381:0013
#0323b1:00000000000000000000002300000000
#0333b1:13
#033381:00000023000000000000000000000000
#033381:00001323
#0333b1:0000000000530000
#0343b1:13
#034381:00000023000000000000000000000000
#034381:0013
#0343b1:00000023
#0353b1:13
#035381:00000023000000000000000000000000
#036351:0013
#036321:00000000000000000000002300000000
#037321:13
#037351:00000023000000000000000000000000
#037351:00001323
#037321:0000000000530000
#038321:13
#038361:00000023000000000000000000000000
#0383b1:0013
#038371:00000000000000000000002300000000
#0403b1:00000000000000000000001300000000
#040381:0000000000000023
#041321:00000000000000000000001300000000
#041351:0000000000000023
#043381:1626000000000000
#043320:0016260000000000
#043381:0000162600000000
#043320:0000001626000000
#044380:00000000000000130000000023000000
#0443b0:0000000000000000000000000000000000000053000000000000000000000000
#044321:00000000000000130000000023000000
#044351:0000000000000000000000000000000000000053000000000000000000000000
#045351:00000013000000000000000000000000
#045321:0000002300000000
#045351:00001323
#045321:0000000000530000
#0453b0:00001323
#045380:0000000000530000
#046350:00000000000000130000000023000000
#046320:0000000000000000000000000000000000000053000000000000000000000000
#0463b1:00000000000000130000000023000000
#046381:0000000000000000000000000000000000000053000000000000000000000000
#047351:00000000000000000000001300000000
#047321:0000000000000023
#048321:00000000001300230000000000000000
#048370:00000000000000130000000023000000
#0483b0:0000000000000000000000000000000000000053000000000000000000000000
#0483b0:0000000000000013
#0493b0:23
#049380:00000013000000000000000000000000
#0493b0:0000002300000000
#049380:00001323
#0493b0:0000000000530000
#049321:00001323
#049351:0000000000530000
#0503b1:00000000001300230000000000000000
#050360:00000000000000130000000023000000
#050320:0000000000000000000000000000000000000053000000000000000000000000
#050320:0000000000000013
#051320:23
#0513a0:00001424
#051360:0000000000540000
#051321:00000014
#051361:0000000000000054
#052321:24
#052321:00130000000000000000000000000000
#052351:00000023000000000000000000000000
#052380:00000013000000000000000000000000
#0523b0:0000002300000000
#0523b0:0013
#052380:00000023
#052351:0013
#052321:00000023
#0533b1:00130000000000000000000000000000
#053381:00000023000000000000000000000000
#053350:00000013000000000000000000000000
#053320:0000002300000000
#053320:0013
#053350:00000023
#053381:0013
#0533b1:00000023
#054321:00130000000000000000000000000000
#054351:00000023000000000000000000000000
#054380:00000013000000000000000000000000
#0543b0:0000002300000000
#0543b0:00000000000000000013000000000000
#054380:00000000000000000000002300000000
#054351:00000000000000000000001300000000
#054321:0000000000000023
#0553a1:1424000000000000
#055321:0000142400000000
#0553a1:00000000000000000000001400000000
#055361:0000000000000024
#056351:00130000000000000000000000000000
#056321:00000023000000000000000000000000
#056380:00000013000000000000000000000000
#0563b0:0000002300000000
#056320:0013
#056350:00000023
#056381:0013
#0563b1:00000023
#057381:00130000000000000000000000000000
#0573b1:00000023000000000000000000000000
#057350:00000013000000000000000000000000
#057320:0000002300000000
#0573b0:0013
#057380:00000023
#057351:0013
#057321:00000023
#058351:00130000000000000000000000000000
#058321:00000023000000000000000000000000
#058380:00000013000000000000000000000000
#0583b0:0000002300000000
#058320:0013
#058350:00000023
#058381:0013
#0583b1:00000023
#059361:00000012000022000000000000000000
#059321:00001226
#0603b1:00130000
#060371:0023
#060371:00000000000000000000001300000000
#0603b1:0000000000000023
#0613b1:00000000000000000013000000000000
#061381:00000000000000000000002300000000
#061350:00000000000000000000001300000000
#061320:0000000000000023
#062320:13230000
#062360:0053000000000000
#062371:13230000
#0623b1:0053000000000000
#062371:00000000000000000000001300000000
#0623b1:0000000000000023
#0643b1:13230000
#064371:0053000000000000
#064360:13230000
#064320:0053000000000000
#064360:00000000000000000000001300000000
#064320:0000000000000023
#065320:13000000000000330000230000000000
#065350:0000000000000000330000000000000000530000000000000000000000000000
#065381:13230000
#0653b1:0053000000000000
#0653b1:00000000000000130000230000000000
#065381:0000000000000000000000000000000000530000000000000000000000000000
#066351:00000000000000130000000023000000
#066321:0000000000000000000000000000000000000053000000000000000000000000
#0663b0:00000000000000130000000023000000
#066380:0000000000000000000000000000000000000053000000000000000000000000
#067360:14240000
#0673a0:0054000000000000
#067360:0000001400000000
#067320:0000000054240000
#067361:0000000000140024
#0673a1:00000054
#068321:00130000000000000000000000000000
#068351:00000023000000000000000000000000
#068380:00000013000000000000000000000000
#0683b0:0000002300000000
#0683b0:00001323
#068380:0000000000530000
#068351:00001323
#068321:0000000000530000
#0693b1:00130000000000000000000000000000
#069381:00000023000000000000000000000000
#069350:00000013000000000000000000000000
#069320:0000002300000000
#069320:00001323
#069350:0000000000530000
#069381:00001323
#0693b1:0000000000530000
#070321:00130000000000000000000000000000
#070351:00000023000000000000000000000000
#070380:00000013000000000000000000000000
#0703b0:0000002300000000
#0703b0:00001323
#070380:0000000000530000
#070351:00001323
#070321:0000000000530000
#0713a1:1424000000000000
#071321:0000142400000000
#0713a1:00000000000000000000001400000000
#071361:0000000000000024
#072351:00130000000000000000000000000000
#072321:00000023000000000000000000000000
#072380:00000013000000000000000000000000
#0723b0:0000002300000000
#072320:00001323
#072350:0000000000530000
#072381:00001323
#0723b1:0000000000530000
#073381:00130000000000000000000000000000
#0733b1:00000023000000000000000000000000
#073350:00000013000000000000000000000000
#073320:0000002300000000
#0733b0:00001323
#073380:0000000000530000
#073351:00001323
#073321:0000000000530000
#074351:00130000000000000000000000000000
#074321:00000023000000000000000000000000
#074380:00000013000000000000000000000000
#0743b0:0000002300000000
#074320:00001323
#074350:0000000000530000
#074381:00001323
#0743b1:0000000000530000
#075381:00000012000000000000000000000000
#0753c1:0000002200000000
#0753c1:0012
#075381:0000000000000022
#075360:0012
#075320:0000000000000022
