This file was generated by Ched 2.7.0.0.
#TITLE ""
#ARTIST ""
#DESIGNER ""
#DIFFICULTY 0
#PLAYLEVEL
#SONGID ""
#WAVE ""
#WAVEOFFSET 0
#JACKET ""
#REQUEST "ticks_per_beat 480"
#00002: 4
#BPM01: 140
#00008: 01
#TIL00: ""
#HISPEED 00
#MEASUREHS 00
#01615:00130000000000001300000000000000
#01618:23000013000000000000000000001300
#01610:41
#01715:13000013000000000000000000000000
#01718:00130000000000001300000000000000
#01815:13000013000000000000000000001300
#0181b:00130000000000000000000000000000
#01818:0013
#0191b:0013000000000000
#01915:00130000
#01918:0000001300000000
#01912:23000000000000002400002400000000
#0191a:0000000000240000
#02018:23000013000000000000000000000000
#02012:0013
#02015:00130000000000000000000000000000
#0201b:0000000000000013
#0211b:0013
#02115:13000013000000000000000000000000
#02118:00130000000000000000000000000000
#02418:2600001300000000
#02415:00130000
#02410:41
#02515:00000000000000001300000000000013
#02518:0000000000000013
#02618:1300001300000000
#02615:00000013000000000000000000000000
#02612:0013
#0261b:0000000000000013
#02715:1300001300000000
#02718:00000013000000000000000000000000
#0271b:0013
#03112:13
#03118:0000001313000000
#03115:00000000000000130000000000000000
#04015:00001300000000001300001300000000
#04018:0000130000130000
#0401b:2300001300000000
#04012:13
#0411b:13
#04118:00001300000000001300001300000000
#04115:0000130000130000
#04112:1300001300000000
#04218:0013001300130000
#04215:00000000130000000000001300000000
#04212:1313
#0421b:1313
#04415:00001300001300000000000000001300
#04418:00000000130000000000000000000013
#0441b:23000000000000130000000000000000
#04412:23
#0441f:21
#04515:13
#04518:00130000000000001300000000000000
#04512:00000013000000000000000000000000
#04510:41
#04618:00000000130000130000000000000000
#04615:00001300001300000000000000000000
#04612:2300000000000016
#0461b:23
#04712:0000261600160000
#04718:26001600000000002600001600000000
#04818:00001300001300000000000000001300
#04815:00000000130000000000000000000013
#04812:23000000000000130000000000000000
#0481b:23
#04918:13
#04915:00130000000000001300000000000000
#0491b:00000013000000000000000000000000
#05015:00000000130000130000000000000000
#05018:00001300001300000000000000001300
#05012:23
#0501b:23
#05115:13
#0511b:00130000000000000000000000000000
#05112:00000013000000000000000000000000
#05118:0023
#05215:00130000000000001300000000000000
#0521b:23000013000000000000000000001300
#05312:13000013000000000000000000000000
#05318:00130000000000001300000000000000
#05512:0013000000240000
#05515:0000001300000000
#0551a:0024
#05517:00000000000000000000002400000000
#0551b:23
#05518:00230000
#05418:13000013000000000013000000000000
#05415:00130000000000001300001300000000
#05912:00000013000000000000240024000000
#05918:00130000000000000000000000000000
#05915:13
#0591a:0000000000242400
#05916:0024
#05815:00130000000000001300000000000000
#05818:13
#0581b:00000013000000000000000000001300
#0571b:00130000000000000000000000000000
#05715:1300000000000013
#05718:0013
#05712:00000013000000000000000000000000
#05612:00130000000000000000000000000000
#05615:0013
#0561b:00000013000000000000000000000000
#05618:2300000000000013
#06012:00000000130000000000001300000000
#06015:0013
#06018:00000000000000000013000000000000
#0601b:00130000
#06010:41
#0611b:13000000000000000000001300000000
#06118:0013000013000000
#06115:00000000130000000013000000000000
#06112:0000001300000000
#06215:13
#06212:00000013000000000000130000000000
#06218:00000000000000001300001300000000
#06412:1300001300000000
#0641b:0013000013000000
#06415:0013000000130000
#06418:13000000000000000000001300000000
#06512:14000000000000140000000000000000
#06516:0000000000000014340000000000000000000000000000000000000000000000
#06612:13000000001300000000000000000000
#06615:0013000000000000
#06618:00000013000000130000000000000000
#0661b:1300000000000000000000000000000000000000001300000000000000000000
#00015:00130000
#00018:13
#00812:00130013
#00818:0013
#00810:41
#00915:13
#0091b:13
#00918:00130013
#00912:0013
#01012:13
#0101b:13
#01015:00130013
#01018:0013
#01112:13
#01118:13
#0111b:00130000
#0121b:00130000
#01218:0013
#01215:00000013
#01212:26
#01312:13000013
#0131b:13
#01318:00130000
#01315:0013
#01412:00130000
#01415:1313
#01418:00000013
#0141b:13
#01515:00130000
#01512:1324
#0151b:13
#0151a:0024
#03218:00130000
#03215:0000001300000000
#03212:26
#03210:41
#03318:00000000000000001300000000000013
#03312:0013
#03315:0000000000000013
#0341b:0013
#03415:0000000000000013
#0351b:13
#03515:0013000000000000
#03518:00000013000000000000000000000000
#03516:0014
#03512:0000000000140000
#0351a:0000000000140000
#03615:00130000
#03618:2600001300000000
#03715:00000000000000001300000000000013
#0371b:0013
#03718:0000000000000013
#03918:13
#0391b:00000013000000000000000000000000
#03916:00000014
#03912:0014
#0391a:0000000000140000
#06818:00130000000000002300000000000013
#06812:23000013000000000000000000001300
#0681b:0000000000130000
#06918:00130000000000000000130000000000
#06915:00000013000000000000000000000000
#06912:23
#0691b:0023
#07015:13000013000000000000000000001300
#07018:00130000000000001300000000000000
#07118:0013001300240000
#07115:00130000
#07112:2323
#07114:00000000000000000000002400000000
#0711b:2323
#07519:12
#07515:00120000000000000000000000000000
#07415:0013000000130013
#07418:00132300
#0741b:2300001300000000
#07412:23000013
#00118:00130000
#00115:13
#0021b:13
#00218:00130000
#00215:0013
#00212:00000013
#00315:00130000
#00312:13
#00318:0013
#0031b:00000013
#00418:00130000
#00415:13
#00515:00130000
#00518:13
#00612:13
#00615:00130000
#00618:0013
#0061b:00000013
#02215:13000013000000000000000000000000
#0221b:0013
#02218:00130000000000000000000000000000
#02212:0000000000000013
#02312:0013
#02318:13000013000000000000000000000000
#02315:00130000000000000000000000000000
#02815:0000001300000000
#02818:00130000
#02812:26
#02918:00000000000000001300000000000013
#02915:0000000000000013
#03012:0000001300000000
#03018:00000013000000000000000000001300
#0301b:0013
#03015:23000000000000000000001300000000
#0721b:13000013000000000000000000001300
#07215:00130000000000002300000000000013
#07212:0000000000130000
#0731b:13
#07315:00130000000000000000130000000000
#07318:00000013000000000000000000000000
#07312:0023
#00712:13
#0071b:13
#00715:00000000000000002600002600002600
#06318:0000260000160016
#06312:26002616
#0381f:11
#04318:26262600
#04312:0026002600000000
#06712:23
#0671b:2300002300000023
#06715:0023002300000000
#06718:00230000
#01658:00000053000000000000000000000000
#01655:0063
#01755:00000063000000000000000000000000
#01758:0053
#0175b:00000013
#01855:00000063000000000000000000000000
#01858:0053
#02058:00000053000000000000000000000000
#02052:0053
#0215b:0063
#02158:00000013
#02155:00000063000000000000000000000000
#02555:0063
#02652:0063
#02458:16
#03158:0063
#03152:63
#03252:16
#04055:00000000000000000000005300000000
#04158:00000000000000000000006300000000
#04255:00000000000000000000005300000000
#04358:0016
#0445b:00000000000000530000000000000000
#04552:00000053000000000000000000000000
#04558:0053
#0455b:00000013
#04658:00000000000000630000000000000000
#04758:00000000000000000000001600000000
#04852:00000000000000630000000000000000
#0495b:00000063000000000000000000000000
#04955:0063
#04952:00000013
#05055:00000000000000530000000000000000
#05152:00000053000000000000000000000000
#0515b:00000013
#05158:0053
#0525b:00000063000000000000000000000000
#05255:0063
#05352:00000053000000000000000000000000
#05358:0053
#0535b:00000013
#05458:00000053000000000000000000000000
#05455:00000000000000000000006300000000
#0575b:00000013
#05758:0053
#05752:00000053000000000000000000000000
#05952:00000053000000000000000000000000
#05855:0063
#0585b:00000063000000000000000000000000
#05852:00000013
#05655:0063
#0565b:00000063000000000000000000000000
#06052:14000000000000000000005300000000
#0605a:14
#0615b:00000000000000000000006300000000
#06255:53
#06258:00000000000000000000005300000000
#06252:00000023000000000000000000000000
#06352:1616
#06358:00160000
#06458:53000000000000000000005300000000
#06452:53
#06455:0023000000000000
#0645b:0023000000000000
#06658:00000000000000530000000000000000
#0665b:0000000000000000000000000000000000000000002300000000000000000000
#00855:16
#03358:0053
#03352:0053
#0345b:0053
#03558:00000063000000000000000000000000
#03755:0063
#0375b:0063
#03958:53
#0395b:00000023000000000000000000000000
#03956:00000014
#06852:00000053000000000000000000000000
#0685b:0000000000230000
#06858:0053
#07055:00000063000000000000000000000000
#07058:0063
#06955:00000053000000000000000000000000
#06958:0000000000230000
#0695b:00005343
#01952:00000000000000000000006400000000
#07154:00000000000000000000005400000000
#06556:0000000000000024000000000000000000000000140000000000000000000000
#06552:54000000000000540000000000000000
#02255:00000063000000000000000000000000
#0225b:0063
#02352:0053
#02358:00000053000000000000000000000000
#02355:00000013
#0275b:0053
#02958:0053
#05557:00000000000000000000005400000000
#0725b:00000063000000000000000000000000
#07252:0000000000230000
#07255:0053
#07358:00000063000000000000000000000000
#07355:0000000000230000
#07352:00005333
#01252:16
#02852:16
#03658:16
#06755:0000005300000000
#0675b:0000005300000000
#0003b0:00001323
#001320:00001323
#004320:00001323
#0053b0:00001323
#007350:0000000000000016
#008350:26
#011320:00001424
#0113a1:00001424
#015321:00001424
#0153a0:00001424
#016380:00000013000000000000000000000000
#0163b0:0000002300000000
#016350:0013
#016320:00000023
#017350:00000013000000000000000000000000
#017320:0000002300000000
#017380:0013
#0173b0:00000023
#018350:00000013000000000000000000000000
#018320:0000002300000000
#018380:0013
#0183b0:00000023
#019320:00000000000000000000001400000000
#019350:0000000000000024
#020380:00000013000000000000000000000000
#0203b0:0000002300000000
#020320:0013
#020350:00000023
#021350:00000013000000000000000000000000
#021320:0000002300000000
#0213b0:0013
#021380:00000023
#022350:00000013000000000000000000000000
#022320:0000002300000000
#0223b0:0013
#022380:00000023
#023380:00000013000000000000000000000000
#0233b0:0000002300000000
#023320:0013
#023350:00000023
#024350:0000000013000023
#024320:00000000000000000000003300000000
#025380:1300002300000000
#0253b0:00000033000000000000000000000000
#025350:0013
#025320:00000023
#026320:0013
#026350:00000023
#0273b0:0013
#027380:00000023
#028380:0000000013000023
#0283b0:00000000000000000000003300000000
#029350:1300002300000000
#029320:00000033000000000000000000000000
#029380:0013
#0293b0:00000023
#031320:13
#031350:00230000
#031380:0013
#0313b0:00000023
#032320:0013
#032350:00000000000000000000003300002300
#032381:0013
#0323b1:00000000000000000000003300002300
#0333b1:13
#033381:00000033000023000000000000000000
#033350:13
#033320:00000033000023000000000000000000
#033320:0013
#033350:00000023
#033381:0013
#0333b1:00000023
#034321:1300002300000000
#034351:00000033000000000000000000000000
#0343b1:0013
#034381:00000023
#035381:00000013000000000000000000000000
#0353b1:0000002300000000
#0363b1:0013
#036381:00000000000000000000003300002300
#036350:0013
#036320:00000000000000000000003300002300
#037320:13
#037350:00000033000023000000000000000000
#037381:13
#0373b1:00000033000023000000000000000000
#0373b1:0013
#037381:00000023
#037350:0013
#037320:00000023
#0383b0:1300002300000000
#038380:00000033000000000000000000000000
#038350:0000000013000023
#038320:00000000000000000000003300000000
#039380:1300002300000000
#0393b0:00000053000000000000000000000000
#040350:00000000000000000000001300000000
#040320:0000000000000023
#041380:00000000000000000000001300000000
#0413b0:0000000000000023
#042350:00000000000000000000001300000000
#042320:0000000000000023
#0443b0:00000000000000130000000000000000
#044380:00000023
#045320:00000013000000000000000000000000
#045350:0000002300000000
#045380:0013
#0453b0:00000023
#046380:00000000000000130000000000000000
#0463b0:00000023
#048320:00000000000000130000000000000000
#048350:00000023
#0493b0:00000013000000000000000000000000
#049380:0000002300000000
#049350:0013
#049320:00000023
#050350:00000000000000130000000000000000
#050320:00000023
#051320:00000013000000000000000000000000
#051350:0000002300000000
#051380:0013
#0513b0:00000023
#0523b0:00000013000000000000000000000000
#052380:0000002300000000
#052350:0013
#052320:00000023
#053320:00000013000000000000000000000000
#053350:0000002300000000
#053380:0013
#0533b0:00000023
#054380:00000013000000000000000000000000
#0543b0:0000002300000000
#054350:00000000000000000000001300000000
#054320:0000000000000023
#055370:00000000000000000000001400000000
#0553a0:0000000000000024
#0563b0:00000013000000000000000000000000
#056380:0000002300000000
#056350:0013
#056320:00000023
#057320:00000013000000000000000000000000
#057350:0000002300000000
#057380:0013
#0573b0:00000023
#0583b0:00000013000000000000000000000000
#058380:0000002300000000
#058350:0013
#058320:00000023
#059320:00000013000000000000000000000000
#059350:0000002300000000
#059320:00000014
#060320:24
#0593a1:00000014
#0603a1:24
#060321:00000000000000000000001300000000
#060351:0000000000000023
#0613b1:00000000000000000000001300000000
#061381:0000000000000023
#062351:1300002300000000
#062321:00000053000000000000000000000000
#062381:00000000000000000000001300000000
#0623b1:0000000000000023
#064381:13230000
#0643b1:0053000000000000
#064320:13230000
#064350:0053000000000000
#064380:00000000000000000000001300000000
#0643b0:0000000000000023
#065320:14000000000000340000000000000000
#065360:0000000000000054340000000000000000000000240000000000000000000000
#066380:00000000000000130000000000002300
#0663b0:0000000000000000000000000000000000000000005300000000000000000000
#067350:0000001300000000
#067320:0000000000230000
#0673b1:0000001300000000
#067381:0000000000230000
#068321:00000013000000000000000000000000
#068351:0000002300000000
#068381:00001323
#0683b1:0000000000530000
#069351:00000013000000000000000000000000
#069321:0000002300000000
#0693b1:00001323
#069381:0000000000530000
#070351:00000013000000000000000000000000
#070321:0000002300000000
#070381:0013
#0703b1:00000023
#071341:00000000000000000000001400000000
#071321:0000000000000024
#0723b1:00000013000000000000000000000000
#072381:0000002300000000
#072351:00001323
#072321:0000000000530000
#073381:00000013000000000000000000000000
#0733b1:0000002300000000
#073321:00001323
#073351:0000000000530000
#075391:00000012000022000000000000000000
#075351:0000000012000022
