This file was generated by Ched 2.7.0.0.
#TITLE ""
#ARTIST ""
#DESIGNER ""
#DIFFICULTY 0
#PLAYLEVEL
#SONGID ""
#WAVE ""
#WAVEOFFSET 0
#JACKET ""
#REQUEST "ticks_per_beat 480"
#00002: 4
#BPM01: 140
#00008: 01
#TIL00: ""
#HISPEED 00
#MEASUREHS 00
#0161b:00000013000000000000000000000000
#01618:0000000000000000001300000000130000000000000000000000000000001300
#0161a:00000000000000000014000014000000
#01612:00000000000013000000001400001300
#01616:00130000000000000000140000000000
#01615:00131300
#01619:25
#01610:41
#00018:12120000000000000000000000001200
#0001c:0012
#00016:0012
#00012:12000000000000000000000000000012
#00118:0012
#0011c:12
#00116:00120000000000000000000000000000
#00112:0012
#00218:12120000000000000000000000000000
#0021c:0012
#00216:0012
#00212:12
#00214:0000000000000012
#0021a:0000000000000012
#0031c:1212
#00312:00000000120000000000121200000000
#00318:0000001200000000
#00314:0012000000000000
#00316:12
#00416:12000000000000000000000000000012
#0041c:12120000000000000000000000001200
#00412:0012
#00418:0012
#02015:00000000130000001300000000000013
#0201a:24000000000000000014000014000000
#02012:0000001300140000
#02016:00130000000000000000001400000000
#02018:00000013000000130000000000000000
#0201b:0000000000000000001300000000000000000000000000000000000013000000
#01812:13000013000000000014000014000000
#01815:0000000000000000001300000000130000000000000000000000000000000000
#0181a:00000000000000000000001400000000
#01816:0000000000140014
#01818:00131300
#0181b:0000001300000000
#01817:00130000000000000000000000000000
#01715:13000000000013130000000000000000
#0171b:00130000000000000000000000000000
#01717:00130000
#01712:00000013000000000014000016000000
#0171a:0014
#01716:0000000000140000
#01718:0000000000000016
#02118:13000000000013130000000016000000
#02112:00130000000000001400000000001600
#02116:0000130000140000
#0211b:00000013000000000000000000000013
#0211a:00000000000000000014000000000000
#02218:00131300
#02212:1300000000000000001300000000000000001400000000001400000000001400
#0221a:0000000000140014
#02216:00000000000000000000001400000000
#02215:00000013000000130000000000000000
#0221b:0000001300000000
#02217:00130000000000000000000000000000
#0191a:2414000024000000
#01916:00000014000000140000000024002400
#01912:0000141400140014
#02316:00140000003400000000000000140000
#02312:000000000000000000140000140000000000000000140000000016000000160000000000140000000000000000000000
#0231a:00000000140000000000001400001400
#02318:000000000000161600000000
#02317:00000000000000000000000000000014
#00712:00000000000000001400002800001c1c
#0071a:00000000000000000000001400000000
#00716:0028
#00818:2616130000130000
#0081b:00000000000000130000000000130000
#00812:2616000000000000
#00810:41
#00918:1316000000000000
#00915:0000130000130000
#00912:00001600000000130000000000130000
#0111b:1313000013000013
#01112:00000000130013000013001300000000
#01118:0000000000131300
#01115:00160016001600160000000000130013
#01215:0000130013130013
#0121b:13000000001300130000001300130000
#01212:2613000000000000
#01318:0000130013130013
#01312:13000000001300130000001300130000
#0131b:0013000000000000
#01415:0000130013130013
#01418:13000000001300130000001300130000
#01412:0013000000000000
#01516:14001414000000000000001400001400
#01512:000000000000000000000000000000000000140000000000260000001600000000000000000000140000000000140000
#0151a:00000000140000140000140024000000
#01518:000000000000000000000000001600000000000000000000
#02412:2413
#02417:0013
#02416:00000000130013000000001300000000
#0241b:00000000000000000000001300000000
#0241a:24
#02410:41
#0251b:1300000000130013
#02516:13000000000000000000130000000013
#02517:00000013000000001300000000000000
#02512:00000013000000001300000000000000
#0261b:1300001300130000
#02612:00000013000000001300000013000000
#02617:0000000013000013
#02712:130000000000130000130000000000000000000016000000160000000000000000140000000000000000140000000000
#0271b:13
#02718:000000000000000000130000000000000000160000001600000000000000000000000000000000000000000000000000
#0271a:00000000000000000014000014000014
#02716:00000000000000000000140000140000
#0281b:0013
#02816:0013
#02817:00000000130013000000001300000000
#02812:2c000000000000000000001300000000
#02912:1300000000130013
#02917:13000000000000000000130000000013
#02916:00001313000000001300000000000000
#0291b:00000013000000001300000000000000
#0301a:1424
#03012:24001313000000001400000000000000
#03016:00000014000014000000001400001400
#0301b:00000000000000000000131300000000
#03118:0000001626160000
#0311b:13000013000000000000000000000000
#03116:13000013000000000000000000000000
#03112:00130000000000160000000026001600
#03114:0013000000000000
#03117:00130000000000000000000000000000
#03119:0013000000000000
#03215:0000000000130000
#0321b:00000000000000000000001300000000
#03217:0013
#03212:2c231323
#03216:0000001300000000
#03214:0000000000000013
#03210:41
#03317:00000013000000001300000000000000
#0331b:1300000000130000
#03314:0013000000000000
#03312:13231323
#03315:0000001300000013
#03316:0000000000130000
#03318:00000000000000000000000000000013
#03412:13230023
#03415:00001300000013000000130000000013
#03417:0013
#0341b:1300000000130000
#03418:0000000000000013
#03512:13000000230000000014000014000014
#03515:0013000000000000
#03518:1316
#03516:00000000000014000000140000140000
#0351a:00000000000000000000001400001400
#03618:0000000000130000
#03612:2c000000000000000000001300000000
#03616:0013
#0361b:00231323
#03617:0000001300000000
#03619:0000000000000013
#03716:00000013000000001300000000000000
#03712:1300000000130000
#03719:0013000000000000
#0371b:13231323
#03718:0000001300000013
#03715:00000000000000000000000000000013
#03717:0000000000130000
#0381b:1313
#03818:00001300160000130000000000001300
#03812:13001316
#03815:00000000000013000000130000000013
#0381f:11
#03918:160000001600000000000000000000140000000000000000000000000000160000000000000000130000000000000000
#03912:0016000000001400000000001c0000130000160000160000
#0391b:0000000000000013
#03914:0000001400000000
#0391a:00000000000000140000000000000000
#04318:1626162616000000
#04312:2600160026001600261916131c191613
#04015:00001600000000000000001300000000
#04012:2c131300
#04016:0000001300000000
#0401b:00000000000000000000130000131300
#04018:00000000000000000000001300000000
#04115:00001600000000000000001300000000
#0411b:00131300
#04117:0000001300000000
#04112:1c000000000000000000130000131300
#04118:00000000000000000000001300000000
#0421a:0014000000000000
#04212:1c00000014000016
#04215:0000000000161600
#0421b:00000000000000000000001300000013
#04218:00000000000000000000000000130000
#05218:26000000000000130000000000000013
#0521a:00000000000000000014000000000000
#05212:00000000130000000000001400001300
#05216:00130000000000000000140014000000
#05215:0013
#05217:00000013000000000000000000000000
#05412:1300000000000000001300000000000000000000000000001300000000000000
#05416:00000013000000140013000000000014
#0541b:0000000000000000130000000000000013000000000000000013000000000000
#05417:00130000000000000000001300000000
#05315:13000000000013130000000000000000
#0531b:00130000000000000000000000000000
#05317:00130000
#05312:00000013000000000014000014000000
#0531a:0014
#05316:0000000000140000
#05318:0000000000000016
#0561b:0000130000000013
#05615:00000000000000130000000000000013
#05612:24000000000000000014000000000000
#0561a:00000000000000000000001400000000
#05616:00000013000000000000140014000000
#05618:0013
#05617:00130000000000000000000000000000
#05718:13000000000013130000000000000000
#05712:00130000000000001400000000001600
#05716:0000130000140000
#0571b:00000013000000000000000000000013
#0571a:00000000000000000014000014000000
#05818:0000130013000016
#05812:13000013000000000014000014001600
#05812:00000013000000000000000000000000
#0581a:0000000000141400
#05816:00000000000000000000001400000000
#05815:00000000000000130000000000000000
#05817:00130000000000000000000000000000
#05516:00001414000014140000000024002400
#0551a:0000240000240014
#05512:24002424
#0441a:0000000014000000000014000000000000000014000000000000000000001400
#04416:0000000000000000140000000000140000000013000000000000000014000000
#04412:2c000000001300130000000000000000
#0441f:21
#04512:00000013000000001300000000000000
#04516:00140000000000001400130000000000
#0451a:0000001400140000
#04510:41
#04716:1413240000000000
#0471a:0000001400000000
#04712:23132600
#04717:0000000000130000
#0471b:00000000000000000000001300000000
#04718:0026
#04812:2500140014130013
#04816:0013000000000000
#04818:00000000131300000000000000000000
#0481b:00000000000000130000000000000000
#0481a:00000000000000000000001414000000
#04817:0000000000000013
#04912:13130000001300001333003300000000
#04915:00000013000000130000000000000000
#04917:00000000000000001333003300000000
#0491b:0000130000130000
#04916:0000000000130000
#04918:0013001300000000
#05012:00000000000000130000001414001400
#0501a:0000140014000014
#05017:0013000000000000
#05015:00000000131300000000000000000000
#0501b:0000000000130000
#05019:25
#05112:00130000260000000000261300002613
#05115:00001300001300000016000000160000
#05118:26000013000013002600000026000000
#0511b:00130000
#05917:00000012000000000000000000000000
#0591c:00120012000000000000000000000000
#05912:001200000000000000002c0016000000
#05918:00000016
#05915:0022
#05919:0022
#00612:0012
#00616:12000012
#0061c:12120000000000000000000012000000
#00618:0012
#0051c:0012
#00518:12
#00516:0012
#00512:00120000000000000000000000000000
#06017:0000000000000000130000001300000000001300000000000013000000000000
#06012:2c00001300000013
#0601b:00000000130000000000001300000000
#06010:41
#06118:16000013000013000013000000000000
#0611b:0013000013000000
#06115:00000000000000130000000000000000
#06112:16161300
#06212:13000013000000000000001600000000
#06217:13000013000000000000000000000000
#0621b:00130000000000000000000000000000
#06219:0013000000000000
#06216:00130000000000001300000000000000
#06214:0013000000000000
#06218:0000000000160000
#06312:2c0013002c0000002c00000000000013
#06318:00001300000000000000130000130000
#06315:00000000000013000000001300001300
#0631b:0000001300001300
#06418:1616000000000000
#06412:16001600000000130000000000000000
#06417:0000001300000000
#06419:00000000000000001300000000130000
#06414:00000000000000000013000000000000
#0641b:0000000000130000
#06512:14000000000000140000000000001300
#0651a:00000000000000140000000000000000
#06518:0000000000000013
#06812:0000001400000000001400001c000000
#06816:00140000000000140000141400001414
#06818:26
#0681a:00000024000000002400000000000000
#0691a:00000014000000000014000000000000
#06916:00140000000000140000141400000000
#06912:2600002400000000240000002c000000
#07016:00000000000000001434143400001400
#07012:26000016260000000034143400000000
#07018:1600001600000000
#0701a:0024
#07116:00002414000024140024000024002400
#0711a:2400240024240014
#07112:24000000240000002400002400000000
#07216:00140000000000140014001400001400
#0721a:00000014000000000000000000000000
#07212:2400002400000000240000001c000014
#07316:00140000000000140014001400001400
#0731a:24000024000000002400000000000014
#07312:0000001400000000000000002c000000
#07412:260000001600000000140000000000000000000000140000000000160000000000000000140000000000000000000000
#07418:001600000000000000000000260000000000000000000000
#07416:00000000001400000000001400140000
#0741a:0000000000140014
#07517:00120012000000001200120000000000
#07512:00000012000000000000120000000000
#0751c:0022
#06615:0000000013001300000000000000000000000014000000000000000000000000
#0661b:00001313000000000000000000000000
#06612:16000000001600000000000013000000
#06618:16000000001600000000000000000000
#06616:0000000000000014
#0661a:00000000000000140000000000000000
#06718:001600160000000000000000260016000000000000000000
#06712:260000001600000000000000000000140000000000140000000016000000160000000000000000000000280000000000
#06716:00000014000000000000001400000000
#0671a:00000000000000000000000000140000
#01015:13
#01018:0016130000130000
#0101b:00000000000000130000000000130000
#01012:0016000000000000
#04612:0000000000000000000014000000000000000014000000000000000000000000
#04616:28000000140000140000000000001400
#04617:0000000000000000000000000000000000000013000000000000000000000000
#0461b:00000000001300130000000000000000
#00052:52
#00056:0052
#0005c:0052
#00158:0062
#0015c:62
#00152:0062
#0025c:0052
#00256:0052
#00252:52
#0035c:5252
#00352:00000000620000000000006200000000
#0205a:14000014
#02058:00000063000000000000000000000000
#0205b:0000000000000000002300000000000000000000000000000000000000000000
#02056:00530000000000000000000000000000
#0165a:00000014
#01656:00530000000000000000000000000000
#0165b:00000053000000000000000000000000
#01658:0000000000000000002300000000000000000000000000000000000000000000
#01659:15
#01852:00000063000000000000000014000000
#01855:0000000000000000002300000000000000000000000000000000000000000000
#01857:00630000000000000000000000000000
#0175b:00530000000000000000000000000000
#01752:00000036
#01756:0000000000540000
#01757:00530000
#02152:00630000000000000000000000000000
#02156:0000530000640000
#02158:00000046
#02252:0000000000000000002300000000000000000000000000001400000000000000
#02255:00000053000000000000000000000000
#02257:00630000000000000000000000000000
#0195a:00000014
#01952:0000000000000024
#01956:00000054
#02352:00540000
#0235a:0000000000000054
#02357:00000000000000000000000000000024
#02452:34
#0245a:44
#02457:0053
#02456:00000000000000000000005300000000
#0245b:00000000000000000000005300000000
#0125b:23000000000000530000000000530000
#01255:0000630000630000
#01252:16
#01358:0000530000530000
#01352:23000000000000630000000000630000
#01455:0000630000630000
#01458:23000000000000630000000000630000
#01556:54
#0155a:00540000
#02556:6300000000230000
#02557:00000063000000005300000033000000
#02552:00000063000000005300000033000000
#0255b:0000000000230000
#0265b:5300000000230000
#02652:00000053000000000000000000000000
#02657:0053
#02852:3c000000000000000000006300000000
#02856:0063
#02857:00000000000000000000006300000000
#02957:5300000000230000
#02956:00000053000000006300000043000000
#0295b:00000053000000006300000043000000
#02952:0000000000230000
#0305a:64
#03052:00000053000000005400000000000000
#03056:0000001400000014
#0305b:00000000000000000000006300000000
#0315b:53000023000000000000000000000000
#03156:53000023000000000000000000000000
#03154:0053000000000000
#03159:0053000000000000
#03152:00230000000000000000000000003600
#03157:00230000000000000000000000000000
#03158:0000000000460000
#03252:1c
#03257:0053
#0325b:00000000000000000000005300000000
#03357:00000063000000005300000033000000
#0335b:6300000000230000
#03455:0000005300000000
#03457:0053
#0345b:5300000000230000
#03558:53
#03556:0000005400000000
#03652:4c000000000000000000006300000000
#03656:0063
#03756:00000053000000006300000043000000
#03752:5300000000230000
#03852:63000036
#03858:00460000
#0385b:0053
#03958:0000000000160000
#03952:0000000000000016
#04052:1c
#04055:00000000000000000000005300000000
#04352:36363600
#04358:0046004600000000
#05256:00530000000000000000000014000000
#05258:16
#05257:00000053000000000000000000000000
#05252:00530000
#0535b:00530000000000000000000000000000
#05356:0000000000540000
#05357:00530000
#05352:00000014
#05752:00630000000000000000000000000000
#05756:0000530000640000
#0575a:00000014
#0585a:00000014
#05857:00630000000000000000000000000000
#05852:00000053000000000000000014006600
#05858:0000530000000056
#0555a:0000000000000024
#05556:00000064
#05552:00000014
#0445a:0000000000000000000054000000000000000024000000000000000000000000
#04456:0000000000000000000000000000540000000023000000003400000000000000
#04452:1c000000000000530000000033000000
#04552:00000053000000005300000033000000
#04556:00540000000000005400230034000000
#0455a:0000000000240000
#0475b:00000000000000000000005300000000
#04757:0000000000530000
#04756:54
#04752:00531600
#04758:0016
#0485b:00000000000000530000000000000000
#04852:1500000000530000
#04857:0000000000000053
#0495b:0000000000230000
#04956:0000000000230000
#04957:00006333
#04952:00006333
#02752:00000053000000000000000000000000
#0275b:53
#05957:00000052000000000000000000000000
#0595c:00000052000000000000000000000000
#05952:00000016
#05958:00000016
#06052:1c00002300000000
#06057:0000000000000000530000000000000000005300000000000023000000000000
#0605b:00000000000000000000005300000000
#00452:0062
#00456:62
#00458:0062
#00652:0062
#00656:62000062
#00658:0062
#0065c:00000062
#0055c:0052
#00558:52
#00556:0052
#00852:3656000000000000
#00858:46
#05456:00000053000000000063000000000000
#0545b:0000000000000000230000000000000000000000000000000023000000000000
#05452:0000000000000000002300000000000000000000000000002300000000000000
#05457:00530000000000000000006300000000
#05652:14
#05656:00000063000000000000000014000000
#0565b:00630000
#05657:00630000000000000000000000000000
#06152:56560000
#06252:63000023000000000000006600000000
#06257:63000023000000000000000000000000
#0625b:00230000430000000000000000000000
#06259:0063000000000000
#06256:00230000430000000000000000000000
#06254:0063000000000000
#06258:0000000000660000
#06352:1c1c1c00
#06458:5626160000000000
#06452:5626160000000000
#06552:54000000000000540000000000000000
#0655a:00000000000000540000000000000000
#06554:0000000000140000
#06558:0000000000140000
#06858:16
#06852:00000054000000000000000000000000
#06856:00540000000000000000000000000000
#0685a:00000054000000000000000000000000
#06956:00640000000000000000000000000000
#0695a:00000064000000000000000000000000
#06952:0000006400000000000000001c000000
#07056:0000000054240000
#0705a:0054
#07052:0000000000240000
#0715a:0000000000000024
#07156:00000064
#07152:14001414
#07252:14000064000000000000000000000000
#07256:00640000000000000000000000000000
#0725a:00000064000000000000000000000000
#07552:00000052000000000000220000000000
#07557:00000052000000005200220000000000
#0755c:0052
#06652:16000000005600000000000000000000
#06658:16
#06655:0000000000000000000000000000000000000024000000000000000000000000
#0665a:00000000000000540000000000000000
#06752:0000000000000058
#00958:0066000000000000
#01052:0056000000000000
#05052:00000000000000630000000000000000
#0505b:0000000000630000
#05059:15
#07356:00540000000000000000000000000000
#07352:0000005400000000000000001c000000
#0735a:14000054000000000000000000000000
#04158:00000000000000000000006300000000
#04152:1c
#04652:0000000000000000000064000000000000000024000000000000000000000000
#04657:0000000000000000000000000000000000000023000000000000000000000000
#04656:18000000000000640000000044000000
#0465b:00000000000000630000000043000000
#04252:1c14
#000320:12000022
#000360:0032
#0003a1:00000012000022000000000000000000
#0003c1:0012
#000381:00000022
#0013c1:12000022
#001381:0032
#001340:00000012000022000000000000000000
#001320:0012
#001360:00000022
#002320:12000022
#002360:0032
#0023a1:00000012000022000000000000000000
#0023c1:0012
#002381:00000022
#0033c1:12
#003381:00220000
#003320:00120000
#003360:0022
#0033c1:0012
#003381:0000000000000022
#003320:00000000000000000000001200000000
#003360:0000000000000022
#004360:12000022
#004320:0032
#0043a1:00000012000022000000000000000000
#004381:0012
#0043c1:00000022
#005381:12000022
#0053c1:0032
#005340:00000012000022000000000000000000
#005360:0012
#005320:00000022
#006360:12000032
#006320:0032
#007320:22
#0063a1:00000012000022000000000000000000
#006381:0012
#0063c1:00000032
#007381:22
#008321:0016230000000000
#008321:00000000001300000000000000000000
#008351:00000000000000230000000000000000
#008351:0013
#008321:0000000000230000
#008351:00000000000000000000001300000000
#008321:00000000000000000000000000230000
#008321:0000000000000013
#009351:23
#009381:0016000000000000
#0093b1:00230000
#0093b1:00000000001300000000000000000000
#009381:00000000000000230000000000000000
#009381:0013
#0093b1:0000000000230000
#009381:00000000000000000000001300000000
#0093b1:00000000000000000000000000230000
#0093b1:0000000000000013
#010381:23
#010321:0016230000000000
#010351:00000000001300000000000000000000
#010321:00000000000000230000000000000000
#010321:0013
#010351:0000000000230000
#010321:00000000000000000000001300000000
#010351:00000000000000000000000000230000
#010351:0000000000000013
#011321:23
#0123b1:13
#012381:00230000
#012350:00130000
#012320:00000000000000230000000000000000
#0123b1:00000000000000130000000000000000
#012381:0000000000230000
#012350:0000000000130000
#012320:00000000000000000000000000230000
#0123b1:00000000000000000000000000130000
#013381:23
#013320:13
#013350:00230000
#013381:00130000
#0133b1:00000000000000230000000000000000
#013320:00000000000000130000000000000000
#013350:0000000000230000
#013381:0000000000130000
#0133b1:00000000000000000000000000230000
#013320:00000000000000000000000000130000
#014350:23
#014381:13
#0143b1:00230000
#014350:00130000
#014320:00000000000000230000000000000000
#014381:00000000000000130000000000000000
#0143b1:0000000000230000
#014350:0000000000130000
#014320:00000000000000000000000000230000
#014381:00000000000000000000000000130000
#0153b1:23
#015360:14
#015320:0024000000000000
#0153a0:00140000
#015360:0000002400000000
#016360:00130000000000000000000000000000
#016320:00000023000000000000000000000000
#0163b1:00000013000023000000000000000000
#016381:0000000000000000005300000000000000000000000000000000000000000000
#0173b1:00130000000000000000000000000000
#017371:00000023000000000000000000000000
#017371:00130000
#0173b1:0000002300000000
#017361:0000000000140000
#0173a1:00000024
#018371:00130000000000000000000000000000
#0183b1:00000023000000000000000000000000
#018320:00000013000023000000000000000000
#018350:0000000000000000005300000000000000000000000000000000000000000000
#019320:1424000000000000
#0193a0:0000142400000000
#019320:00000000000000001424000000000000
#019361:00000000000000000014240000000000
#0193a1:00000000000000000000001424000000
#019360:00000014
#019320:0000000000000054
#020360:24
#020360:00130000000000000000000000000000
#020320:00000023000000000000000000000000
#020381:00000013000023000000000000000000
#0203b1:0000000000000000005300000000000000000000000000000000000000000000
#021321:00130000000000000000000000000000
#021361:00000023000000000000000000000000
#021361:00130000
#021321:0000002300000000
#021361:0000000000140000
#021321:00000024
#022371:00130000000000000000000000000000
#0223b1:00000023000000000000000000000000
#022350:00000013000023000000000000000000
#022320:0000000000000000005300000000000000000000000000000000000000000000
#0233a0:14240000000000000000000000000000
#023360:00001424000000000000000000000000
#023320:00140000
#023360:00000000003424000000000000000000
#0233a1:00000000000014240000000000000000
#0233a1:0000000000000014
#023371:00000000000000000000000000000054
#0243a1:24
#0243b1:0000132300000000
#024371:0000000013000023
#0243b1:00000000000000000000003300000000
#024360:00000000000000000000001300000000
#024320:0000000000000023
#025360:1300002300000000
#025320:00000033000000000000000000000000
#025371:00000013000000000000000000000000
#0253b1:0000002300000000
#025371:00001323
#0253b1:0000000000530000
#025320:00001323
#025360:0000000000530000
#0263b0:13
#026370:00000023000000000000000000000000
#026321:00000013000000000000000000000000
#026361:0000002300000000
#026371:00001323
#0263b1:0000000000530000
#0273b1:13
#027381:0023000000000000
#027321:00000013000000000000000000000000
#027351:0000002300000000
#028321:0000132300000000
#028361:0000000013000023
#028321:00000000000000000000003300000000
#028370:00000000000000000000001300000000
#0283b0:0000000000000023
#029370:1300002300000000
#0293b0:00000033000000000000000000000000
#029361:00000013000000000000000000000000
#029321:0000002300000000
#029361:00001323
#029321:0000000000530000
#0293b0:00001323
#029370:0000000000530000
#0303a0:14
#030360:0024000000000000
#030320:00000013000000000000000000000000
#030360:00000000002300000000000000000000
#0303a1:00000000001424000000000000000000
#030321:0014
#030361:0000000000240000
#0303b1:00000000000000000000001300000000
#030371:00000000000000000000000000230000
#030320:00000000000000000000000000142400
#031360:13000053000000000000000000000000
#031320:00530000230000000000000000000000
#031340:0053000000000000
#0313b1:13000053000000000000000000000000
#031371:00530000230000000000000000000000
#031391:0053000000000000
#031321:0000000016260000
#031381:00000000000000000000000000162600
#0323b1:0000132300000000
#032371:0013
#0323b1:0000000000230000
#0323b1:00000000000000000000001300000000
#032371:0000000000000023
#0333b1:13
#033371:0023000000000000
#033371:00000013000000000000000000000000
#0333b1:0000002300000000
#033371:00001323
#0333b1:0000000000530000
#0343b1:13
#034381:0023000000000000
#0343b1:00000013230000000000000000000000
#034381:00000000001323000000000000000000
#034350:0000001300000000
#034320:0023
#034371:00001323
#0343b1:0000000000530000
#035381:13
#0353b1:0023000000000000
#035381:00000013230000000000000000000000
#0353b1:00000000001323000000000000000000
#035360:0000001400000000
#035320:0024
#036320:0000132300000000
#036360:0013
#036320:0000000000230000
#036320:00000000000000000000001300000000
#036360:0000000000000023
#037320:13
#037360:0023000000000000
#037360:00000013000000000000000000000000
#037320:0000002300000000
#037360:00001323
#037320:0000000000530000
#038320:13
#038350:0023000000000000
#038320:00000013230000000000000000000000
#0383b0:0013
#038380:0000000000230000
#0383b0:00000000000000000000001323000000
#039340:00001424000000000000000000000000
#039381:00000014240000000000000000000000
#040371:00132300
#0403b1:0000003300000000
#040351:00000000000000000000001300000000
#040321:0000000000000023
#041361:00132300
#041321:0000003300000000
#041381:00000000000000000000001300000000
#0413b1:0000000000000023
#042361:0013002300000000
#042321:00330000
#042370:00132300
#0423b0:0000003300000000
#044360:0013000000000000
#044320:00230000
#0443a0:0000000000000000000014000000000000000054000000000000000000000000
#044360:00000000000000540000000024000000
#044321:00000000000000130000000023000000
#044361:0000000000000000000000000000000000000053000000000000000000000000
#045321:14240000000000000000000000000000
#045360:00140000000000000000000000000000
#0453a0:00000024000000000000000000000000
#045321:00000013000000000000000000000000
#045361:0000002300000000
#045361:00001424
#0453a1:0000000000540000
#045320:00001323
#045360:0000000000530000
#046320:1424000000000000
#046371:0013000000000000
#0463b1:00230000
#046321:0000000000000000000014000000000000000054000000000000000000000000
#046361:00000000000000540000000024000000
#0463b0:00000000000000130000000023000000
#046370:0000000000000000000000000000000000000053000000000000000000000000
#047360:14
#0473a0:0024000000000000
#047320:00130000
#047360:0000002300000000
#047370:0000000000130000
#047320:0000000000000023
#0473b1:00000000000000000000001300000000
#047361:0000000000000023
#048371:13
#0483b1:0023000000000000
#0483b1:00000000000000130000000000000000
#048371:0000000000230000
#048320:0000000000130000
#048360:00000023
#048370:0000000000000013
#0493b0:23
#049370:00000000000000001333003323000000
#0493b0:0000000000330000
#049321:00000000000000001333003323000000
#049361:0000000000330000
#050361:13
#050321:0023000000000000
#050321:00000000000000130000000000000000
#050361:0000000000230000
#0503b0:0000000000130000
#050370:00000023
#052360:00130000000000000000000000000000
#052320:00000023000000000000000000000000
#052371:00000013000000000000000000000000
#0523b1:0000002300000000
#052320:00130000
#052350:0000002300000000
#0533b0:00130000000000000000000000000000
#053370:00000023000000000000000000000000
#053370:00130000
#0533b0:0000002300000000
#053360:0000000000140000
#0533a0:00000024
#054370:00130000000000000000000000000000
#0543b0:00000023000000000000000000000000
#054361:00000013000000000000000000000000
#054321:0000000000000000005300000000000000000000000000000000000000000000
#054351:0000002300000000
#0543b0:00130000
#054380:0000002300000000
#054360:00000000000000000013000000000000
#054320:00000000000000000000002300000000
#054371:00000000000000000000001300000000
#0543b1:0000000000000000000000000000000000000000000000000053000000000000
#054381:0000000000000023
#054320:00000013
#054350:0000000000000023
#0553a0:1424000000000000
#055320:0000142400000000
#0553a0:00000000000000001424000000000000
#055361:00000000000000000014240000000000
#055321:00000000000000000000001424000000
#055360:00000014
#0553a0:0000000000000054
#056360:24
#056370:00130000000000000000000000000000
#0563b0:00000023000000000000000000000000
#056361:00000013000000000000000000000000
#056321:0000002300000000
#0563b0:00130000
#056380:0000002300000000
#057320:00130000000000000000000000000000
#057360:00000023000000000000000000000000
#057360:00130000
#057320:0000002300000000
#057360:0000000000140000
#057320:00000024
#058370:00130000000000000000000000000000
#0583b0:00000023000000000000000000000000
#058321:00000013000000000000000000000000
#058361:0000002300000000
#058380:00130000
#0583b0:0000002300000000
#058320:0000000000000016
#059320:22
#058381:0000000000000016
#0593c1:22
#059371:00000012000000000000000000000000
#059321:0000002200000000
#0593c0:00000012000000000000000000000000
#059370:0000002200000000
#060370:00132300
#060320:0000005300000000
#0603b1:00000000000000001323000000000000
#060370:00000000000000000013000000000000
#060320:00000000000000000000002300000000
#0603b1:00000000000000000000001300002300
#060371:0000000000000000000000000000000000000000000000000053000000000000
#061321:1623000000000000
#061321:00160000
#061351:0000002300000000
#061321:00000000000000000000000000000000000000000000000000000000000000000000000000000000000000001200005500000000005500002200000000000000
#061341:0000000000000000000000000000000000000000000000000054000000000000
#0613c0:00000000000000000000001200002200
#061390:00000000000000000000000000000000000000000000000000000000000000000000000000000000000000000000005500000000005500000000000000000000
#061380:0000000000000000000000000000000000000000000000000054000000000000
#062370:13000053000000000000000000000000
#0623b0:00530000230000000000000000000000
#062390:0053000000000000
#062321:13000053000000000000000000000000
#062361:00530000230000000000000000000000
#062341:0053000000000000
#062361:00000000000013230000000000000000
#0623b0:00000000000000132300000000000000
#062380:0000000000160023
#062321:00000000000000000000001600000000
#062351:0000000000000023
#064321:16260000
#064381:0056000000000000
#064380:16260000
#064320:0056000000000000
#064360:00000000000000000000001300230000
#0653a0:14000000340000340000000000000000
#065340:0000000000240000
#065321:14
#065361:00240000
#065321:00000000000000140000000000000000
#065381:0000000000240000
#066321:00000000001600230000000000000000
#0663a0:00000000000000140000000024000000
#066350:0000000000000000000000000000000000000054000000000000000000000000
#0673a0:00000000142400000000000000000000
#067360:00000000000014240000000000000000
#067320:00000000000000000000000014240000
#067320:0000000000000018
#068320:24
#068360:00140000000000000000000000000000
#068320:00000034000000000000000000000000
#0683a0:0000002400000000
#0683a1:00000014000000000000000000000000
#068321:0000002400000000
#069361:00140000000000000000000000000000
#0693a1:00000034000000000000000000000000
#069321:0000002400000000
#069320:00000014000000000000000000000000
#0693a0:0000002400000000
#070380:00160026000000000000000000000000
#070320:0000162600000000
#0703a0:00001424
#070360:00000000000000000034343400000000
#070361:00001424
#070321:00000000000000000034343400000000
#0713a1:1424000000000000
#071321:0000142400000000
#0713a1:00000000000000001424000000000000
#071360:00000000000000000014240000000000
#071320:00000000000000000000001424000000
#071361:00000014
#0713a1:0000000000000054
#072361:24
#072361:00140000000000000000000000000000
#0723a1:00000034000000000000000000000000
#072321:0000002400000000
#072320:00000014000000000000000000000000
#0723a0:0000002400000000
#072320:00000000000000001424000000000000
#0723a0:00000000000000000000142400000000
#073360:00140000000000000000000000000000
#073320:00000034000000000000000000000000
#0733a0:0000002400000000
#0733a1:00000014000000000000000000000000
#073321:0000002400000000
#0733a1:00000000000000001424000000000000
#073321:00000000000000000000142400000000
#074361:00001424000000000000000000000000
#0743a1:00000000142400000000000000000000
#074361:00000000000014240000000000000000
#074341:00000000000000000000000000000012
#075341:22
#0753a0:12220000000000000000000000000000
#075320:00000012000000000000000000000000
#075370:0000002200000000
#075371:00000012000000000000000000000000
#0753c1:0000002200000000
#0753c1:0000000012003222
#075371:0000000000520000
#075370:0000000012003222
#075320:0000000000520000
