This file was generated by Ched 2.7.0.0.
#TITLE ""
#ARTIST ""
#DESIGNER ""
#DIFFICULTY 0
#PLAYLEVEL
#SONGID ""
#WAVE ""
#WAVEOFFSET 0
#JACKET ""
#REQUEST "ticks_per_beat 480"
#00002: 4
#BPM01: 140
#00008: 01
#TIL00: ""
#HISPEED 00
#MEASUREHS 00
#05214:00140000
#0521a:24
#05212:24
#05418:14
#05414:00140000
#0541a:0014
#05412:00000014
#0041a:1414
#00414:00140000
#00514:1414
#0051a:00140000
#00618:1414
#00612:00140000
#01614:00140000
#0161a:24
#01610:41
#01712:14
#01718:00140000
#01818:14
#01812:00140000
#01914:14
#0191a:00140000
#02012:00140000
#0201a:24
#02112:14
#0211a:00140000
#02218:14
#02212:00140000
#02314:14
#0231a:00140000
#0241a:1414
#02414:00140014
#02410:41
#05318:00140000
#05312:14
#0531a:14
#05518:14140000
#05514:0014001400000000
#05618:00140000
#0561a:24
#05612:24
#05714:00140000
#05712:14
#0571a:14
#05818:00140000
#05812:14
#0581a:14
#05912:14
#0591a:14
#06018:00140000
#06014:0014
#0601a:24000014
#06012:24
#06010:41
#06112:14
#06118:00140000
#06114:0014
#0611a:00000014
#0631a:1414
#06314:1414
#06318:00140014
#06312:00140014
#0651a:14
#06514:00140000
#06518:0014
#06512:00000014
#06616:14
#06612:00140000
#06618:0014
#06614:00000014
#0671a:14
#06716:00140014
#06712:0014
#06912:14
#0691a:14
#06916:00140000
#0701a:14
#07012:14
#07016:00140000
#07118:14141414
#07114:0014001400140000
#07216:00140000
#0721a:24
#07212:24
#07312:14
#0731a:14
#07316:00140000
#07412:14000014
#07416:00140000
#0741a:0014
#0441a:14
#04418:00140000
#0441f:21
#04514:14
#04512:00140000
#04510:41
#04812:14
#04814:00140000
#05012:14
#05014:00140000
#0461a:14
#04618:00140000
#04918:14
#0491a:00140000
#04712:14
#04716:00140014
#0471a:0014
#0511a:14
#05116:00140014
#05112:0014
#02518:1414
#02512:00140000
#02612:1414
#02618:00140014
#02714:1414
#0271a:00140000
#0281a:14
#02812:00140000
#02818:0014
#02814:00000014
#0291a:14
#02912:00140000
#02918:0014
#03012:14
#0301a:00140000
#03014:0014
#03018:00000014
#03112:14
#0311a:00140000
#03114:0014
#0361a:14
#03614:00140000
#03618:0014
#03612:00000014
#03718:14
#03714:00140000
#0371a:0014
#03812:14
#03818:00140000
#03814:0014
#0381a:00000014
#0381f:11
#03914:14
#03918:00140000
#03912:0014
#03218:14
#03212:00140000
#0321a:0014
#03214:00000014
#03210:41
#03318:14
#03312:00140000
#03414:14
#0341a:00140000
#03412:0014
#03418:00000014
#03514:14
#0351a:00140000
#0121a:14
#01312:14
#01514:14
#01418:14
#06816:00140000
#0681a:24
#06812:24
#0071a:14
#00712:14
#04318:24242400
#04314:0024002400000000
#07518:00340000
#00810:41
#0445a:64
#04458:00240000
#04554:64
#04552:00240000
#04852:54
#04854:00240000
#05052:54
#05054:00240000
#0465a:64
#04658:00240000
#04958:54
#0495a:00240000
#0375a:0064
#03952:0054
#0165a:14
#0205a:14
#0125a:64
#01352:54
#01554:64
#01458:54
#05952:14
#0595a:14
#0003a0:1424
#001320:1424
#002380:1424
#003340:1424
#0083a0:14
#008380:0024
#009320:14
#009340:0024
#010380:14
#0103a0:0024
#011340:14
#011320:0024
#0123a0:14
#012380:0024
#013320:14
#013340:0024
#014380:14
#0143a0:0024
#015340:14
#015320:0024
#0163a0:00001424
#017320:00001424
#018380:00001424
#019340:00001424
#020380:00001424
#021340:00001424
#0223a0:00001424
#023320:00001424
#0333a0:0014
#033380:00000024
#035320:0014
#035340:00000024
#0373a0:0014
#037380:00000024
#039320:0014
#039340:00000024
#0403a0:14000024
#040380:00343400
#041320:14000024
#041340:00343400
#0423a0:14
#042380:00240000
#042320:0014
#042340:00000024
#0443a0:1424
#044380:00540000
#045340:1424
#045320:00540000
#0463a0:1424
#046380:00540000
#048320:1424
#048340:00540000
#049380:1424
#0493a0:00540000
#050320:1424
#050340:00540000
#052380:0014
#0523a0:00000024
#053340:0014
#053320:00000024
#055380:00001424
#056340:0014
#056320:00000024
#057380:0014
#0573a0:00000024
#058320:0014
#058340:00000024
#062320:14
#062340:00240000
#0623a0:0014
#062380:00000024
#0643a0:14
#064380:00240000
#064320:0014
#064340:00000024
#068320:00001424
#0693a0:00001424
#070320:00001424
#072320:0014
#072340:00000024
#0733a0:0014
#073380:00000024
#0753a0:14
#075380:00340000
#075360:0000000034000024
