This file was generated by Ched 2.6.4.0.
#TITLE ""
#ARTIST ""
#DESIGNER ""
#DIFFICULTY 0
#PLAYLEVEL
#SONGID ""
#WAVE ""
#WAVEOFFSET 0
#JACKET ""
#REQUEST "ticks_per_beat 480"
#00002: 4
#BPM01: 180
#00008: 01
#TIL00: ""
#HISPEED 00
#MEASUREHS 00
#00019:14
#00013:14
#0011a:14
#00212:14
#0031a:14
#00412:14
#00518:14
#00510:41
#00618:14
#00714:14
#00814:14
#0091a:14
#0101a:14
#01112:14
#01212:14
#0131a:14
#01414:14
#0151a:14
#01614:14
#01718:14
#01812:14
#01918:14
#02012:14
#02118:14
#02110:41
#02212:14
#0231a:14
#02414:14
#02518:14
#02612:14
#0271a:14
#02812:14
#02918:14
#0401a:14
#04112:14
#04618:2616
#0461f:21
#04812:16
#04818:0016
#04912:1616
#05018:1616
#05112:16
#05118:0016
#05412:1616
#05618:16
#05612:0016
#05718:1616
#05812:1616
#05918:16
#05912:0016
#06218:1616
#06210:41
#06312:16
#06318:0016
#07413:14
#07419:14
#07512:0016
#07518:26
#07510:41
#07712:1616
#07818:1616
#08012:16
#08018:0016
#07912:16
#07918:0016
#08312:16
#08318:0016
#08412:1616
#08718:16
#08712:0016
#08818:1616
#0381f:11
#04710:41
#03010:41
#030340:14
#031340:24
#0323a0:14
#0333a0:24
#034320:14
#035320:24
#036380:14
#037380:24
#038340:14
#039340:24
#042380:14
#043380:24
#044340:14
#045340:24
#047380:1626
#052320:1626
#053380:1626
#055320:1626
#060380:1626
#061320:1626
#064320:1626
#065380:1626
#066340:14
#067340:24
#068380:14
#069380:24
#070320:14
#071320:24
#0723a0:14
#0733a0:24
#076380:1626
#081320:1626
#082380:1626
#085380:1626
#086320:1626
#089320:1626
#090380:16003626
