This file was generated by Ched 2.6.4.0.
#TITLE ""
#ARTIST ""
#DESIGNER ""
#DIFFICULTY 0
#PLAYLEVEL
#SONGID ""
#WAVE ""
#WAVEOFFSET 0
#JACKET ""
#REQUEST "ticks_per_beat 480"
#00002: 4
#BPM01: 180
#00008: 01
#TIL00: ""
#HISPEED 00
#MEASUREHS 00
#00018:12
#00016:00120000000000000000000000000000
#00014:00180000
#00017:0022
#0011b:00130000
#00115:00130000
#00118:0000001300000000
#00112:2400001300000000
#0011a:24
#00218:1300131300000000
#0021b:0013000000000000
#00215:00130000001300000000000000000000
#00212:00000013000000002400240024000000
#0021a:0000000024242400
#00318:0000001313000000
#00315:00001300000000130013000000000000
#00312:13000013
#0031b:00130000
#00418:0014
#00416:0000000000140000
#00412:24
#0041a:24
#03018:0000002400001300
#03012:2600000000000013
#03015:0000000000130000
#03014:00240000
#03010:41
#03112:00130000
#03117:00130000
#03116:13
#03114:00000013
#03119:00000013
#03218:00240013
#0321b:0000000000130000
#03215:0000000000000013
#03212:24
#0321a:24
#03214:0000002400000000
#06512:0000002600001400
#0651a:00000014
#06518:0026000026000000
#0051b:13
#00512:1300130000131300
#00519:0013000000000000
#00516:0000000013000013
#00517:00000013
#00510:41
#00615:13
#00618:00130000000000000000000024000000
#0061b:0000001300000000
#00612:0024
#00712:13000013
#0071b:13
#00717:0013000000001300
#00714:00130000
#00716:0013
#00719:0000000000130000
#0081b:0013000000000000
#00817:00130000
#00816:0000000000230013
#00812:0000002300002300
#00814:0023
#00818:00000023
#0091b:1300130000131300
#00914:0013000000000000
#00917:0000000013000013
#00916:00000013
#01018:13
#01015:00130000000000000000000000000000
#01012:0000001300000000
#0101a:0024
#01014:00000024
#0111b:13000013
#01112:13
#01116:0013000000001300
#01119:00130000
#01117:0013
#01114:0000000000130000
#01212:2313000000000000
#01216:00130013
#01217:0000000000130000
#0121b:0000002300000000
#02716:00141414
#0271b:13
#02712:13
#03312:13000000000000000000000013141414
#03313:0000000000000000000000000000000000000000000000000014001400140014
#03319:0000000000000000000000000000000000000000000000000014001400140014
#03318:00000000000000000000000014141414
#03315:0000001300000000
#03412:24130013
#03414:0000001300130000
#03416:0013
#03417:00130000
#0341b:0013
#03418:24
#0361b:00131313
#03612:00131313
#03617:0000001300000013
#03616:0000000000130000
#0361a:24
#03614:24
#0351b:1313
#03518:0000001300000000
#03512:00130000
#03516:0013000000000000
#0371b:13
#03712:1324
#0371a:00001424
#03716:0000000000120000
#03718:0000000000120000
#03816:13
#0381b:0013
#0381f:11
#0391b:1300000000130000
#03916:2313
#03912:00000013
#04015:0013000000130000
#04018:00131300
#04012:0000232300001300
#0401b:13000023
#04217:13
#04212:0013
#04312:1300000000130000
#04317:2313
#0431b:00000013
#04314:00000013
#04316:0000000000000023
#04412:0013130000001300
#0441b:0000000000130000
#04419:00130000
#04418:0000000000000013
#04417:0000002300000000
#04415:0000000000000023
#04515:0013000000000000
#0451a:0000001424000000
#04512:0000002414000023
#04518:0023000000000013
#06918:0000000000000013
#0691b:0000001313000000
#06916:0013
#06912:00000026
#07012:13
#07019:0013000000000000
#07013:00130000
#0701a:0000001300000000
#07014:0013
#0701b:0000000000130000
#07015:00000013
#07112:00000013
#07114:0000000000000014
#07115:0000000000000000000000000000000000000000000000000000000000140014
#07119:0000000000000000000000000000000000000000000000000000000000140014
#07117:00000000000000000000000000000014
#07113:00000000000000000000000000000014
#07118:0000000000000024
#07217:14141414141400000000000000000000
#07213:14141414141400000000000000000000
#07215:0014001400140014001400140000000000000000000000000000000000000000
#07219:0014001400140014001400140000000000000000000000000000000000000000
#0721a:0000000000140012
#07216:0000000000000012
#07212:0000000000240000
#07312:000000000000001c
#07318:1200120000240000
#07314:1200122400000000
#0731a:0012000000000000
#07316:0012000000000000
#06419:12131313
#06414:00000014000013000000130000000000
#06415:0012000000000000
#06418:00140000001500000000000000000000
#06413:00000000000000150000000000000000
#06417:00000000000000000017000000000000
#06412:00000000000000000000001700002600
#0681b:13131300
#06815:00001300000000130000000013000000
#06812:1300130000000013
#06818:0000001300130000
#0471b:1300000013000013
#04716:1313
#04719:0013000000000000
#04712:0000130000001313
#04717:00130000
#04714:0000001300000000
#04710:41
#04817:0013000000000013
#04812:00130013
#0481b:0000001300130000
#04816:1313
#0491a:1424
#04912:2414
#04916:00240024
#05318:0000000000130000
#05315:0000000000130000
#05418:0014140000000012
#05414:00000014000000001200000012000000
#05412:0000001400000000
#0541a:0000001412001200
#05416:0000000000120000
#05512:1412
#0551a:1200140000120000
#05516:0012001400000000
#05514:0000120000140000
#0551b:0000000000000013
#05515:0000000000000013
#05618:0013001300000013
#0561b:00130000
#05615:00131313
#05612:0000000000130000
#0571b:13
#05712:1600000000260000
#05715:0016000000000000
#05718:0000260016000013
#0581b:0000131300000000
#05812:1300000000130000
#05816:0000000000000014
#05915:0016000000000013
#05914:0000001800000000
#0591b:0000000000130000
#05918:00000013
#05912:0000000000130000
#06012:1300000013130000
#06015:0013000000000000
#06018:0000130013130000
#0601b:1300001300000000
#06115:0013130000000013
#0611b:0013000000001300
#06112:0000000013130000
#06118:0000000000130000
#06212:0000131300000000
#0621b:1300000000130000
#06216:0000000000000014
#06210:41
#06315:0016000000000013
#06314:0000001800000000
#06312:0000000000130000
#0631b:0000000000130000
#05018:1300000013130000
#05012:1313
#0501b:0013130000001300
#05015:0000131300001313
#05118:1300130013001323
#05112:1300000000001313
#05115:0013000000130000
#0511b:0000001300000000
#05212:0000000013002323
#0521b:0013000000002323
#05217:00000000001300000000000000000000
#04118:0013000000130000
#04115:00131300
#0411b:0000232300001300
#04112:13000023
#04615:0013000000000000
#04614:0000001300000000
#0461a:0000000000130000
#04612:0000000000000013
#0461b:13
#0461f:21
#07612:1300000013000014
#07617:1313
#07614:0013000000000000
#0761b:00130013
#07616:00130000
#07619:0000001300000000
#0761a:0000000000000014
#07915:1300000013130000
#0791b:1313
#07912:0013130000001300
#07918:0000131300001313
#08015:1300130013001323
#0801b:1300000000001313
#08018:0013000000130000
#08012:0000001300000000
#0811b:0000000013000023
#08112:0013000000000023
#08116:00000000001300000000000000000000
#08118:00000023
#08115:0000000000230000
#07412:0000000000130000
#07415:0000000000000013
#07415:0000000000000013
#0741b:0000000000130023
#07518:0013000000000000
#07518:0013000000000000
#07519:0000001300000000
#07513:0000000000130000
#0751b:0000000000000013
#07512:13
#07512:13
#07510:41
#07812:14242400
#0781a:24001424
#07816:0014000000140000
#07716:1414000012000012
#0771a:00140012
#07712:0000001400000000
#0771c:0012
#07718:0000000000120000
#07714:00000012
#08217:0000000000000013
#08212:0000000000000013
#08316:0000131300000000
#08318:0000000000000014
#08317:1300000000130000
#08312:13
#0831b:0000001300000000
#08314:0000000000000014
#08413:0015000000000000
#08418:0015001600130000
#08412:0000001600130000
#08415:00000013
#0841b:0000000000000013
#08518:13001313
#0851b:0013001300130000
#08515:0000130000130000
#08512:13001313
#0861b:0013000000130013
#08615:0013001300130000
#08618:00131300
#08612:00130013
#08616:0000000000000013
#0881b:0000000000130000
#08818:0015001600000013
#08812:0000001600130000
#08813:0015000000000000
#08717:0000131300000000
#08716:1300000000130000
#0871b:13
#08712:0000001300000000
#08714:0000000000000014
#08718:0000000000000014
#06616:00130013
#06618:0013000000000000
#06614:0000001300130000
#06612:2300000013000013
#06617:0000000013000013
#0661b:23130000
#06719:13130000
#0671b:0013000000000000
#06717:0000001300000000
#06716:0013000000000000
#06718:00000026
#06712:0026
#0131b:00131313
#01318:0000001300000000
#01312:00001313
#01315:0000000000130000
#01316:0000130000000013
#01314:0013000000000000
#01317:23
#0141b:0013001300001300
#01412:13131300
#01416:0000000000131300
#01414:0000000000000013
#01417:13131300
#01418:00000000000000000000000000000013
#01516:0000000000130013
#01512:13130013
#0151b:0000001300001300
#01519:00131300
#01514:0013
#01517:0013000000000000
#0161b:1313000000000000
#01612:1300001300000000
#01616:0013000013001300
#01617:0000130000130000
#0211b:1300001300001300
#02118:0013
#02112:0000130013000013
#02114:0013000000130000
#02116:23000013
#02110:41
#0221b:0013000000001300
#02219:13130000
#02214:0013
#02216:0000000000131300
#02212:0000130000000013
#02217:00000000000013000000000000000013
#02618:0000000000000013
#02615:00000000000000000000000000000013
#02612:0013000000001300
#02614:13130000
#02619:0013
#02617:0000000000131300
#0261b:00130000
#02616:0000001300000000
#02417:13
#02412:1300130000131300
#0241b:0013000013000000
#02416:0013000000000000
#02418:0000001300000000
#02812:1313001300001300
#02817:00130000000013000000000000000000
#0281b:0000230013131300
#02816:00000000230000000013000000000000
#02818:0000000000000013
#02815:00000000000000000000000000000013
#01712:00131313
#01715:0000001300000000
#0171b:00001313
#01718:0000000000130000
#01717:0000130000000013
#01719:0013000000000000
#01716:23
#01812:0013001300001300
#0181b:13131300
#01817:0000000000131300
#01819:0000000000000013
#01816:13131300
#01815:00000000000000000000000000000013
#01917:0000000000130013
#0191b:13130013
#01914:00131300
#01912:0000001300001300
#01919:0013
#01916:0013000000000000
#02012:1313000000000000
#0201b:1300001300000000
#02017:0013000013000000
#02016:0000130000230000
#02312:1313000000131313
#02317:00130000000000000000001300130000
#02315:00000000001400140000000000000000
#0231a:0000242424000000
#02512:1300001300001300
#02515:0013
#0251b:0000130013000013
#02519:0013000000130000
#02517:00000013
#08914:00140000130000001300000013000000
#08919:0012001300130000
#08915:12
#08918:00000014000000150000000000002600
#08913:00000000001500000000000000000000
#08912:00000000000000000017000000000000
#08917:00000000000000000000001700000000
#02918:0024000000250026
#02914:00240000
#02913:0025
#09012:0026000026000000
#09018:0000002600000000
#00057:0012
#00252:00000014
#0025a:00000014
#00458:0064
#00456:0000000000240000
#00454:0014
#0045a:64000044
#00452:54
#00652:0034
#00658:00000044
#02958:0044000000450046
#02954:00340000
#02953:0035
#03052:3600000000000053
#03058:0000004400000000
#03152:00530000
#03157:00530000
#03156:23
#03159:00000013
#03154:00000013
#03252:34
#0325a:44
#03254:0000003400000000
#04956:00440034
#04952:3454
#0495a:6444
#06452:00000000000000000000002700003600
#06459:62636300
#06455:0062000000000000
#06454:00000024000063000000630000000000
#06457:00000000000000000027000000000000
#06453:00000000000000250000000000000000
#06458:00240000002500000000000000000000
#06552:0000001600000000
#06558:0046000016000000
#00352:00000013
#0035b:00000013
#0105a:0044
#01054:00000034
#03452:14000053
#03458:14
#03457:00530000
#0345b:0023
#03352:00000000000000000000000053545454
#03353:0000000000000000000000000000000000000000000000000054005400540054
#03359:0000000000000000000000000000000000000000000000000054005400540054
#03358:00000000000000000000000054545454
#03355:0000005300000000
#0365a:14
#03654:14
#03552:00230013
#03557:00000013
#0355b:0023
#03558:0000005300000000
#03556:0063000000000000
#0375b:63
#03752:53005434
#03758:0000130000220000
#03755:00130000
#0375a:00006444
#03756:0000000000220000
#0385b:0013
#03956:0013
#03952:00000013
#04052:00000013
#04058:00130000
#04356:0000000000000013
#04457:0000001300000000
#06958:0000000000000013
#07052:13
#07059:0013000000000000
#07053:00130000
#0705a:0000001300000000
#07054:0013
#0705b:0000000000130000
#07055:00000013
#07159:0000000000000000000000000000000000000000000000000000000000640064
#07157:00000000000000000000000000000064
#07158:0000000000000064
#07154:0000000000000064
#07155:0000000000000000000000000000000000000000000000000000000000640064
#07153:00000000000000000000000000000064
#07257:64646464646400000000000000000000
#07253:64646464646400000000000000000000
#07255:0064006400640064006400640000000000000000000000000000000000000000
#07259:0064006400640064006400640000000000000000000000000000000000000000
#07258:0000004400000000
#07254:0000003400000000
#07252:0000000000340000
#0725a:0000000000440000
#06758:00000046
#06752:0036
#06756:0023000000000000
#07354:0000003400000000
#07358:0000000000440000
#08958:00000024000000250000000000004600
#08954:00240000530000005300000000000000
#08959:0052005300530000
#08955:52
#08953:00000000002500000000000000000000
#08952:00000000000000000027000000000000
#08957:00000000000000000000002700000000
#09052:0036000016000000
#09058:0000001600000000
#0475b:0000000063000013
#04752:0000000000000053
#04857:0013000000000000
#04852:00130013
#04856:2313
#0485b:0000000000130000
#0535b:0000000000000013
#05358:0000000000530000
#05355:0000000000630000
#05352:0000000000000013
#0525b:0063000000000063
#05252:0000000000000053
#05257:00000000002300000000000000000000
#05758:00160000
#05752:0000000000160000
#05856:0000000000000014
#05852:53
#0585b:0000006300000000
#05954:0000001800000000
#05955:0016000000000000
#06058:0000000000530000
#06052:0000000000530000
#06055:0000000000000013
#0605b:0000000000000013
#06256:0000000000000014
#06252:0000005300000000
#0625b:63
#06355:0016000000000000
#06354:0000001800000000
#0635b:0000000000630000
#0415b:00000013
#04155:00130000
#07652:0000000053000014
#0765a:0000000000000064
#08152:0053000000000053
#0815b:0000000000000063
#08156:00000000002300000000000000000000
#0785a:44006444
#07852:54343400
#07856:0024000000240000
#08358:0000000000000014
#08357:53
#08356:0000006300000000
#08453:0015000000000000
#08458:0000001600000000
#08555:0000000000630043
#0855b:0000000000630043
#08552:00000023
#08558:00000023
#08852:0000001600530000
#08858:0015000000000000
#07455:0000000000000063
#07455:0000000000000063
#0745b:0000000000000013
#07552:23
#07552:23
#0805b:0000000000000063
#05152:0000000000000053
#04558:0000000000000053
#04552:0000000014000013
#0455a:0014
#0465b:23
#07756:24
#05555:0000000000000063
#0555a:00640000
#05556:0000002400000000
#08756:63
#08757:0000005300000000
#08754:0000000000000014
#08652:00530000
#08655:0000002300000000
#0665b:00630000
#06657:0023
#06652:0000000000000053
#00856:0000000000000023
#00852:00000053
#02056:0000230000130000
#02052:0053000000000000
#0205b:0000006300000000
#02057:0023
#02452:00230013
#0245b:0023
#02458:0000005300000000
#02456:0063000000000000
#01356:0000130000000063
#0135b:00000013
#01452:23130000
#0145b:0000006300001300
#01457:0023
#01652:0000005300000000
#01656:0023
#0165b:0063000000000000
#01657:00230000
#0215b:63000013
#02152:0000130000000053
#02257:0000005300000000
#02252:00130000
#0225b:00000013
#01552:00130000
#0155b:00000013
#01752:00000013
#01757:0000130000000053
#0185b:23130000
#01852:0000005300001300
#01856:0023
#0195b:00130000
#01952:00000013
#02552:53000013
#0255b:0000130000000063
#0265b:00130000
#02656:0000006300000000
#02652:00000013
#000360:00000000000000000000000014342400
#000350:0000000000000000000000000000000000000000000000000034003400000000
#0013b0:00001323
#001380:0000000000330000
#001351:00001323
#001321:0000000000330000
#003381:1323000000000000
#003351:0000132300000000
#003381:0000000000130000
#0033b1:00000023
#004321:14
#004341:0024
#0043a0:14000024
#004380:0034
#004360:0000000000540000
#005370:00130000
#0053b0:0000005323000000
#0053b0:0000000000000013
#0063b0:23
#006320:0013000000000000
#006360:0000532300000000
#007370:00130000
#0073b0:0000005323000000
#007320:0000000000000013
#008360:5323000000000000
#008370:0000001300000000
#0083b0:0000000053230000
#008320:00000013
#008360:0000000000000053
#009320:23
#009360:00130000
#009320:0000005323000000
#009320:0000000000000013
#010320:23
#0103b0:0013000000000000
#010370:0000532300000000
#011360:00130000
#011320:0000005323000000
#0113b0:0000000000000013
#012370:5323000000000000
#012360:0000001300000000
#012320:0000000053230000
#0123b0:0000000000001323
#012321:0000000000000013
#013321:23
#013361:0000000000000013
#014321:53
#014361:0023000000000000
#0143b1:0000001300230000
#014371:0053
#0163b1:0013002300000000
#016371:00530000
#016320:0000001300230000
#016360:0053
#0163b0:00000013
#0173b0:23
#017370:0000000000000013
#0183b0:53
#018370:0023000000000000
#018320:0000001300230000
#018360:0053
#020320:0013002300000000
#020360:00530000
#0203b1:0000001300230000
#020371:0053
#0213b1:13
#021371:00230000
#021321:0000000000000013
#022361:0023000000000000
#022371:0000001300000000
#0223b1:0000000000230000
#024361:0013000000000000
#024321:00530000
#024351:0000002300000000
#024380:0000001300000000
#0243b0:0053
#024370:0000000000230000
#024370:00000013
#025370:23
#025321:13
#025361:00230000
#0253b1:0000000000000013
#026371:0023000000000000
#026361:0000001300000000
#026321:0000000000230000
#030321:0000000000000013
#031361:53
#031321:0023000000000000
#031370:0013330000000000
#0313b0:0023
#031321:00130000
#031361:0023
#0333b1:1323000000000000
#033350:0013230000000000
#033381:0000132300000000
#033350:0000001300000000
#033320:00000000000000000000000053545454
#033330:0000000000000000000000000000000000000000000000000054005400540054
#034320:24
#033381:00000000000000000000000014545454
#033391:0000000000000000000000000000000000000000000000000054005400540054
#034381:24
#034371:00130023
#0343b1:0053
#034320:00000013
#035360:23
#035360:0013000000000000
#035320:00530000
#035350:0000002300000000
#035381:0000001300000000
#0353b1:0053
#035371:0000000000332300
#035320:0000000000132300
#0373b0:13
#037380:00230000
#037321:13
#037351:00230000
#0373a1:00001424
#037381:0000000000520000
#037320:00001424
#037360:0000000000520000
#0383b0:13
#038370:00230000
#038321:00130000
#038361:0023
#039361:13
#039321:00230000
#039370:00130000
#0393b0:0023
#042320:13
#042360:00230000
#0423b1:00130000
#042371:0023
#043371:13
#0433b1:00230000
#043360:00130000
#043320:0023
#0433b0:0000000000000013
#0443b0:0023000000000000
#044320:0000001300230000
#045380:0000000000000013
#0463b0:53
#046380:0023000000000000
#046390:0000132300000000
#046330:0000000013230000
#0463b0:0000000000001323
#0473b0:0013
#047370:00000023
#047320:0000000000000013
#048360:53
#048320:0023000000000000
#0493a0:14
#049360:00240000
#049320:0014
#049360:00000024
#051320:0000000000000013
#052360:0023000000000000
#0523b1:0013000023000000
#052371:00000000005300000000000000000000
#0523b1:0000000000000013
#053381:0033003300330000
#0533b1:0000330033000023
#052320:0000000000000013
#053350:0033003300330000
#053320:0000330033000023
#0553a0:00142400
#055360:0000005400000000
#055350:0000000000000013
#056320:0023000000000000
#058320:13
#058360:00230000
#0583b0:0000001300000000
#058370:0000000000230000
#060320:0000000000130000
#060350:0000000000000023
#060381:0000000000130000
#0603b1:0000000000000023
#0613b1:00130000
#061381:0023
#0623b1:13
#062371:00230000
#062321:0000001300000000
#062361:0000000000230000
#0633b1:0000000000130000
#063381:0000000000000023
#064391:1222000000000000
#064381:00540000000000000000000000000000
#064350:0012220000000000
#064340:00000054000000000000000000000000
#064391:0000132300000000
#064381:00000000005500000000000000000000
#064340:0000001323000000
#064330:00000000000000550000000000000000
#064391:0000000013230000
#064371:00000000000000000057000000000000
#064340:0000000000132300
#064320:00000000000000000000005700000000
#0663b0:00130023
#066370:0053
#066320:0000000000000013
#067360:0053000000000000
#067320:0000002300000000
#0683b0:0000000000000013
#069370:0023000000000000
#069321:0013000000000000
#069361:0000002300000000
#0703b1:0000000000000013
#0713b1:23
#071350:1323000000000000
#0713a1:0013230000000000
#071340:0000132300000000
#071391:0000001323000000
#071330:0000000013230000
#071381:0000000000132300
#071381:0000000000000014
#071391:0000000000000000000000000000000000000000000000000000000000540054
#071371:00000000000000000000000000000054
#072371:54545454545400000000000000000000
#072391:0054005400540054005400540000000000000000000000000000000000000000
#072381:0000002400000000
#071340:0000000000000014
#071350:0000000000000000000000000000000000000000000000000000000000540054
#071330:00000000000000000000000000000054
#072330:54545454545400000000000000000000
#072350:0054005400540054005400540000000000000000000000000000000000000000
#072340:0000002400000000
#074350:0000000000000013
#075320:53
#075350:0023000000000000
#074351:0000000000000013
#075321:53
#075351:0023000000000000
#075341:0000132300000000
#0753a1:0000000013230000
#075321:0000000000001323
#076321:0013
#076361:00000023
#0763a1:0000000000000014
#077361:54
#0773a1:0024000000000000
#078321:14240000
#078361:0054000000000000
#0783a1:00001424
#078361:0000000000540000
#0803b1:0000000000000013
#081371:0023000000000000
#081320:0013000023000000
#081360:00000000005300000000000000000000
#081320:0000000000000013
#082350:0033003300230000
#082320:00333300
#0813b1:0000000000000013
#082381:0033003300230000
#0823b1:00333300
#083371:13
#0833b1:00230000
#083361:0000001300000000
#083321:0000000000230000
#0853b1:0000000000130023
#085381:00000053
#085350:0000000000130023
#085320:00000053
#086320:00132300
#086350:0000005300000000
#087360:13
#087320:00230000
#087370:0000001300000000
#0873b0:0000000000230000
#088320:0000000000130000
#088350:0000000000000023
#089350:1222000000000000
#089340:00540000000000000000000000000000
#089391:0012220000000000
#089381:00000054000000000000000000000000
#089340:0000132300000000
#089330:00000000005500000000000000000000
#089391:0000001323000000
#089381:00000000000000550000000000000000
#089340:0000000013230000
#089320:00000000000000000057000000000000
#089391:0000000000132300
#089371:00000000000000000000005700000000
#090381:0016
#0903c1:00000022
