This file was generated by Ched 2.6.4.0.
#TITLE ""
#ARTIST ""
#DESIGNER ""
#DIFFICULTY 0
#PLAYLEVEL
#SONGID ""
#WAVE ""
#WAVEOFFSET 0
#JACKET ""
#REQUEST "ticks_per_beat 480"
#00002: 4
#BPM01: 180
#00008: 01
#TIL00: ""
#HISPEED 00
#MEASUREHS 00
#00018:13
#00015:00130000000000000000000000000000
#0001a:00140000
#00012:00140000
#00016:0024
#0011b:00130000
#00118:00001313
#00115:0000000000130000
#00112:2400001300000000
#0011a:24
#00212:13002424
#0021b:0013000000000000
#00215:00130000
#00218:0000001300000000
#0021a:0000000000240000
#00318:13001313
#00315:0013000000130000
#0031b:00130000
#00312:0000001300000000
#01316:00140000
#01315:00001313
#01318:0000000000130000
#01312:23
#0131b:23
#03115:00130013
#0311b:00130000
#06512:0026000026001400
#0651a:00000014
#06518:0000002600000000
#0051b:13
#00512:1300000000130013
#00515:0013000000000000
#00518:00000013
#00510:41
#00712:13
#0071b:13
#00715:0013000000130000
#00718:00000013
#0081b:00130013
#00815:0000000000130013
#00818:0013
#00812:0000001300000000
#0141b:13000013
#01418:0013000000130000
#01412:1300001300001300
#01415:00131300
#01518:1313
#0151b:00130013
#01512:0000001300001300
#01515:0013000000130000
#01618:13130000
#01615:0013001300000000
#0161b:0013
#01612:0013
#0241b:13000013
#02415:0013000000130000
#02418:00131300
#02412:0000001300000000
#03319:0000000000000000000000000000000000000000000000000014001400140014
#03318:00000000130000000000000014141414
#0331b:13
#03315:0013000000000000
#03312:0000001300000000
#03415:00131313
#03418:2400001300130000
#0341b:00000013
#0361b:00130000
#03618:0000001300001300
#03615:0000000013000013
#03612:0000000000130000
#03614:24
#0371b:13
#0371a:00001424
#03714:0000000000140000
#03718:0000000000140000
#03712:0024
#03918:00000013
#03915:13
#03912:00130000
#04312:0000000000130000
#0431b:00130013
#04318:13
#04315:0000000000000023
#0451a:0000001424000000
#04512:0000002414000000
#04518:0023000000000023
#07012:13
#07018:00130000
#07015:0013
#0701b:00000013
#07114:0000000000000014
#07112:00000000000000000000000000000014
#07118:00000000000000000000000000000014
#0711a:0000000000000024
#07218:00140014001400000000140000000000
#07219:0000000000000012
#07214:1414140000000000
#0721a:1414140000000000
#07212:00140014001400000000240000000000
#0681b:1300001300000000
#06818:0013000000130000
#06812:13130013
#06815:0013
#06915:0013
#06918:00000026
#07315:12120000
#07319:0012000000000000
#07314:0000000000240000
#07318:0000002400000000
#0481b:1300001300000013
#04815:00130000
#04818:0000000000130000
#04812:00001313
#05318:0013000000000000
#05315:0013000000000000
#0531b:0000001300000000
#05312:0000001300000000
#0531a:00333300
#05313:00333300
#05818:0000000000000014
#0581b:13
#05812:0000001300000014
#0631b:0000000000130000
#06319:0014000000000000
#06313:0014000000000000
#06312:0000001400000000
#06318:0000001400000000
#05015:13
#0501b:0013000000000000
#05014:00130000
#0501a:0000001300000000
#05013:0013
#05019:0000000000130000
#05012:00000013
#05018:0000000000000013
#06618:00130013
#06615:0013000000130000
#06612:2300001300000013
#0661b:2300000013000013
#06718:00132600
#06715:0013001300000000
#06712:00000026
#00416:00140000
#00412:24
#0041a:00000024
#00912:13
#0091b:1300000000130013
#00918:0013000000000000
#00915:00000013
#0111b:13
#01112:13
#01118:0013000000130000
#01115:00000013
#01212:00130000
#01218:0000000000130000
#01215:00001313
#0121b:0000001300000000
#00618:13000024
#00615:00130000000000000000000000000000
#00614:0024
#01015:13
#01018:00130000000000002400000000000000
#01014:00000024
#01813:0000001300000000
#01818:13
#01812:0013000000000000
#01819:00130000
#0181a:0013
#01814:0000000000130000
#0181b:00000013
#01915:13
#0191b:0013000000000000
#01914:00130000
#0191a:0000001300000000
#01913:0013
#01919:0000000000130000
#01912:00000013
#05715:0000000000000013
#05712:16261600
#05718:0016000000260000
#05913:0014000000000000
#05919:0014000000000000
#0591a:0000001400000000
#05914:0000001400000000
#05912:0000000000130000
#05918:00000013
#05915:0000000000000013
#03015:00000013
#03018:0000240000130013
#03012:2600000000000013
#03014:0000002400000000
#03010:41
#03215:00000013
#03212:0000000000130000
#03218:2600002400000013
#03214:00240000
#03518:0013000000001300
#03512:0013000000000000
#03515:0000000000130000
#0381b:13
#03818:00130000
#0381f:11
#04212:13
#04215:00130000
#04018:0013000000130000
#04015:00231300
#04012:13000023
#0401b:0000002300000000
#04115:0013000000130000
#04118:00231300
#0411b:13000023
#04112:0000002300000000
#0441b:0013000000001300
#04412:0000130000130000
#04418:0000002300000000
#04415:0000000000000023
#0471b:0013
#04718:1300130000000013
#04715:0013000013000000
#04712:00130000
#04710:41
#04912:14
#0491a:0014
#04916:00240024
#0561b:0000000000000013
#05615:00130013
#05618:0000001300130000
#05612:0013
#05518:0000140000000013
#05516:0013000014000000
#05512:0000000000130000
#0551a:14
#05514:0000001300000000
#05414:0014001400000000
#05418:00140013
#0541b:0013
#05415:0000000000130000
#05412:0000000000000013
#06214:0000000000000014
#0621a:0000000000000014
#0621b:0000001300000000
#06212:13
#06210:41
#06415:13
#06418:0013001400150026
#06414:00140000
#06413:0015
#06412:00000016
#07712:1300001300000013
#07718:00130000
#07715:0000000000130000
#0771b:00001313
#08215:0013000000000000
#08218:0013000000000013
#08212:0000001300000000
#0821b:0000001300000000
#08213:00333300
#0821a:00333300
#07612:0013
#07615:1300130000000013
#07618:0013000013000000
#0761b:00130000
#0781a:14
#07812:0014
#07816:00240024
#0741b:0000000000130000
#07412:0000000000130000
#07415:0000000000000023
#06012:0000001300000000
#0601b:1313
#06015:0013000000130000
#06018:00130000
#0611b:0013000000000000
#06118:0000000000130013
#06115:00000013
#08314:0000000000000014
#08312:13
#0831b:0000001300000000
#0831a:0000000000000014
#08812:0000000000130000
#08813:0014000000000000
#08819:0014000000000000
#0881a:0000001400000000
#08814:0000001400000000
#08419:0014000000000000
#08413:0014000000000000
#08412:0000001400000000
#08418:0000001400000013
#0841b:0000000000130000
#08415:00000013
#08718:0000000000000014
#08712:0000001300000014
#0871b:13
#08918:13141516
#08915:0013000000000000
#08914:0000001400000000
#08913:0000000000150000
#08912:0000000000000026
#0851b:0000001300000000
#08512:1313
#08518:0013000000130000
#08515:00130000
#08612:0013000000000000
#08615:0000000000130013
#08618:00000013
#0221b:13
#02215:0013000000000000
#0221a:00130000
#02214:0000001300000000
#02219:0013
#02213:0000000000130000
#02218:00000013
#02612:0013
#02615:1300130000130013
#02618:0013001300001300
#0271b:13
#02712:13
#02714:0014
#02718:00140014
#02018:13131300
#02015:0013001300000000
#02012:0000000000230000
#0201b:0000000000230000
#02515:1300130000130000
#02518:0013000000001300
#02512:0013
#0251b:0000000000000013
#04615:0000001300000013
#04612:0000000000130000
#0461b:00130013
#04618:0013
#0461f:21
#05112:0013000000000000
#05119:00130000
#05113:0000001300000000
#0511a:0013
#05114:0000000000130000
#0511b:00000013
#05115:0000000000000013
#05212:0013000000002323
#0521b:0000000000002323
#07918:13
#07912:0013000000000000
#07919:00130000
#07913:0000001300000000
#0791a:0013
#07914:0000000000130000
#0791b:00000013
#07915:0000000000000013
#0801b:0013000000000000
#08014:00130000
#0801a:0000001300000000
#08013:0013
#08019:0000000000130000
#08012:00000013
#08018:0000000000000013
#0811b:0013000000000023
#08112:0000000000000023
#08118:00000023
#08115:0000000000230000
#07518:0000001300000013
#0751b:0000000000130000
#07512:00130013
#07515:0013
#07510:41
#01718:0013000000130000
#01715:00131300
#0171b:0000001300001300
#01712:00000013
#02115:00001313
#0211b:0000131300000000
#02112:2313000000000000
#02118:0000000000130000
#02110:41
#02812:13000013
#02818:0013000000130000
#0281b:0000001300000000
#02815:00231300
#02918:0024000025000026
#02914:00240000
#02913:0000000000250000
#09018:0026000000000000
#09012:0000002600000000
#0231a:00240000
#00056:0014
#00252:00000014
#03155:00630013
#0315b:00630000
#00358:00000013
#00452:5434
#00456:00240000
#0045a:00000044
#01356:00140000
#03458:14
#0345b:00000063
#03455:00000063
#03359:0000000000000000000000000000000000000000000000000054005400540054
#03358:00000000000000000000000054545454
#03654:14
#0375b:63
#03758:0000130000240000
#0375a:00006444
#03752:00005434
#03754:0000000000240000
#04355:0000000000000013
#04358:53
#0435b:00630000
#0715a:0000000000000064
#07154:0000000000000064
#07158:00000000000000000000000000000064
#07152:00000000000000000000000000000064
#05358:0053000000000013
#05355:0063000000000013
#0535b:0000002300000000
#05352:0000002300000000
#0525b:0000000000000063
#05252:0053000000000053
#0635b:0000000000630000
#00658:00000014
#00654:0014
#01054:00000014
#01058:0014
#0585b:63
#05852:0000005300000000
#03052:1600000000000053
#03058:0000000000000053
#03258:16
#03558:0053000000001300
#03552:0053000000000000
#0385b:6313
#03858:00530000
#03955:6313
#03952:00530000
#03958:00000013
#04252:53
#04255:00630000
#04458:0000001300000000
#0475b:0063
#04755:0063
#04758:0000000000000053
#04952:54
#0495a:0064
#04956:00140014
#05758:0000000000160000
#05752:00160000
#05558:0000000000000053
#06758:0016
#06752:00000016
#07052:13
#07058:00130000
#07055:0013
#0705b:00000013
#07254:6464641400000000
#0725a:6464641400000000
#07252:00640064006400000000140000000000
#07258:00640064006400000000140000000000
#07354:0000000000140000
#07358:0000001400000000
#08255:0063000000000000
#08258:0053000000000000
#08252:0000002300000000
#0825b:0000002300000000
#07652:0053
#07655:0000000000000063
#07658:0053
#0785a:64
#07852:0054
#07856:00140014
#08152:0000000000000053
#0815b:0063000000000063
#06055:0000000000630000
#06052:0000000000000013
#0625b:0000006300000000
#06252:53
#08852:0000000000530000
#08352:53
#0835b:0000006300000000
#08558:0000000000530000
#0855b:0000000000000013
#08752:0000005300000000
#0875b:63
#05155:0000000000000063
#08058:0000000000000053
#0485b:23
#07752:23
#004320:1424
#004360:00540000
#0053b0:00130000
#005380:0023
#006380:0013000000000000
#0063b0:0000002300000000
#007380:00130000
#0073b0:0023
#007320:0000000000000013
#008350:0023000000000000
#009320:00130000
#009350:0023
#010350:0013000000000000
#010320:0000002300000000
#011350:00130000
#011320:0023
#0113b0:0000000000000013
#012380:0023000000000000
#016320:00000013
#017320:23
#022320:0000000000000013
#022330:00000000000000000000000000000033
#023340:33
#023350:00330000000000000000000000000000
#023360:0023000000000000
#0233a0:00140000
#023390:00000000003400000000000000000000
#023380:0000003400000000
#023370:00000000000000340000000000000000
#023360:0024
#023320:0000000000130000
#023330:00000000000000000000003300000000
#023340:00000033
#023350:00000000000000000000000000330000
#023360:0000000000000023
#030320:0000000000000013
#031350:0023000000000000
#030381:0000000000000013
#0313b1:0023000000000000
#0313b1:00130000
#031381:0023
#031350:00130000
#031320:0023
#033380:00000000000000000000000014545454
#033390:0000000000000000000000000000000000000000000000000054005400540054
#034380:24
#0343b0:00000013
#035380:23
#034351:00000013
#035321:23
#035321:0013000000000000
#035351:0000002300000000
#035380:0013000000000000
#0353b0:0000002300000000
#0373b0:13
#037380:00230000
#0373a0:00001424
#037380:0000000000540000
#037321:00001424
#037341:0000000000540000
#0383b1:1323
#038381:00330000
#039351:1323
#039321:00330000
#042321:1323
#042351:00330000
#043381:1323
#0433b1:00330000
#045351:0000000000000013
#046351:0023000000000000
#0473b1:0013
#047381:00000023
#047350:0013
#047320:00000023
#047380:0000000000000013
#0483b0:53
#048380:0023000000000000
#049320:14
#049360:00240000
#0493a0:0014
#049360:00000024
#051350:0000000000000013
#052320:0033000000000000
#052360:0023
#0523b0:0000000000000013
#053380:0033000000330023
#0533a0:00333300
#0533b0:0000003300000000
#052321:0000000000000013
#053351:0033000000330023
#053331:00333300
#053321:0000003300000000
#055381:0000000000000013
#0563b1:0023000000000000
#0583b1:13
#058381:00230000
#058321:0000001300000000
#058351:0000000000230000
#060351:0000000000130000
#060321:0000000000000023
#061351:00130000
#061321:0023
#062321:13
#062351:00230000
#0623b1:0000001300000000
#062381:0000000000230000
#0633b1:0000000000130000
#063381:0000000000000023
#0683b1:0000000000000013
#069381:0033000000000000
#0693b1:0000002300000000
#071351:13230000
#0713b0:13230000
#071380:00001323
#071321:00001323
#0713a1:0000000000000014
#071381:00000000000000000000000000000054
#0723a1:5454542400000000
#072381:00540054005400000000000000000000
#071340:0000000000000014
#071320:00000000000000000000000000000054
#072340:5454542400000000
#072320:00540054005400000000000000000000
#074380:0000000000000013
#075380:0023000000000000
#076320:0013
#076350:00000023
#076381:0013
#0763b1:00000023
#076351:0000000000000013
#077321:53
#077351:0023000000000000
#0783a1:14
#078361:00240000
#078321:0014
#078361:00000024
#080381:0000000000000013
#0813b1:0033000000000000
#081371:0023
#081321:0000000000000013
#082351:0033000000230000
#082331:00333300
#082321:0000003300000000
#0813b0:0000000000000013
#082380:0033000000230000
#0823a0:00333300
#0823b0:0000003300000000
#083320:13
#083350:00230000
#0833b0:0000001300000000
#083380:0000000000230000
#085380:0000000000130000
#0853b0:0000000000000023
#086380:00130000
#0863b0:0023
#0873b0:13
#087380:00230000
#087320:0000001300000000
#087350:0000000000230000
#088320:0000000000130000
#088350:0000000000000023
#090380:0016
#0903b0:00000023
