This file was generated by Ched 2.6.4.0.
#TITLE ""
#ARTIST ""
#DESIGNER ""
#DIFFICULTY 0
#PLAYLEVEL
#SONGID ""
#WAVE ""
#WAVEOFFSET 0
#JACKET ""
#REQUEST "ticks_per_beat 480"
#00002: 4
#BPM01: 180
#00008: 01
#TIL00: ""
#HISPEED 00
#MEASUREHS 00
#00019:1424
#00013:00140014
#0011a:14140000
#00114:00001414
#00218:14140000
#00212:00001414
#0031a:14140000
#00312:00001414
#0051a:1414
#00512:00140014
#00510:41
#00618:1424
#00614:00140024
#0071a:1414
#00712:00140014
#00818:14
#00814:00140000
#00912:1414
#00918:00140014
#01014:1424
#0101a:00140024
#01112:1414
#01118:00140014
#01214:14
#0121a:00140000
#01318:1414
#01312:00140000
#01414:1414
#0141a:00140000
#0151a:14
#01514:00140000
#01518:0014
#01612:14
#01618:00140000
#01614:0014
#01718:14
#01714:00140000
#0171a:0014
#01814:14
#01818:00140000
#01812:0014
#0191a:1414
#01914:00140000
#02012:1414
#02018:00140000
#02418:1414
#02414:00140014
#02718:1414
#02714:00140014
#0281a:14140000
#02812:00001414
#03014:00140000
#03018:0014
#03012:00000014
#0301a:24
#03010:41
#03118:14
#03114:00140000
#0311a:0014
#03218:00140000
#03214:0014
#0321a:00000014
#03212:24
#03314:14
#03318:00140000
#03312:0014
#03412:00140000
#0341a:0014
#03414:00000014
#03418:24
#0351a:14
#03512:00140000
#03518:0014
#0361a:00140000
#03612:0014
#03618:00000014
#03614:24
#03712:14
#0371a:00140000
#0381a:14
#03816:00140000
#03812:0014
#0381f:11
#04212:14
#04216:00140000
#0421a:0014
#0411a:1414
#04114:00140000
#03912:14
#03916:00140000
#0391a:0014
#04012:1414
#04018:00140000
#0431a:14
#04316:00140014
#04312:0014
#04612:00140014
#0461a:2414
#0461f:21
#04718:14141400
#04714:0014001400000000
#04710:41
#05014:1414
#05018:00140014
#05112:1414
#0511a:00140014
#05318:14
#05314:00140000
#05412:00140014
#05418:0014
#0551a:1414
#05514:00140000
#05612:14
#05618:00140000
#05614:0014
#0561a:00000014
#05818:14
#05812:00140000
#0581a:0014
#05814:00000014
#05918:14
#05912:00140000
#0591a:0014
#05914:00000014
#06018:14
#06014:00140000
#0601a:0014
#06012:00000014
#06214:14
#0621a:00140000
#06212:0014
#06218:00000014
#06210:41
#06314:14
#0631a:00140000
#06312:0014
#06318:00000014
#06414:14
#06418:00140000
#06412:0014
#06612:1414
#06618:00140000
#0671a:1414
#06714:00140000
#06812:14
#06818:00140000
#06814:0014
#0691a:14
#06914:00140000
#06918:0014
#07014:14
#07018:0014
#0741a:14
#07412:14
#0751a:00140014
#07512:2414
#07510:41
#07614:14141400
#07618:0014001400000000
#07918:1414
#07914:00140014
#0801a:1414
#08012:00140014
#08214:14
#08218:00140000
#0831a:00140000
#08312:0014
#08318:00000014
#08414:14
#0841a:00140000
#08412:0014
#08418:00000014
#08514:14
#08518:00140000
#08512:0014
#0851a:00000014
#08718:14
#08712:00140000
#0871a:0014
#08714:00000014
#08818:14
#08812:00140000
#0881a:0014
#08814:00000014
#08918:14
#08914:00140000
#0891a:0014
#07218:14
#0721a:00140000
#07314:14
#07312:00140000
#06118:14
#08614:14
#00418:24
#00414:00000024
#04912:24240000
#0491a:00002424
#0571a:0024
#05712:0024
#0781a:24240000
#07812:00002424
#02119:00340000
#02118:0034
#02110:41
#02213:00340000
#02214:0034
#02519:00340000
#0251a:0034
#02613:00340000
#02612:0034
#00458:0014
#00454:00000014
#0305a:14
#03252:14
#03458:14
#03654:14
#05358:0000000000000014
#0655a:00000014
#07054:14
#07058:0014
#08354:14
#07258:54
#0725a:00240000
#07354:64
#07352:00240000
#06158:54
#08654:64
#004380:1424
#008380:00001424
#012340:00001424
#0213a0:14
#021390:00340000
#021380:00003424
#022320:14
#022330:00340000
#022340:00003424
#0233a0:14240000
#023320:00001424
#025380:14
#025390:00340000
#0253a0:00003424
#026340:14
#026330:00340000
#026320:00003424
#0293a0:1434340034340034
#0303a0:24
#037340:00001424
#0443a0:1424
#045320:1424
#048320:14
#048340:00240000
#0483a0:0014
#048380:00000024
#052320:14
#052340:00000024
#053380:0000000014000024
#057340:14
#057320:00240000
#061380:14
#0613a0:0024
#0643a0:0000000000001434
#0653a0:0034003434002400
#071340:1424
#072380:1424
#0723a0:00540000
#073340:1424
#073320:00540000
#0773a0:14
#077380:00240000
#077320:0014
#077340:00000024
#0813a0:14
#081380:00000024
#082340:0014
#083340:24
#086340:14
#086320:0024
#089320:0000000000001434
#090320:0034003434002400
