This file was generated by Ched 2.6.4.0.
#TITLE ""
#ARTIST ""
#DESIGNER ""
#DIFFICULTY 0
#PLAYLEVEL
#SONGID ""
#WAVE ""
#WAVEOFFSET 0
#JACKET ""
#REQUEST "ticks_per_beat 480"
#00002: 4
#BPM01: 165
#00008: 01
#TIL00: ""
#HISPEED 00
#MEASUREHS 00
#00513:14
#01418:14
#01410:41
#01518:14
#01614:14
#01714:14
#0181a:14
#0191a:14
#02012:14
#02112:14
#0221a:14
#02210:41
#02314:14
#02418:14
#02512:14
#0261a:14
#02714:14
#02818:14
#02912:14
#03018:14
#03112:14
#0321a:14
#03314:14
#03418:14
#03410:41
#03512:14
#0361a:14
#03714:14
#04818:16
#04812:0016
#04810:0041
#04912:16
#05012:0016
#05118:16
#05312:0016
#05418:16
#05412:0016
#05518:16
#05512:0026
#05612:16
#05618:0016
#05718:16
#05818:0016
#05912:16
#05910:0041
#06118:0016
#06212:16
#06218:0016
#06312:16
#06318:0026
#0711a:0014
#07212:0014
#0731a:0014
#07412:0014
#0061a:14
#00714:14
#0081a:14
#00914:14
#01018:14
#01112:14
#01218:14
#01312:14
#0381f:11
#04718:0026
#0471f:0021
#06712:0026
#06610:0041
#000390:0014
#001390:0034
#002390:3434
#003390:00000024
#038380:14
#039380:24
#040340:14
#041340:24
#0423a0:14
#0433a0:24
#044320:1400000000000034
#046320:00000000002400000000000000000000
#049380:0016
#050380:26
#051320:0016
#052320:26
#052380:0016
#053380:26
#057320:0016
#058320:26
#059380:0016
#060380:26
#060320:0016
#061320:26
#063380:0016
#064380:0036
#065380:0036
#066380:0026
#067320:0016
#068320:0036
#069320:0036
#070320:0026
#0753a0:0014
#0763a0:0034
#077390:0035
#078380:0036
#079380:0036
#0833a0:0024
