This file was generated by Ched 2.6.4.0.
#TITLE ""
#ARTIST ""
#DESIGNER ""
#DIFFICULTY 0
#PLAYLEVEL
#SONGID ""
#WAVE ""
#WAVEOFFSET 0
#JACKET ""
#REQUEST "ticks_per_beat 480"
#00002: 4
#BPM01: 165
#00008: 01
#TIL00: ""
#HISPEED 00
#MEASUREHS 00
#04716:0000000014000014
#0471a:24000014
#04712:2600000000140000
#0471f:0021
#0481a:0000001400001400
#04812:1400000000000014
#04816:0014140000000000
#04810:0041
#04912:0014001400000000
#0491a:0024
#06712:00130000
#06718:000000000000000000000000000000000000000000000000001300000013000000130000001300000013000000130000
#06719:000000000000000000000000131313131313131313131313
#0671a:000000000000000000000000000000000000000000000000000000130000001300000013000000130000001300000013
#06715:230000000000000000000000000000000000000000000000001300000013000000130000001300000013000000130000
#06714:000000000000000000000000131313131313131313131313
#06713:000000000000000000000000000000000000000000000000000000130000001300000013000000130000001300000013
#0671b:00230000
#06518:1415141514151415141514151415141514151415141514151415141514151415
#06513:0015001500150015001500150015001500150015001500150015001500150015
#06514:14141414141414141414141414141414
#07514:00000013
#07518:1313130000000000
#0751b:0023
#07619:00130000
#07612:23000014
#0761a:0024
#0771a:00142400
#07712:24000014
#07812:00142600
#07816:14
#06818:001300000013000000130000001300000013000000130000001300000013000000130000001300000013000000130000
#06819:131313131313131313131313131313131313131313131313
#0681a:000000130000001300000013000000130000001300000013000000130000001300000013000000130000001300000013
#06815:001300000013000000130000001300000013000000130000001300000013000000130000001300000013000000130000
#06814:131313131313131313131313131313131313131313131313
#06813:000000130000001300000013000000130000001300000013000000130000001300000013000000130000001300000013
#06918:001300000013000000130000000000000000000000000000000000000000000000000000000000000000000000000000
#06919:130000000000000013000000000000001300000000000000130000000000000013000000000000000000000000000000000000001300000000000000000000000000000013000000000000000000000000130000000000000000000000130000000000000000000000130000000000000000000000130000000000000000000000130000000000000000000000130000000000000000000000130000000000000000000000130000000000000000000000130000000000000000000000130000
#0691a:000000000000130000000000000013000000000013000000130000001300000013000000130000130000130000130000130000130000130000130000130000130000130000130000130000130000130000130000130000130000130000130000
#0691b:000000000000000000000000000000000000000000000000000000000000000000000000000000000000000013000000000000000000000000000000130000000000000000000000000000130000000000000000000000130000000000000000000000130000000000000000000000130000000000000000000000130000000000000000000000130000000000000000000000130000000000000000000000130000000000000000000000130000000000000000000000130000000000000000
#06915:001300000013000000130000000000000000000000000000000000000000000000000000000000000000000000000000
#06914:130000000000000013000000000000001300000000000000130000000000000013000000000000000000000000000000000000001300000000000000000000000000000013000000000000000000000000130000000000000000000000130000000000000000000000130000000000000000000000130000000000000000000000130000000000000000000000130000000000000000000000130000000000000000000000130000000000000000000000130000000000000000000000130000
#06913:000000000000130000000000000013000000000013000000130000001300000013000000130000130000130000130000130000130000130000130000130000130000130000130000130000130000130000130000130000130000130000130000
#06912:000000000000000000000000000000000000000000000000000000000000000000000000000000000000000013000000000000000000000000000000130000000000000000000000000000130000000000000000000000130000000000000000000000130000000000000000000000130000000000000000000000130000000000000000000000130000000000000000000000130000000000000000000000130000000000000000000000130000000000000000000000130000000000000000
#0701a:1313131313131313000000000000000000000000000000000000000000000000
#0701b:00130000001300000013000000130000000000000000000000000000000000000000000000000000000000000000000013000000000000000000000000000000
#07019:00000013000000130000001300000013000000000000000000000000000000000000000000000000000000000000000000000000000000000000000000000000
#07013:1313131313131313000000000000000000000000000000000000000000000000
#07012:00130000001300000013000000130000000000000000000000000000000000000000000000000000000000000000000000000000000000001300000000000000
#07014:00000013000000130000001300000013000000000000000000000000000000000000000000000000000000000000000000000000000000000000000000000000
#07015:0026
#04518:00130000
#04515:0013000000000000
#0501b:0013000000001300
#05018:00132300
#05015:0000001300000000
#05012:0013000000000000
#05016:0000000000000013
#05116:0000000000000013
#05112:0023
#05212:0023000000000013
#05218:0023002300000000
#05215:00232300
#0521b:0023
#05516:0000120014000014
#05512:00002414
#0551a:0000000000140000
#05612:0000001400001400
#05616:0014140000000000
#0561a:1400000000000014
#0571a:0014001400000000
#05712:0024
#05812:0013000000001300
#05815:00132300
#05818:0000001300000000
#0581b:0013000000000000
#05817:0000000000000013
#0601b:0023000000000013
#06015:0023002300000000
#06018:23232300
#06012:0023
#05412:1400001600000000
#05416:0014000000000000
#0541a:00140000
#05317:0013000023000000
#0531b:0000001300001313
#05316:0000001300000013
#05312:00130000
#0621a:0000001400000000
#06216:14140000
#06212:0014000000000000
#06218:0026
#06116:0013000023000000
#06112:0000001300001300
#06117:0000001300000000
#0611b:00130000
#0611a:0000000000000014
#00018:0013
#00019:000000000000000000000000003300000000000000000000
#0001a:000000000000003300000000
#00115:0013
#00114:000000000000000000000000003300000000000000000000
#00113:000000000000003300000000
#00218:2313
#0021a:000000000000003300000000
#0021b:0000000000330000
#00412:00000000000000000000000000000012
#0041c:00000000000000000000000000000012
#00512:0013000013000000
#00518:00000000001300000000130013001300
#00515:00000000130013000000001300130013
#0051b:0013000013000000
#00615:0000130000130000
#00618:13000013
#00612:00000013
#0061b:0013
#00815:13000013
#00818:0000130000130000
#00812:00131300
#0081b:00000013
#00912:13000013
#00915:0000130000130013
#0091b:00131300
#00918:00000013
#01018:1300000000130000
#01015:00130013
#0101b:00130013
#01112:13000013
#0111b:0000130000000013
#01115:0000130000130000
#01118:00000013
#01215:1300000000130000
#01212:00130013
#01218:00130013
#0131b:1313
#01318:00130023
#01312:0000130000000013
#01315:00001313
#01418:0000001313000000
#01415:2323000000131300
#0141b:2323000000001300
#01412:0000000013000013
#01410:41
#01515:0000001300001300
#01518:0013000013000000
#01512:0013
#0151b:00000013
#01615:0000001313000000
#01618:2323000000131300
#01612:2323000000001300
#0161b:0000000013000013
#01718:0000001300001300
#01715:0013000013000000
#0171b:0013
#01712:00000013
#01815:2300000013000013
#01818:0023000000130000
#0181b:23001313
#01812:0023001300001300
#01915:0000001300001300
#01918:00131300
#01912:1313
#0191b:0013000000001300
#02018:2300000013000013
#02015:0023000000130000
#02012:23001313
#0201b:0023001300001300
#02118:0000001300000013
#02115:00131313
#0211b:1313
#02112:0013000000000013
#02615:2300001300000013
#02618:00131313
#0261b:2300001300000000
#02612:0013
#0271b:1300130000130000
#02718:0013000013001300
#02715:0000001300000013
#02712:13131313
#02812:1300001313000000
#0281b:1300000000001313
#02818:0000001313000000
#02815:0000130000000013
#02915:0013130000130000
#02918:00130013
#0291b:0000000013000013
#02912:00000013
#03012:00130000
#03015:2300001300000013
#03018:1300000000000013
#0301b:0013000000000000
#03118:00000013
#0311b:00130000000000000000130000000000
#03115:0000000000000013
#03112:00130000000000000000000000000000
#03217:000000130000001300000000
#03212:000000130000001300000000
#0321b:000000000013000000000000
#03216:000000000000000000001300000000000000000000130000
#03214:0013
#03219:0013
#0341b:00130000
#03418:1300001300000013
#03415:1300000000000013
#03412:0013000000000000
#03410:41
#03515:00000013
#03512:0013000000130000
#03518:0000000000000013
#0351b:0013000000000000
#03616:000000130000001300000000
#0361b:000000130000001300000000
#03612:000000000013000000000000
#03617:000000000000000000001300000000000000000000130000
#03619:0013
#03614:0013
#0371b:0000001300130013
#03712:0000000000130013
#03715:00000016
#03318:0000000000130000
#03312:00000013
#03315:0000000000000013
#0331b:0000000000000013
#03815:1300000000130000
#0381b:0000001300000000
#03812:0000001316000000
#03818:1300000016130000
#0381a:0000000000000014
#0381f:11
#03918:14
#03916:0014000000240000
#03914:00140000
#03912:0000001400000024
#0391a:00000024
#04016:2400000013001313
#04012:0000130000130000
#0401b:0000000000000013
#04017:00130000
#04117:0013001300000000
#0411b:00130000
#04112:0000000013000013
#04118:0000000000130000
#04115:00000013
#0421a:0000000000000014
#04316:14140000
#04312:0014001400130000
#0431a:0000001400000000
#04315:00000013
#04318:0000000000000013
#04418:0013000013000013
#04412:0000130000130013
#0441b:13000013
#04415:0000001300001300
#07118:1313000000230000
#07115:00130000000000002300000000000000
#0711b:0000130023000013
#07112:0000130000230000
#07212:0013001300000013
#0721b:0000001300001300
#07215:00131300
#07218:0000000000130000
#0731b:1300130000230000
#07318:0013000023000000
#07315:1300001300230000
#07312:0000130023000013
#0741b:0013000023000013
#07418:00130013
#07412:0000001300001300
#07415:0000000023000013
#00715:00000013
#0071b:13000013
#00718:0000130000130013
#00712:00131300
#02415:1300130000001313
#0241b:1300000000001313
#02418:0000001313000000
#02412:0000001313000000
#02515:0013000000001300
#02518:0000130000000013
#0251b:0000001300130000
#02512:0000001300000013
#0231b:13131300
#02318:0000001300000013
#02312:13130013
#02315:0013000013000000
#02215:0000001313001300
#02218:2300130000000013
#0221b:0000001313000000
#02212:23
#02210:41
#06615:0026
#06618:00000023
#06610:0041
#06312:00240000
#06316:00242400
#0641a:0024000000000000
#06416:00240000
#06418:0000002400000000
#06414:0024
#0591b:0023
#05910:0041
#04756:0000000064000024
#0475a:00001464
#04752:1600000000240000
#04952:0014005400000000
#04956:00000014
#06752:00530000
#06758:000000000000000000000000000000000000000000000000002300000023000000230000002300000023000000230000
#06759:000000000000000000000000636363636363636363636363
#0675a:000000000000000000000000000000000000000000000000000000230000002300000023000000230000002300000023
#06755:630000000000000000000000000000000000000000000000002300000023000000230000002300000023000000230000
#06754:000000000000000000000000535353535353535353535353
#06753:000000000000000000000000000000000000000000000000000000230000002300000023000000230000002300000023
#0675b:00630000
#06558:5425542554255425542554255425542554255425542554255425542554255425
#06553:0025002500250025002500250025002500250025002500250025002500250025
#06554:64646464646464646464646464646464
#07856:24
#06858:002300000023000000230000002300000023000000230000002300000023000000230000002300000023000000230000
#06859:636363636363636363636363636363636363636363636363
#0685a:000000230000002300000023000000230000002300000023000000230000002300000023000000230000002300000023
#06855:002300000023000000230000002300000023000000230000002300000023000000230000002300000023000000230000
#06854:535353535353535353535353535353535353535353535353
#06853:000000230000002300000023000000230000002300000023000000230000002300000023000000230000002300000023
#06958:002300000023000000230000000000000000000000000000000000000000000000000000000000000000000000000000
#06959:630000000000000063000000000000006300000000000000630000000000000063000000000000000000000000000000000000002300000000000000000000000000000023000000000000000000000000230000000000000000000000230000000000000000000000230000000000000000000000230000000000000000000000230000000000000000000000230000000000000000000000230000000000000000000000230000000000000000000000230000000000000000000000230000
#0695a:000000000000230000000000000023000000000063000000630000006300000063000000630000630000630000630000630000630000630000630000630000630000630000630000630000630000630000630000630000630000630000630000
#0695b:000000000000000000000000000000000000000000000000000000000000000000000000000000000000000023000000000000000000000000000000230000000000000000000000000000230000000000000000000000230000000000000000000000230000000000000000000000230000000000000000000000230000000000000000000000230000000000000000000000230000000000000000000000230000000000000000000000230000000000000000000000230000000000000000
#06955:002300000023000000230000000000000000000000000000000000000000000000000000000000000000000000000000
#06954:530000000000000053000000000000005300000000000000530000000000000053000000000000000000000000000000000000002300000000000000000000000000000023000000000000000000000000230000000000000000000000230000000000000000000000230000000000000000000000230000000000000000000000230000000000000000000000230000000000000000000000230000000000000000000000230000000000000000000000230000000000000000000000230000
#06953:000000000000230000000000000023000000000053000000530000005300000053000000530000530000530000530000530000530000530000530000530000530000530000530000530000530000530000530000530000530000530000530000
#06952:000000000000000000000000000000000000000000000000000000000000000000000000000000000000000023000000000000000000000000000000230000000000000000000000000000230000000000000000000000230000000000000000000000230000000000000000000000230000000000000000000000230000000000000000000000230000000000000000000000230000000000000000000000230000000000000000000000230000000000000000000000230000000000000000
#0705a:6363636363636363000000000000000000000000000000000000000000000000
#0705b:00230000002300000023000000230000000000000000000000000000000000000000000000000000000000000000000000000000000000000000000000000000
#07059:00000023000000230000002300000023000000000000000000000000000000000000000000000000000000000000000000000000000000000000000000000000
#07053:5353535353535353000000000000000000000000000000000000000000000000
#07052:00230000002300000023000000230000000000000000000000000000000000000000000000000000000000000000000000000000000000000000000000000000
#07054:00000023000000230000002300000023000000000000000000000000000000000000000000000000000000000000000000000000000000000000000000000000
#07055:0016
#05252:0000000000000013
#05257:00000013
#05556:0000120054000024
#05552:00001454
#0555a:0000000000240000
#05558:00120000
#0575a:0014006400000000
#05756:00000014
#05656:0024640000000000
#0565a:64
#05652:0000002400000000
#0605b:0000000000000013
#06056:00000013
#00058:0053
#00155:0063
#00258:0053
#00452:00000000000000000000000000000022
#0045c:00000000000000000000000000000022
#01558:0053000000000000
#01452:0000000000000053
#0165b:0000000000000063
#01755:0063000000000000
#01855:0000000000000063
#01952:23
#0195b:0063000000000000
#01958:00230000
#02058:0000000000000053
#0215b:23
#02152:0053000000000000
#02155:00230000
#02852:1353
#0285b:1300000000000063
#02858:0013
#03257:000000530000002300000000
#03252:000000530000002300000000
#0325b:000000000023000000000000
#03256:000000000023000000000000
#03254:0053
#03259:0053
#03656:000000630000002300000000
#0365b:000000630000002300000000
#03652:000000000023000000000000
#03657:000000000023000000000000
#03659:0063
#03654:0063
#03855:6300000000230000
#0385b:0000002300000000
#03852:0000002356000000
#03858:0000000066230000
#04452:0000530000000013
#0445b:63
#04458:0023000000000053
#04455:0000002300000000
#03058:5300000000000053
#0305b:0023000000000000
#03055:1300000000000063
#0315b:00230000000000000000000000000000
#03152:00230000000000000000000000000000
#02955:00630000
#04057:00530000
#04056:0000000000000063
#03455:6300000000000063
#03458:1300000000000053
#03452:0023000000000000
#03552:0023000000000000
#0355b:0023000000000000
#07252:0000005300000000
#07255:0023
#07258:0000000000530000
#0725b:00000023
#00658:53
#0135b:0063
#01358:00000013
#02455:13
#0245b:1300000000000063
#02452:0013
#02458:0013
#02552:0000005300000000
#02658:0013
#02652:0013
#0265b:13
#02655:13
#0235b:0063
#02255:0013
#0225b:0013
#02258:13
#02252:13
#04852:54
#04856:0024540000000000
#0485a:0000002400000000
#06655:0016
#06658:00000053
#06352:00140000
#06356:00546400
#0635a:0014
#0775a:0064
#07752:54
#0765a:0064
#07652:53
#0755b:0063
#07958:00460000
#07952:00360000
#00552:14
#0055a:14
#000380:0013
#000390:000000000000000000000000003300000000000000000000
#0003a0:000000000000003300000000
#0003b0:0000000000330000
#0013b0:0023
#001351:0013
#001341:000000000000000000000000003300000000000000000000
#001331:000000000000003300000000
#001321:0000000000330000
#003321:00000053
#004321:00000000000000000000000000000052
#005321:24
#002380:0013
#0023a0:000000000000003300000000
#0023b0:000000000000000000000000000000333300000000000000
#0033b0:00000053
#0043c0:00000000000000000000000000000052
#0053a0:24
#006380:13
#0063b0:00230000
#010320:0000000013230000
#0113b0:0000000013230000
#0123b0:0000000013230000
#0133b0:0013
#013380:00000023
#014320:0000000000000013
#015350:0023000000000000
#015381:0013000000000000
#0153b1:0000002300000000
#0163b1:0000000000000013
#017381:0023000000000000
#017350:0013000000000000
#017320:0000002300000000
#018350:0000000000000013
#019320:53
#019350:0023000000000000
#0193b1:0013002300000000
#019381:00530000
#020381:0000000000000013
#0213b1:53
#021381:0023000000000000
#021320:0013002300000000
#021350:00530000
#0233b0:0013
#023380:00000023
#0243b0:0000000000000013
#025380:0023000000000000
#025320:0000001300000000
#025350:0000000000230000
#028320:0013
#028350:00000023
#0283b0:0000000000000013
#029380:0023000000000000
#029350:00130000
#029320:0023
#030380:13230000
#0303b0:0053000000000000
#0303b0:0000000013230000
#030321:0000000000132300
#030380:0000000000001333
#0313b0:00530000000000000000000000000000
#031380:00230000
#030351:0000000000000013
#031321:00530000000000000000000000000000
#031351:00230000
#031321:0000000000132300
#0313b1:0000000000000013
#0323b1:23
#032320:130000330000005300000000
#032360:000000000053000000230000
#032340:0033
#032371:000000130000005300000000
#0323b1:000000000053000000230000
#032391:0033
#0323b1:0000000000000013
#033381:0023000000000000
#033350:0013230000000000
#033381:0000132300000000
#033320:0000001300000000
#033350:0000000000230000
#034350:13230000
#034320:0053000000000000
#034320:0000000013230000
#0343b1:0000000000132300
#034350:0000000000001333
#035320:0053000000000000
#035350:0000002300000000
#034381:0000000000000013
#0353b1:0053000000000000
#035381:0000002300000000
#0353b1:0000000000132300
#035321:0000000000000013
#036321:23
#0363b0:130000330000005300000000
#036370:000000000053000000230000
#036390:0033
#036361:000000130000005300000000
#036321:000000000053000000230000
#036341:0033
#036321:0000000000000013
#037351:0023000000000000
#037380:0013230000000000
#037351:0000132300000000
#038351:1300000000330000
#038321:0000333336002600
#0383b0:0000133300000000
#038380:0000000036332600
#040370:00130000
#0403b0:0023
#040360:0000000000000013
#041320:0023000000000000
#042380:12220000
#042341:0000122200000000
#042380:0000001222000000
#042361:0000000012220000
#0423a0:0000000000122200
#042341:0000000000001222
#0443b1:13230000
#044381:0053000000000000
#044320:00132300
#044350:0000005300000000
#044380:0000000000000013
#0453b0:0023000000000000
#045320:0000001600000000
#046320:00000000002200000000000000000000
#0473a0:145454545454545454545454240000000000000000000000
#047390:005500000000000000000000000000000000000000000055000000000000000000000000000000000000000000000000
#047380:00560000000000560000000000000000
#047370:000000000057000000000000000000000000005700000000000000000000000000000000000000000000000000000000
#047360:000000000000005800000000000000000058000000000000000000000000000000000000000000000000000000000000
#047350:000000000000000000590059005900590000000000000000000000000000000000000000000000000000000000000000
#047361:00001424
#047321:0000000000540000
#0473a0:00000014
#047360:0000000000000054
#0483a0:24
#048321:14240000
#048361:0054000000000000
#048360:00142400
#0483a0:0000005400000000
#048321:0014
#048361:00000024
#0483a1:0000000000000014
#049361:0024000000000000
#049321:0000001400000000
#049361:00000024
#050321:0013
#050361:00000023
#0503b1:0000000000000013
#051371:0023000000000000
#051320:0013002300000000
#051371:0000001300000000
#0513b1:0000000000000023
#0523b1:0013
#052371:00000023
#053321:0013
#053361:00000023
#054381:0000001625000000
#054330:0015
#054340:0000000000240000
#054381:0000000000152400
#054340:00000014
#054350:0000000000000023
#054381:0000000000000014
#055381:23
#055350:13
#055360:0022000000000000
#055381:0013220000000000
#055361:00001424
#0553a1:0000000000540000
#055320:00000014
#055360:0000000000000054
#056320:24
#0563a1:14240000
#056361:0054000000000000
#056360:00142400
#056320:0000005400000000
#0563a1:0014
#056361:00000024
#056321:0000000000000014
#057361:0024000000000000
#0573a1:0000001400000000
#057361:00000024
#0583b1:0013
#058371:00000023
#058321:0000000000000013
#059361:0023000000000000
#0593b0:0013002300000000
#059361:0000001300000000
#060321:23
#060321:0013
#060361:00000023
#0613b1:0013
#061371:00000023
#062321:000000000000000000000000000000000000000000000000000000000000000000000000000000000000000000000000000000000000000000000000000000000000000000000000000000000000000000000000000000000000000000000000000000000000000000000000000000000000000000000000000000000000000000000000000000000000000000000000000000000000000000000000000000000000000000000000000000000000000000000000000000000000000000000000000000000000000000000000000000000000000000000000000000000000000000000000000000000000000000000000000000000000000000000000000000000000000000000000000000000000000000000000000000000000000000000000000000000000000000000000000000000000000000000000000000000000000000000000000000000000000000000000000000000000000000000000000000000000000000000000000000000000000000000000000000000000000000000000000000000000000000000000000000000000000000000000000000000000000000000000000000000000000000000000000000000000000000000000000000000000000000000000000000000000000000000000000000000000000000000000000000000000000000000000000000000000000000000000000000000000000000000000000000000000000000000000000000000000000000000000000000000000000000000000000000000000000000000000000000000000000000000000000000000000000000000000000000000000000000000000000000000000000000000000000000000000000000000000000000000000000000000000000000000000000000000000000000000000000000000000000000000000000000000000000000000000000000000000000000000000000000000000000000000000000000000000000000000000000000000000000000000000000000000000000000000000000000000000000000000000000000000000000000000000000000000000000000000000000000000000000000000000000000000000000000000000000000000000000000000000000000000000000000000000000000000000000000000000000000000000000000000000000000000000000000000000000000000000000000000000000000000000000000000000000000000000000000000000000000000000000000000000000000000000000000000000000000000000000000000000000000000000000000000000000000000000000000000000000000000000140000000000000000000000000000000000000000000000000000000000000000000000000000000000000000000000000000000000000000000000000000000000000000000000000000000000000000000000000000000000000000000000000000000000000000000000000000000000000000000000000000000000000000000000000000000000000000000000000000000000000000000000000000000000000000000000000000000000000000000000000000000000000000000000000000000000000000000000000000000000540000000000000000000000000000000000000000000000000000000000345600000000000000000000000000000000000000000000000000000000560000000000000000000000000000000000000000000000000000000000000000000000000000000000000000000000000000000000000000000000000000000000000000000000000000000000000000000000000000000000000000000000000000000000000000000000000000000000000000000000000000000000000000000000000000000000000000000000000000000000000000000000000000000000000000000000000000000000000000000000565400000000000000000000000000000000000000000000000000000000340000000000000000000000000000000000000000000000000000000000540000000000000000000000000000000000000000000000000000000000000000000000000000000000000000000000000000000000000000000000000000000000000000000000000000000000000000000000000000000000000000000000000000000000000000000000000000000000000000000000000000000000000000000000000000000000000000000000000000000000000000000000000000000000000000000000000000000000000000000000540000000000000000000000000000000000000000000000000000000000345600000000000000000000000000000000000000000000000000000000560000000000000000000000000000000000000000000000000000000000000000000000000000000000000000000000000000000000000000000000000000000000000000000000000000000000000000000000000000000000000000000000000000000000000000000000000000000000000000000000000000000000000000000000000000000000000000000000000000000000000000000000000000000000000000000000000000000000000000000000000000000000000000000000000000000000000000000000000000000000
#063321:26
#062380:000000000000000000000000000000000000000000000000000000000000000000000000000000000000000000000000000000000000000000000000000000000000000000000000000000000000000000000000000000000000000000000000000000000000000000000000000000000000000000000000000000000000000000000000000000000000000000000000000000000000000000000000000000000000000000000000000000000000000000000000000000000000000000000000000000000000000000000000000000000000000000000000000000000000000000000000000000000000000000000000000000000000000000000000000000000000000000000000000000000000000000000000000000000000000000000000000000000000000000000000000000000000000000000000000000000000000000000000000000000000000000000000000000000000000000000000000000000000000000000000000000000000000000000000000000000000000000000000000000000000000000000000000000000000000000000000000000000000000000000000000000000000000000000000000000000000000000000000000000000000000000000000000000000000000000000000000000000000000000000000000000000000000000000000000000000000000000000000000000000000000000000000000000000000000000000000000000000000000000000000000000000000000000000000000000000000000000000000000000000000000000000000000000000000000000000000000000000000000000000000000000000000000000000000000000000000000000000000000000000000000000000000000000000000000000000000000000000000000000000000000000000000000000000000000000000000000000000000000000000000000000000000000000000000000000000000000000000000000000000000000000000000000000000000000000000000000000000000000000000000000000000000000000000000000000000000000000000000000000000000000000000000000000000000000000000000000000000000000000000000000000000000000000000000000000000000000000000000000000000000000000000000000000000000000000000000000000000000000000000000000000000000000000000000000000000000000000000000000000000000000000000000000000000000000000000000000000000000000000000000000000000000000000000000000000000000000000000000000000000000160000000000000000000000000000000000000000000000000000000000000000000000000000000000000000000000000000000000000000000000000000000000000000000000000000000000000000000000000000000000000000000000000000000000000000000000000000000000000000000000000000000000000000000000000000000000000000000000000000000000000000000000000000000000000000000000000000000000000000000000000000000000000000000000000000000000000000000000000000000000560000000000000000000000000000000000000000000000000000000000000000000000000000000000000000000000000000000000000000000000000000000000000000000000000000000000000000000000000000000000000000000000000000000000000000000000000000000000000000000000000000000000000000000000000000000000000000000000000000000000000000000000000000000000000000000000000000000000000000000000000000000000000000000000000000000000000000000000000000000000000000000000000000000000000000000000000000000000000000000000000000000000000000000000000000000000000000000000000000000000005600000000000000000000000000000000000000000000000000000000560000000000000000000000000000000000000000000000000000000000000000000000000000000000000000000000000000000000000000000000000000000000000000000000000000000000000000000000000000000000000000000000000000000000000000000000000000000000000000000000000000000000000000000000000000000000000000000000000000000000000000000000000000000000000000000000000000000000000000000000560000000000000000000000000000000000000000000000000000000000000000000000000000000000000000000000000000000000000000000000000000000000000000000000000000000000000000000000000000000000000000000000000000000000000000000000000000000000000000000000000000000000000000000000000000000000000000000000000000000000000000000000000000000000000000000000000000000000000000000000000000000000000000000000000000000000000000000000000000000000000000000000000000000000000000000000000000000000000000000000000000000000000000000000000000000000000000000000000000000000
#0623a0:000000000000000000000000000000000000000000000000000000000000000000000000000000000000000000000000000000000000000000000000000000000000000000000000000000000000000000000000000000000000000000000000000000000000000000000000000000000000000000000000000000000000000000000000000000000000000000000000000000000000000000000000000000000000000000000000000000000000000000000000000000000000000000000000000000000000000000000000000000000000000000000000000000000000000000000000000000000000000000000000000000000000000000000000000000000000000000000000000000000000000000000000000000000000000000000000000000000000000000000000000000000000000000000000000000000000000000000000000000000000000000000000000000000000000000000000000000000000000000000000000000000000000000000000000000000000000000000000000000000000000000000000000000000000000000000000000000000000000000000000000000000000000000000000000000000000000000000000000000000000000000000000000000000000000000000000000000000000000000000000000000000000000000000000000000000000000000000000000000000000000000000000000000000000000000000000000000000000000000000000000000000000000000000000000000000000000000000000000000000000000000000000000000000000000000000000000000000000000000000000000000000000000000000000000000000000000000000000000000000000000000000000000000000000000000000000000000000000000000000000000000000000000000000000000000000000000000000000000000000000000000000000000000000000000000000000000000000000000000000000000000000000000000000000000000000000000000000000000000000000000000000000000000000000000000000000000000000000000000000000000000000000000000000000000000000000000000000000000000000000000000000000000000000000000000000000000000000000000000000000000000000000000000000000000000000000000000000000000000000000000000000000000000000000000000000000000000000000000000000000000000000000000000000000000000000000000000000000000000000000000000000000000000000000000000000000000000000000000000000000000000000000000000000000000000000000000000000000000000000000000000000000000000000000000000000000000000000000000000000000000000000000000000000000000000000000000000000000000000000000000000000000000000000000000000000000000000000000000000000000000000000000000000000000000000000000000000000000000000000000000000000000000000000000000000000000000000000000000000000000000000000000000000000000000000000000000000000000000000000000005400000000000000000000000000000000000000000000000000000000340000000000000000000000000000000000000000000000000000000000540000000000000000000000000000000000000000000000000000000000000000000000000000000000000000000000000000000000000000000000000000000000000000000000000000000000000000000000000000000000000000000000000000000000000000000000000000000000000000000000000000000000000000000000000000000000000000000000000000000000000000000000000000000000000000000000000000000000000000000000540000000000000000000000000000000000000000000000000000000000340000000000000000000000000000000000000000000000000000000000000000000000000000000000000000000000000000000000000000000000000000000000000000000000000000000000000000000000000000000000000000000000000000000000000000000000000000000000000000000000000000000000000000000000000000000000000000000000000000000000000000000000000000000000000000000000000000000000000000000000000000000000000000000000000000000000000000000000000000000000005400000000000000000000000000000000000000000000000000000000340000000000000000000000000000000000000000000000000000000000540000000000000000000000000000000000000000000000000000000000000000000000000000000000000000000000000000000000000000000000000000000000000000000000000000000000000000000000000000000000000000000000000000000000000000000000000000000000000000000000000000000000000000000000000000000000000000000000000000000000000000000000000000000000000000000000000000000000000000000000000000000000000000000000000000000000000000000000000000000000
#0633a0:24
#063360:00140000
#0633a0:0024
#063361:0014
#064321:0024000000000000
#064381:0000001434000000
#065381:5455545554555455545554555455545554555455545554555455545554555455
#066381:24
#064340:0014
#065340:54545454545454545454545454545454
#065330:0055005500550055005500550055005500550055005500550055005500550055
#066340:24
#066380:00000013
#0673b0:23
#067351:130000000000000000000000000000000000000000000000005300000053000000530000005300000053000000530000
#067321:00530000
#067341:000000000000000000000000335353535353535353535353
#067331:000000000000000000000000000000000000000000000000000000530000005300000053000000530000005300000053
#068341:535353535353535353535353535353535353535353535353
#068351:005300000053000000530000005300000053000000530000005300000053000000530000005300000053000000530000
#068331:000000530000005300000053000000530000005300000053000000530000005300000053000000530000005300000053
#069341:530000000000000053000000000000005300000000000000330000000000000053000000000000000000000000000000000000005300000000000000000000000000000053000000000000000000000000530000000000000000000000530000000000000000000000530000000000000000000000530000000000000000000000530000000000000000000000530000000000000000000000530000000000000000000000530000000000000000000000530000000000000000000000530000
#069351:005300000053000000530000000000000000000000000000000000000000000000000000000000000000000000000000
#069331:000000000000530000000000000053000000000053000000330000005300000053000000330000530000530000530000530000530000530000530000530000530000530000530000530000530000530000530000530000530000530000530000
#069321:000000000000000000000000000000000000000000000000000000000000000000000000000000000000000053000000000000000000000000000000530000000000000000000000000000530000000000000000000000530000000000000000000000530000000000000000000000530000000000000000000000530000000000000000000000530000000000000000000000530000000000000000000000530000000000000000000000530000000000000000000000530000000000000000
#070331:5353535353535353230000000000000000000000000000000000000000000000
#070321:00530000005300000053000000530000000000000000000000000000000000000000000000000000000000000000000000000000000000000000000000000000
#070341:00000053000000530000005300000053000000000000000000000000000000000000000000000000000000000000000000000000000000000000000000000000
#0673b0:00130000
#067390:000000000000000000000000335353535353535353535353
#067380:000000000000000000000000000000000000000000000000005300000053000000530000005300000053000000530000
#0673a0:000000000000000000000000000000000000000000000000000000530000005300000053000000530000005300000053
#068390:535353535353535353535353535353535353535353535353
#068380:005300000053000000530000005300000053000000530000005300000053000000530000005300000053000000530000
#0683a0:000000530000005300000053000000530000005300000053000000530000005300000053000000530000005300000053
#069390:530000000000000053000000000000005300000000000000330000000000000053000000000000000000000000000000000000005300000000000000000000000000000053000000000000000000000000530000000000000000000000530000000000000000000000530000000000000000000000530000000000000000000000530000000000000000000000530000000000000000000000530000000000000000000000530000000000000000000000530000000000000000000000530000
#069380:005300000053000000530000000000000000000000000000000000000000000000000000000000000000000000000000
#0693a0:000000000000530000000000000053000000000053000000330000005300000053000000330000530000530000530000530000530000530000530000530000530000530000530000530000530000530000530000530000530000530000530000
#0693b0:000000000000000000000000000000000000000000000000000000000000000000000000000000000000000053000000000000000000000000000000530000000000000000000000000000530000000000000000000000530000000000000000000000530000000000000000000000530000000000000000000000530000000000000000000000530000000000000000000000530000000000000000000000530000000000000000000000530000000000000000000000530000000000000000
#0703a0:5353535353535353230000000000000000000000000000000000000000000000
#0703b0:00530000005300000053000000530000000000000000000000000000000000000000000000000000000000000000000000000000000000000000000000000000
#070390:00000053000000530000005300000053000000000000000000000000000000000000000000000000000000000000000000000000000000000000000000000000
#071350:0000000000001333
#072350:23
#072381:1333230000000000
#072321:0000001300230000
#072351:0053
#072380:0000000000130023
#0723b0:00000053
#073380:0000000000001333
#074380:23
#074351:1333230000000000
#075351:1333230000000000
#0753b1:0013
#076371:23
#076320:13
#076360:0023
#0763a1:0014
#077361:24
#077320:14
#077360:0024
#0773a1:0014
#078361:54
#078381:0056
#079381:00260000
#078320:0016
#079320:00260000
#079320:0016
#083360:0022
#079381:0016
#083381:0022
