This file was generated by Ched 2.6.4.0.
#TITLE ""
#ARTIST ""
#DESIGNER ""
#DIFFICULTY 0
#PLAYLEVEL
#SONGID ""
#WAVE ""
#WAVEOFFSET 0
#JACKET ""
#REQUEST "ticks_per_beat 480"
#00002: 4
#BPM01: 165
#00008: 01
#TIL00: ""
#HISPEED 00
#MEASUREHS 00
#04518:00130000
#04515:0000001300000000
#0501b:0013000000000000
#05015:00130000
#05018:0000001300000013
#05012:0013
#05218:0023002300000013
#05215:00232300
#05315:0000001300000013
#05312:0013000000000000
#05318:00130000
#0531b:0013
#00512:0013
#0051b:0013000013000000
#00515:0000130000130013
#00518:0000001300001300
#01015:0000000000130000
#01018:00000013
#01012:0013
#0101b:13
#01315:1313
#0131b:0013
#01318:00000023
#01515:0000001300000000
#01518:0013
#01815:0013
#01818:2300000000130000
#0181b:0000001300000013
#01812:0023000000001300
#02112:0013
#0211b:0000000013000013
#02115:0000001300000000
#0301b:0000130000000013
#03018:0000001300001300
#03012:0013
#03015:2300000000130000
#03118:00130000000000000000000013000000
#0311b:0000000000130000
#03115:0000000000000013
#0331b:0000001300001300
#03315:0000130000130000
#03312:0000001300000013
#03715:00000013
#03712:0000001300000013
#03718:0000130000130000
#0371b:0000001300000000
#04015:2300000000130013
#04018:00130013
#0411b:00130000
#04115:0000001300130000
#04118:00001313
#04112:0000000000000013
#04418:1300000000130013
#04415:00000013
#04412:13130000
#0701b:00000013
#07012:0000000000000013
#07015:0026
#07118:1300000023230000
#07115:0013000000000000
#0711b:00130000
#07112:0000130023230013
#02418:00000013
#0241b:0000001300000000
#02415:0013
#02412:1300000000000013
#02312:1313
#02318:0000001300000013
#02315:00130000
#0231b:0013000000000000
#02218:0000001300000013
#02212:0013
#02215:23
#02210:41
#0001b:0013
#0001a:000000000000000000000000003300000000000000000000
#00019:000000000000003300000000
#00018:0000000000330000
#00118:0013
#00119:000000000000000000000000003300000000000000000000
#0011a:000000000000003300000000
#0011b:0000000000330000
#00212:0013
#00214:000000000000003300000000
#00215:000000000000000000000000000000333300000000000000
#00612:00000013
#00615:0013
#00618:0000000000130000
#0081b:00000013
#00818:0013
#00815:0000000000130000
#00718:0000000000130000
#00712:0013
#00715:00000013
#0071b:0000000000000013
#00915:0000000000130000
#0091b:0013
#00918:00000013
#00912:0000000000000013
#01118:1300000000000013
#0111b:0000000000130000
#01112:00000013
#01115:0013
#01218:0000000000130000
#01215:00000013
#0121b:0013
#01212:13
#01415:0000001300000013
#01412:2300000000130000
#01418:0023000000001300
#0141b:0013
#01410:41
#01718:0000001300000000
#01715:0013
#01618:0000001300000013
#0161b:2300000000130000
#01615:0023000000001300
#01612:0013
#01918:0000001300000000
#01912:0013
#02018:0013
#02015:2300000000130000
#02012:0000001300000013
#0201b:0023000000001300
#02815:00000013
#02812:0000001300000000
#02818:0013
#0281b:1300000000000013
#0271b:1313
#02715:0000001300000013
#02718:00130000
#02712:0013000000000000
#02719:0000000000330000
#02615:0000001300000013
#0261b:0013
#02618:23
#02512:0000000000000013
#02518:00130000
#02515:0000001300000000
#02915:00130000
#02918:0000000000130000
#02912:00000013
#0291b:0000000000000013
#03212:1313
#0321b:0000130000000013
#03215:00130000
#03218:0013
#03412:0000130000000013
#03415:0000001300001300
#0341b:0013
#03418:1300000000130000
#03410:41
#03515:00000013
#03512:0000000000130000
#03518:0000000000000013
#03516:0013000000000000
#0361b:1313
#03612:0000130000000013
#03618:00130000
#03615:0013
#0381b:13
#03812:0000001300000000
#03815:0000000000000013
#0381f:11
#0391b:1300000000000023
#03918:0013000000230000
#03915:00130000
#03912:0000001300002300
#04212:0000001300000000
#04218:1313
#04215:0000000000130013
#0421b:00000013
#0431b:1300000000130000
#04315:0013000000000013
#04318:00130013
#04312:0000001300000000
#04812:1400000000000014
#04815:0014000000000000
#0481a:0014
#04810:0041
#04717:0000000000140000
#04714:28
#0471a:0024
#0471f:0021
#0491a:0000001400000000
#05812:0013000000000000
#05818:00130000
#05815:0000001300000013
#0581b:0013
#06015:0023002300000013
#06018:23232300
#0561a:1400000000000014
#05617:0014000000000000
#05612:0014
#05515:0013000000140000
#05519:13
#05518:00130000
#05512:0024
#05712:0000001400000000
#0611b:0013000000000000
#06118:0000001300000013
#06115:00130000
#05918:0000001300000000
#05912:0013
#05910:0041
#07812:14
#07818:14
#07215:1300000013000013
#07218:0013000000000000
#0721b:00130000
#07212:0000001300000000
#07318:13
#0731b:0013000023230013
#07315:0000000023230000
#07415:0013000000000000
#07412:00132313
#07418:1300001300000000
#0741b:0000000023000013
#07515:13132300
#07518:0013000000000000
#0751b:0023
#05412:0000001300000000
#0541b:1313
#05413:0000000000130000
#0541a:00000013
#05414:0000000000000013
#05415:00130000
#05418:0013000000000000
#0621b:0000001300000000
#06212:1314
#06218:0000130000140000
#06215:0013000000000000
#06214:00000014
#0621a:0000000000000014
#06316:14
#06312:0024
#06318:00260000
#06515:0016001600160016001600160016001600160016001600160016001600160016
#06516:14141414141414141414141414141414
#06812:00000000000000130000000000000000
#06817:00000000000000130000000000000000
#06916:0000001300000000
#06912:00000000000000000000000000130000
#0691b:0000001300000000
#06917:00000000000000000000000000130000
#06716:0013
#0671b:0013
#06712:00230000
#06717:00230000
#06615:0026
#06616:00000023
#0661b:00000023
#06610:0041
#07618:23
#07612:23
#07614:0024
#0761a:0024
#07718:24
#07712:24
#07714:0024
#0771a:0024
#0641a:0024000000000000
#06416:00242400
#06412:0000002400000000
#05258:0000000000000013
#05255:0063
#05252:00000013
#04458:0000000000000053
#04452:00530000
#0305b:0000000000000063
#03055:13
#03158:00230000000000000000000000000000
#04058:00530000
#04055:0000000000000063
#0005b:0063
#00158:0053
#00252:0053
#0105b:63
#01158:53
#01252:53
#01455:0000000000000063
#01558:0053
#01658:0000000000000053
#01755:0063
#01952:0053
#0185b:0000000000000063
#02052:0000000000000053
#02252:0013
#02255:13
#02455:0013
#02452:1300000000000053
#02352:0053
#0265b:0013
#02658:13
#02858:0013
#0285b:1300000000000063
#0275b:0063
#02555:0000006300000000
#02955:00630000
#0325b:0000630000000063
#03255:00630000
#03252:0053
#03258:0053
#03452:0000000000000053
#03458:13
#03556:0023000000000000
#0385b:63
#04258:53
#04555:0000006300000000
#04852:5400000000000054
#04855:0024000000000000
#0485a:0064
#04757:0000000000240000
#04754:18
#0475a:0064
#0495a:0000006400000000
#04956:00000014
#06055:0000000000000013
#06058:0053
#0605b:00000013
#0565a:6400000000000064
#05657:0024000000000000
#05652:0054
#05555:0000000000240000
#05558:00130000
#05552:0054
#05752:0000005400000000
#05756:00000014
#07852:24
#07858:24
#07252:0000005300000000
#07255:0023
#07358:53
#0735b:0023000000000000
#01355:63
#01358:00000013
#03652:0000530000000053
#03658:00530000
#03655:0063
#0365b:0063
#05058:0000000000000053
#05052:0053
#0535b:0063
#0585b:0063
#05855:0000000000000063
#05952:0053
#06555:0026002600260026002600260026002600260026002600260026002600260026
#06556:54545454545454545454545454545454
#06852:00000000000000230000000000000000
#06857:00000000000000230000000000000000
#06956:0000006300000000
#06952:00000000000000000000000000230000
#0695b:0000006300000000
#06957:00000000000000000000000000230000
#06756:0063
#0675b:0063
#06752:00530000
#06757:00530000
#07055:0016
#06655:0016
#06656:00000063
#0665b:00000063
#07555:0063
#0755b:0063
#07658:53
#07652:53
#07654:0064
#0765a:0064
#07758:54
#07752:54
#07754:0064
#0775a:0064
#06352:0054
#06358:00160000
#07952:00160000
#07958:00160000
#00555:13
#0003b0:0013
#0003a0:000000000000000000000000003300000000000000000000
#000390:000000000000003300000000
#000380:0000000000335300
#001380:0033
#001390:000000000000000000000000003300000000000000000000
#0013a0:000000000000003300000000
#0013b0:0000000000335300
#0023b0:23
#002320:0013
#002340:000000000000003300000000
#002350:000000000000000000000000000000333300530000000000
#005350:23
#0063b0:13230000
#007380:13230000
#008320:13230000
#009350:13230000
#0103b0:13
#010380:00230000
#011380:13
#0113b0:00230000
#012320:13
#012350:00230000
#013350:13
#013320:00230000
#014350:0000000000000013
#015320:0023000000000000
#015380:0013
#0153b0:00000023
#016380:0000000000000013
#0173b0:0023000000000000
#017350:0013
#017320:00000023
#0183b0:0000000000000013
#019380:0023000000000000
#019320:0013
#019350:00000023
#020320:0000000000000013
#021350:0023000000000000
#023320:0013
#023350:00000023
#024320:0000000000000013
#025350:0023000000000000
#025350:0000001300000000
#025320:0000000000230000
#0273b0:0013
#027390:0000000000330000
#027380:00000023
#0283b0:0000000000000013
#029380:0023000000000000
#029350:00130000
#029320:0023
#0303b0:0000000000000013
#031380:00530000000000000000000000000000
#0313b0:00230000
#0323b0:00130023
#032380:0033
#032351:00130023
#032321:0033
#0323b1:0000000000000013
#033381:0023000000000000
#034321:0000000000000013
#035361:0053000000000000
#035321:0000002300000000
#036321:00130023
#036351:0033
#036380:00130023
#0363b0:0033
#036320:0000000000000013
#037350:0023000000000000
#0383b0:13
#038380:00230000
#038380:00001323
#0383b0:0000000000330000
#040380:00130000
#0403b0:0023
#040350:0000000000000013
#041320:0023000000000000
#042380:13
#0423b0:00230000
#044320:00130000
#044350:0023
#044380:0000000000000013
#0453b0:0023000000000000
#045350:0000001300000000
#046320:00000000002300000000000000000000
#0473a0:00001424
#047370:0000000000540000
#048320:14240000
#048350:0054000000000000
#0483a0:0014
#048360:00000024
#048320:0000000000000014
#049360:0024000000000000
#0493a0:0000001400000000
#049360:00000024
#050320:0013
#050350:00000023
#050380:0000000000000013
#0513b0:0023000000000000
#051350:0000001300000000
#051320:0000000000000023
#052350:0013
#052320:00000023
#0533b0:0013
#053380:00000023
#055320:00001424
#055350:0000000000540000
#0563a0:14240000
#056370:0054000000000000
#056320:0014
#056360:00000024
#0563a0:0000000000000014
#057360:0024000000000000
#057320:0000001400000000
#057360:00000024
#0583b0:0013
#058380:00000023
#058350:0000000000000013
#059320:0023000000000000
#059320:0013
#059350:00000023
#060380:0013
#0603b0:00000023
#061320:0013
#061350:00000023
#063320:0014
#064360:24
#064360:0014
#065360:54545454545454545454545454545454
#065350:0056005600560056005600560056005600560056005600560056005600560056
#066360:24
#066360:00000013
#067320:23
#0663b1:00000013
#067371:23
#067321:00130000
#067361:0033
#068321:00000000000000530000000000000000
#069361:0033333300000000
#069321:00000000000000000000000000530000
#070361:00230000
#067370:00130000
#0673b0:0033
#068370:00000000000000530000000000000000
#0693b0:0033333300000000
#069370:00000000000000000000000000530000
#0703b0:00230000
#072320:0000001300230000
#072350:0053
#073380:13230000
#0733b0:0053000000000000
#075350:0013
#075320:00000023
#0753b1:0013
#075381:00000023
#076381:13
#0763b1:00230000
#076320:13
#076350:00230000
#076340:0014
#076320:00000024
#0763a1:0014
#076381:00000024
#077381:14
#0773a1:00240000
#077320:14
#077340:00240000
#077340:0014
#078320:5436
#079320:00260000
#0773a1:0014
#078381:5436
#079381:00260000
#079341:0018
#083371:0022
