This file was generated by Ched 2.6.4.0.
#TITLE ""
#ARTIST ""
#DESIGNER ""
#DIFFICULTY 0
#PLAYLEVEL
#SONGID ""
#WAVE ""
#WAVEOFFSET 0
#JACKET ""
#REQUEST "ticks_per_beat 480"
#00002: 4
#BPM01: 165
#00008: 01
#TIL00: ""
#HISPEED 00
#MEASUREHS 00
#00014:0012
#00018:000000000000000000000000001200000000000000000000
#00016:000000000000001200000000
#00116:0012
#0011a:000000000000000000000000001200000000000000000000
#00114:000000000000001200000000
#00216:000000000000001200000000
#00218:0000000000120000
#00212:0012
#00214:22
#00418:00000000000000000000000000000012
#00412:00000000000000000000000000000012
#00512:0013000013000013
#00517:0013130000000000
#00513:00000000001300000000000000000000
#00519:0000001300000000
#0051b:0013
#00516:00000000000000000000130000000013
#0051a:00000000000000000000001300000000
#00514:00000013
#00518:00000000000000000000000000130000
#00515:00000000000000130000000000000000
#00619:0000001300000000
#00617:0000130000131300
#0061b:00001313
#0061a:1313000000000000
#00612:1313
#00616:0013000000000000
#00712:13000000000000000013000013000000
#00716:0000131300000000
#0071b:00000000001300000000000013000000
#00717:1300000013130000
#00812:00001313
#00816:0000130000131300
#00814:0000001300000000
#00813:1313000000000000
#0081b:1313
#00817:0013000000000000
#01016:0013001313131300
#0101b:0013000013000000
#01012:13130013
#01017:13
#01116:1313
#01112:00130013
#01117:00000000001300000000000000000000
#01115:0000001300000000
#0111b:13000013
#01114:0000000000130000
#01119:00000000000000000013000000000000
#0091b:13000000000000000013000013000000
#00917:0000131300000000
#00912:00000000001300000000000013000000
#00916:1300000013130000
#01217:0013001313131300
#01212:0013000013000000
#0121b:13130013
#01216:13
#01317:1313
#0131b:00130013
#01316:00000000001300000000000000000000
#01318:0000001300000013
#01319:0000000000130000
#01314:00000000000000000013000000000000
#01312:13000023
#01412:0000130000000013
#01418:0000130000130000
#01415:2323001313001300
#0141b:2323000013001313
#01410:41
#0151b:0013
#01514:0000000000130000
#01517:13000013
#01512:00130013
#01516:0013000000000000
#0161b:0000130000000013
#01615:0000130000130000
#01618:2323001313001300
#01612:2323000013001313
#01712:0013
#01719:0000000000130000
#01716:13000013
#0171b:00130013
#01717:0013000000000000
#01815:23131313
#0181b:23131313
#01812:0023000000130013
#01818:0023001300000013
#01916:1300000013131300
#01912:00000013
#0191b:0013000000000000
#01917:00130000
#02018:23131313
#02012:23131313
#0201b:0023000000130000
#02015:0023001300000013
#02112:13131300
#0211b:00130000001300001300000000001300
#02115:0013001300000000
#02118:00000013000000130000000012000000
#02116:000000000000000000000000000000000012000000130000
#02212:2300001300000013
#02217:2300001300000000
#0221b:0000000013000013
#02216:00141314
#02210:41
#02316:13130000
#02312:0013001300000000
#02317:0000000000130013
#0231b:00000013
#0241b:1300001300001300
#02416:1300141300001300
#02412:0000000013000013
#02417:0000000013000013
#0251b:0000000000131300
#02512:0000000000130013
#02516:13000013
#02517:0000001300000013
#02515:0013
#02518:00000000000000000013000000000000
#02612:0000130000000013
#02617:0000130000000013
#02616:2300001300001300
#0261b:2300001300001300
#02715:0000000000000013
#02718:0000000000000013
#02716:13000000000000000013000000000000
#02714:00001300000000000000001300000000
#02719:0000001300130000
#0271b:0013
#02717:00000013
#0281b:00131313
#02816:00131300
#02817:0000001300000013
#02812:0000001300130013
#0291b:13130013
#02912:0013000000000000
#02916:00130013
#02919:0000000000130000
#02914:0000000000000013
#03017:13
#0301b:0013000000000013
#03016:0013000000000000
#03012:2300000013000013
#03015:0000000000130000
#03018:00000013
#03117:00130000130000001300000000001300
#0311b:1300001300000000
#03116:0000000000130000
#03112:00000000001300001300000013000000
#03212:0000130000130000
#03216:0000000000001313
#0321b:1300000013000013
#03217:0000130000130000
#03219:0013000000000000
#03214:0013000000000000
#03317:00001300000000000013000013000000
#03314:0000130000130000
#03319:0000130000000013
#03316:0000001300000000
#0331b:0000000000130000
#03312:00001313
#03416:13
#03412:0013000000000013
#03417:0013000000000000
#0341b:1300000013000013
#03418:0000000000130000
#03415:00000013
#03410:41
#03512:1300001300000000
#03516:00130000130000001300000000001300
#03517:0000000000130000
#0351b:00000000001300001300000013000000
#0361b:0000130000130000
#03617:0000000000001313
#03619:0013000000000000
#03612:1300000013000013
#03614:0013000000000000
#03616:0000130000130000
#03716:13
#03719:00130000000000000000000000000000
#03714:0013000000000000
#03717:00000013000000000000000000000000
#03712:0000131300000013
#0371b:0000131300130000
#03715:0016
#03814:0000001300000000
#03819:0000001300000000
#03815:0000000000000016
#03818:0000000016120000
#03816:0000000000120000
#03812:0016
#0381f:11
#03912:16
#03915:0016001600000000
#03918:00160000
#0391a:0000000000240000
#03916:0000000000002424
#04017:00001313
#0401b:0000130000130013
#04016:0000130000000013
#04012:24
#04112:0013001300130013
#04116:00131313
#04117:0000000000130013
#0411b:00000013
#04217:1212001200001200
#04214:0000000000000012
#0421a:0000000000000012
#04518:0000001600000000
#04512:0000141600000000
#0451b:0013000000000000
#0451a:00140000
#0441b:1300130000130013
#04417:0000001300001300
#04412:0013001300001300
#04416:1300000013000013
#04317:1200001200131300
#04316:0000000000000013
#04312:00000013
#04712:2300230000131300
#0471b:00002300000000231300000000001300
#04716:24002400002424002400130000000000
#04717:0000000000000013
#0471f:0021
#04812:0013001300130013
#04817:0000131300001313
#0481b:1313
#04816:0013000000130000
#04810:0041
#0511b:1313
#05113:00130000000000000000000000000000
#05117:0013001300000000
#0511a:00000000001300000000000000000000
#05116:13000000130000002300001300000000
#05112:0000001300001313
#05017:0000000000130013
#05012:1300130000130013
#0501b:00132313
#05018:1300001300000000
#05015:0013000000000000
#05016:0013
#0491b:0013000000000000
#04915:0000000000001313
#04917:1313
#04912:0013000023000000
#0521b:00002300000000232300000000001300
#05216:0023002323000013
#05217:00230023
#05212:00230000
#05419:0000001500140013
#05418:00001514
#05412:13000000000000150000000000000000
#05417:00130000
#05414:00000000000000000000000000140013
#05413:00000000000000000015001400000000
#05518:13
#05519:0012000000000000
#05517:0000120000130000
#05515:00130012000000000000000000000000
#0551b:0000000000131300
#05512:0000000013000013
#05516:0000000024000013
#05317:0013000000001300
#05312:0000001300000000
#05316:0000000013000013
#0531b:0000000023000013
#0561b:0013001300130013
#05616:0000131300001313
#05612:1313
#05617:0013000000130000
#05912:1313
#0591a:00130000000000000000000000000000
#05916:0013001300000000
#05913:00000000001300000000000000000000
#05917:13000000130000002300001300000000
#0591b:0000001300001313
#05910:0041
#05816:0000000000130013
#0581b:1300130000130013
#05812:00132313
#05815:1300001300000000
#05818:0013000000000000
#05817:0013
#05712:0013000000000000
#05718:0000000000001313
#05716:1313
#0571b:0013000023000000
#06012:00002300000000232300000000001300
#06017:0023002323000013
#06016:23230023
#0601b:23230000
#06116:0013000000001300
#0611b:0000001300000000
#06117:0013
#06112:0000000023000014
#0631a:00240014
#06316:0000001424000000
#06312:00000000240000000000000000140000
#0701b:0000001300001300
#07016:00000013
#07017:0000000000000013
#07012:141414141414141414000000000000000000000000130000
#07014:001400140014001400140014001400140014000000000000000000000000000000000000000000000000000000000000
#07018:00130000
#07015:0026
#0711b:13132313
#07118:0013000000000000
#07112:00130000130000000000230000000000
#07115:00000013000000000000000000000000
#07116:00002313
#07117:0000000000230000
#07217:1300001300000013
#07219:0013000000000000
#07212:0000001300000000
#0721b:00131313
#07216:00130000
#0731b:1313130000230000
#07317:00002313
#07312:00002313
#07316:0000000000230000
#07416:1300001300000013
#07414:0013000000000000
#0741b:0000001300000000
#07412:00132313
#07417:00132300
#07512:1313130022000000
#07517:00000012
#0751c:00000012
#07617:00120013
#0761b:00000013
#07612:00122300
#0761c:22
#07718:0000000000000000000000000000000000000000000000000000000000000014
#07716:00130000
#0771b:23000013
#07712:00132400
#0781b:00130000
#07818:0026
#0621a:0000001400000000
#0621b:0023
#06514:0014001400140014001400140014001400140014001400140014001400140014
#06512:14141414141414141414141414141414
#06518:0000001326130013
#0651b:00130013
#0651a:00330000000000000000000000000000
#06414:0000000000000000000000000000000000140014001400140014001400140014
#06412:00000000240000002414141414141414
#0641a:0024000024000000
#06416:0000002400000000
#06419:00000000000000000000000000330000
#0661b:1300001313000000
#06617:00130023
#06612:0013130000002300
#06615:0026
#06619:0000000000000033
#06618:00000000000000000000000000330000
#06610:0041
#06912:130000230000000000230000241414141414141414141414
#06914:000000000000000000000000000000000000000000000000001400140014001400140014001400140014001400140014
#06916:0024242400000000
#06918:0026
#0691b:00230000
#06815:00130000
#06812:0000001300000000
#06818:0014001400140014001400140014001400140014001400140014001400140014
#0681a:14141414141414141414141414141414
#06718:0000000000000000000000000000000000140014001400140014001400140014
#0671a:00000000000000002414141414141414
#06716:2300002400000000
#0671b:00230000
#06712:0026
#06715:00330000000000000000000000000000
#06714:0033000000000000
#00458:00000000000000000000000000000022
#00452:00000000000000000000000000000022
#01458:00130000
#01455:00000013
#0145b:0000000000000063
#01552:00230013
#01557:23
#01556:0063000000000000
#0155b:00130000
#01655:00130000
#01658:00000013
#01652:0000000000000053
#0175b:00230013
#01756:23
#01757:0053000000000000
#01752:00130000
#01956:23000013
#0195b:0063000000000000
#01957:00230000
#01952:00130000
#01855:00130000
#0185b:00000013
#01852:0000000000000053
#02058:00130000
#02052:00000013
#0225b:0013
#02256:0013
#02257:13
#02252:13
#0245b:13
#02456:13
#02452:0000000013000053
#02457:0013
#02556:23
#02557:0000005300000053
#02552:0000000000000053
#02656:1300006300000000
#0265b:1300006300000000
#02652:0013
#02657:0013
#02755:0000000000000063
#02758:0000000000000053
#02856:0063
#02852:1300000000230000
#0285b:1313
#02857:0000000000000053
#0295b:23630000
#02956:00630000
#03057:53
#0305b:0023000000000000
#03052:1300000000000053
#03456:63
#03452:0023000000000000
#0345b:1300000000000063
#04558:0000005600000000
#04552:0000006600000000
#0445b:0000630000000013
#04456:6300000000000063
#04452:0023000000000000
#04457:0000002300000000
#00652:53
#00656:0023000000000000
#0085b:63
#00857:0023000000000000
#0325b:0063
#03257:0000000000230000
#03252:00530000
#03256:0000000000000063
#03556:00230000000000000000000000000000
#03652:0053
#03656:0000000000230000
#0365b:00630000
#03657:0000000000000053
#0115b:63
#01352:53000013
#00956:63
#00757:53
#01057:53
#0105b:0023000000000000
#01256:63
#01252:0023000000000000
#04056:00630000
#0405b:0000000000000063
#04052:34
#03858:0000000066220000
#03856:0000000000220000
#03852:0056
#0495b:0013000000001300
#04957:2353
#04952:0053000000000000
#05557:0000120000230000
#05552:0053
#0555b:00000063
#05556:0000000044000023
#0475b:0063
#04756:4400000034230000
#04752:00000053
#04757:0000000000000023
#0485b:6363
#04856:0023000000230000
#04852:0000002300000053
#04857:00630000
#0515b:0063
#05156:00000000000000000000002300000000
#05056:0063
#05052:0000000000230000
#05356:0063
#05256:0000000063000033
#05257:00000043
#05752:0013000000001300
#05756:2363
#0575b:0063000000000000
#05652:5353
#05657:0023000000230000
#0565b:0000002300000063
#05656:00530000
#05952:0053
#05957:00000000000000000000002300000000
#05857:0053
#0585b:0000000000230000
#06157:0053
#06057:0000000053000043
#06056:00000033
#0715b:00000013
#07257:0000005300000000
#0725b:0023
#07256:00130000
#07254:00000013
#0735b:00130000
#07352:00000013
#07552:00135200
#07557:00000022
#07457:00130000
#07459:00000013
#07657:00220023
#07652:0053
#0765c:62
#07758:0000000000000000000000000000000000000000000000000000000000000024
#07756:00230000
#07752:0054
#0775b:63
#06356:0000002464000000
#06352:00000000340000000000000000240000
#0635a:00644400
#03157:00230000000000000000000000000000
#06554:0064006400640064006400640064006400640064006400640064006400640064
#06552:64646464646464646464646464646464
#06558:0016
#06454:0000000000000000000000000000000000640064006400640064006400640064
#06452:00000000000000006464646464646464
#07054:006400640064006400640064006400640064000000000000000000000000000000000000000000000000000000000000
#07052:646464646464646464000000000000000000000000000000
#07055:0016
#06952:000000000000000000000000646464646464646464646464
#06954:000000000000000000000000000000000000000000000000006400640064006400640064006400640064006400640064
#06958:0016
#06858:0054005400540054005400540054005400540054005400540054005400540054
#0685a:54545454545454545454545454545454
#06758:0000000000000000000000000000000000540054005400540054005400540054
#0675a:00000000000000005454545454545454
#06752:0016
#0395a:0000000000440000
#03956:0000000000003444
#06655:0016
#00556:14
#00552:14
#07952:00360000
#07958:00460000
#0003a0:0000000000120000
#001380:0022
#001380:0000000000120000
#0023c0:0022
#0023a0:000012
#0033a0:00000052
#004380:00000000000000000000000000000052
#005360:24
#002341:000012
#003341:00000052
#004321:00000000000000000000000000000052
#005321:24
#006321:13230000
#006361:0053000000000000
#007371:13
#0073b1:00230000
#0083b1:13230000
#008371:0053000000000000
#009361:13
#009321:00230000
#010371:13230000
#0103b1:0053000000000000
#0113b1:13
#011371:00230000
#012361:13230000
#012321:0053000000000000
#013321:13
#013361:00230000
#0143b1:0000000000000013
#015371:53
#0153b1:0033230000000000
#015360:0013003323000000
#015320:00530000
#016320:0000000000000013
#017360:53
#017320:0033230000000000
#017371:0013003323000000
#0173b1:00530000
#018321:0000000000000013
#019361:53
#019321:0033230000000000
#0193b0:0013003323000000
#019370:00530000
#0203b0:0000000000000013
#021380:23
#0233b0:13332300
#023370:0033003300000000
#023361:00001333
#023321:0000000000330023
#024321:0000000000000013
#025361:53
#025321:0023000000000000
#0253a0:0013230000000000
#025341:0000132300000000
#025370:0000001300000000
#0253b0:0023
#025370:0000000000000013
#0263b0:23
#025321:0000000000000013
#026361:23
#026361:0000001300000000
#026321:0023
#0263b0:0000001300000000
#026370:0023
#0273b0:13
#027390:0033000000000000
#027370:00230000
#027321:00130000
#027341:0000003300000000
#027361:0023
#027381:0000000000000013
#0283b1:23
#027350:0000000000000013
#028320:23
#028360:00001323
#028320:0000000000530000
#028370:0000000000000013
#0293b0:53
#029370:0023000000000000
#0293b0:00130000
#029370:0023
#029361:00130000
#029321:0023
#030371:13230000
#0303b1:0053000000000000
#030320:00130000
#030360:0000002300000000
#0303b1:0000001300000000
#030371:0023
#030321:0000000000001353
#031371:00530000000000000000000000000000
#031321:00230000
#0313b1:0000000000130000
#031371:00000023
#031321:0000000000000013
#032361:23
#032321:00130000
#032361:0000005323000000
#0323b0:00001323
#032370:0000000000530000
#032360:0000000000000013
#033320:5323000000000000
#0333b0:0000001300000000
#033370:0023
#034360:13230000
#034320:0053000000000000
#0343b1:00130000
#034371:0000002300000000
#034320:0000001300000000
#034360:0023
#0343b0:0000000000001353
#035360:00530000000000000000000000000000
#0353b0:00230000
#035320:0000000000130000
#035360:00000023
#0353b0:0000000000000013
#036370:23
#0363b0:00130000
#036370:0000005323000000
#036321:00001323
#036361:0000000000530000
#036371:0000000000000013
#0373b1:23
#037361:0000000000130000
#037321:00000023
#037370:00000013
#0373b0:0000000000000023
#038360:14240000
#038380:0000000016322600
#038321:00001626
#038361:0000000000320000
#040361:0000130000330000
#040321:00003323
#0403b1:0000000000000013
#041371:0033003300000000
#0413b1:00332300
#0423a1:12220000
#042340:0000122200000000
#0423a0:0000000012220000
#042341:0000000000122200
#0433c1:12220000
#043371:0032000000000000
#043320:0012002200000000
#043370:00320000
#044360:13230000
#044320:0053000000000000
#0443b1:00132300
#044371:0000005300000000
#044361:0000000000000013
#045321:0023000000000000
#045321:0000001600000000
#046321:00000000002200000000000000000000
#045380:0000001600000000
#0463c0:00000000002200000000000000000000
#0473b0:00001323
#047360:0000000000530000
#047321:00000013
#047371:0000000000000053
#048321:23
#0483b0:13230000
#048360:0053000000000000
#048371:00132300
#048321:0000005300000000
#0483b0:00001323
#048360:0000000000530000
#048320:0000000000000013
#049370:5300002300000000
#049320:0033000000000000
#0493b1:0000001300002300
#049371:0033
#050361:00001323
#050321:0000000000530000
#0513b1:0000000013000023
#051361:00000000000000000000005300000000
#052361:0013
#052321:00000023
#053321:0013000000000000
#053361:00230000
#0533b0:00130000
#053370:0000002300000000
#053360:0013
#053320:00000023
#054370:13
#0543b0:0023000000000000
#054361:0013000000000000
#054321:00230000
#055321:00001323
#055371:0000000000530000
#0553b0:00000013
#055360:0000000000000053
#0563b0:23
#056321:13230000
#056371:0053000000000000
#056360:00132300
#0563b0:0000005300000000
#056321:00001323
#056371:0000000000530000
#0563b1:0000000000000013
#057361:5300002300000000
#0573b1:0033000000000000
#057320:0000001300002300
#057360:0033
#058370:00001323
#0583b0:0000000000530000
#059320:0000000013000023
#059370:00000000000000000000005300000000
#060370:0013
#0603b0:00000023
#0613b0:0013000000000000
#061370:00230000
#061321:00130000
#061361:0000002300000000
#061371:0013
#0613b1:00000023
#0613a1:0000000000000014
#0623a1:24
#062340:1424000000000000
#062381:0014240000000000
#062320:0000142400000000
#0623b0:0013
#062380:000000000000000000000000000000000000000000000000000000000000000000000000000000000000000000000000000000000000000000000000000000000000000000000000000000000000000000000000000000000000000000000000000000000000000000000000000000000000000000000000000000000000000000000000000000000000000000000000000000000000000000000000000000000000000000000000000000000000000000000000000000000000000000000000000000000000000000000000000000000000000000000000000000000000000000000000000000000000000000000000000000000000000000000000000000000000000000000000000000000000000000000000000000000000000000000000000000000000000000000000000000000000000000000000000000000000000000000000000000000000000000000000000000000000000000000000000000000000000000000000000000000000000000000000000000000000000000000000000000000000000000000000000000000000000000000000000000000000000000000000000000000000000000000000000000000000000000000000000000000000000000000000000000000000000000000000000000000000000000000000000000000000000000000000000000000000000000000000000000000000000000000000000000000000000000000000000000000000000000000000000000000000000000000000000000000000000000000000000000000000000000000000000000000000000000000000000000000000000000000000000000000000000000000000000000000000000000000000000000000000000000000000000000000000000000000000000000000000000000000000000000000000000000000000000000000000000000000000000000000000000000000000000000000000000000000000000000000000000000000000000000000000000000000000000000000000000000000000000000000000000000000000000000000000000000000000000000000000000000000000000000000000000000000000000000000000000000000000000000000000000000000000000000000000000000000000000000000000000000000000000000000000000000000000000000000000000000000000000000000000000000000000000000000000000000000000000000000000000000000000000000000000000000000000000000000000000000000000000000000000000000000000000000000000000000000000000000000000000000000000000000000000000000000000000000000000000000000000000000000000000000000000000000000000000000000000000000000000000000000000000000000000000000000000000000000000000000000000000000000000000000000000000000000000000000000000000000000000000000000000000000000000000000000000000000000000000000000000000000000000000000000000000000000000000000000000000000000000000000000000000000000000000000000000000000000000000000000000000000000056000000000000000000000000000000000000000000000000000000000000000000000000000000000000000000000000000000000000000000000000005600000000000000000000000000000000000000000000000000000000000000000000000000000000000000000000000000000000000000000000000000000000000000000000000000000000000000000000000000000000000000000000000000000000000000000000000000000000000000000000000000000000000000000000000000000000000000000000000000000000000000000000000000000000000000000000000000000000000000000000000000000000000000000000000000000000000000000000000000000000000000000000000000000000000000000000000000000000000000000000000000000000000000000000000000000000000000000000000000000000000000000000000000000000000000000000000000000000000000000000000000000000000000000000000000000000000000000000000000000000000000000000000000000000000000000000000000000000000000000000000000000000000000000000000000000000000000000000000000000000000000000000000000000000000000000000000000000000000000000056000000000000000000000000000000000000000000000000000000000000000000000000000000000000000000000000000000000000000000000000005600000000000000000000000000000000000000000000000000000000000000000000000000000000000000000000000000000000000000000000000000000000000000000000000000000000000000000000000000000000000000000000000000000000000000000000000000000000000000000000000000000000000000000000000000000000000000000000000000000000000000000000000000000000000000000000000000000000000000000000000000000000000000000000000000000000000000000000000000000000
#062360:00000000000000000000000000000000000000000000000000000000000000000000000000000058385800000000000000000000000000583858000000000000
#062370:000000000000000000000000000000000000000000000000000000000000000000000000000000000000000000000000000000000000000000000000000000000000000000000000000000000000000000000000000000000000000000000000000000000000000000000000000000000000000000000000000000000000000000000000000000000000000000000000000000000000000000000000000000000000000000000000000000000000000000000000000000000000000000000000000000000000000000000000000000000000000000000000000000000000000000000000000000000000000000000000000000000000000000000000000000000000000000000000000000000000000000000000000000000000000000000000000000000000000000000000000000000000000000000000000000000000000000000000000000000000000000000000000000000000000000000000000000000000000000000000000000000000000000000000000000000000000000000000000000000000000000000000000000000000000000000000000000000000000000000000000000000000000000000000000000000000000000000000000000000000000000000000000000000000000000000000000000000000000000000000000000000000000000000000000000000000000000000000000000000000000000000000000000000000000000000000000000000000000000000000000000000000000000000000000000000000000000000000000000000000000000000000000000000000000000000000000000000000000000000000000000000000000000000000000000000000000000000000000000000000000000000000000000000000000000000000000000000000000000000000000000000000000000000000000000000000000000000000000000000000000000000000000000000000000000000000000000000000000000000000000000000000000000000000000000000000000000000000000000000000000000000000000000000000000000000000000000000000000000000000000000000000000000000000000000000000000000000000000000000000000000000000000000000000000000000000000000000000000000000000000000000000000000000000000000000000000000000000000000000000000000000000000000000000000000000000000000000000000000000000000000000000000000000000000000000000000000000000000000000000000000000000000000000000000000000000000000000000000000000000000000000000000000000000000000000000000000000000000000000000000000000000000000000000000000000000000000000000000000000000000000000000000000000000000000000000000000000000000000000000000000000000000000000000000000000000000000000000000000000000000000000000000000000000000000000000000000000000000000000000000000000000000000000000000000000000000000000000000000000000000000000000000000000000000000000000000000000000000000000000000000000000000000000000000000000000000000000000000000000000000000000000000000000000000000000000000000000000000000000000000000000000000000000000000000000000000000000000000000000000000000000000000000000000000000000000000000000000000000000000000000000000000000000000000000000000000000000000000000000000000000000000000000000000000000000000000000000000000000000000000000000000000000000000000000000000000000000000000000000000000000000000000000000000000000000000000000000000000000000057000000000000000000000000000000000000000000000000000000000000000000000000000000000000000000000000000000000000000000000000005700000000000000000000000000000000000000000000000000000000000000000000000000000000000000000000000000000000000000000000000000000000000000000000000000000000000000000000000000000000000000000000000000000000000000000000000000000000000000000000000000000000000000000000000000000000000000000000000000000000000000000000000000000000000000000000000000000000000000000000000000000000000000000000000000000000000000000000000000000000000000000000000000000000000000000000000000000000000000000000000000000000000000000000000000000000000000000000000000000000000000000000000000000000000000000000000000000000000000000000000000000000000000000000000000000000000000000000000000000000000000000000000000000000000000000000000000000000000000000000000000000000000000000000000000000000000000000000000000000000000000000000000000000000000000000000000000000000000000000000000000000000000000000000000000000000000000000000000000000000
#062350:00000000000000000000000000000000000000000000000000000000000000000000000000000000000000000000005939590000000000000000000000000000
#0633b0:23
#062321:000000000000000000000000000000000000000000000000000000000000000000000000000000000000000000000000000000000000000000000000000000000000000000000000000000000000000000000000000000000000000000000000000000000000000000000000000000000000000000000000000000000000000000000000000000000000000000000000000000000000000000000000000000000000000000000000000000000000000000000000000000000000000000000000000000000000000000000000000000000000000000000000000000000000000000000000000000000000000000000000000000000000000000000000000000000000000000000000000000000000000000000000000000000000000000000000000000000000000000000000000000000000000000000000000000000000000000000000000000000000000000000000000000000000000000000000000000000000000000000000000000000000000000000000000000000000000000000000000000000000000000000000000000000000000000000000000000000000000000000000000000000000000000000000000000000000000000000000000000000000000000000000000000000000000000000000000000000000000000000000000000000000000000000000000000000000000000000000000000000000000000000000000000000000000000000000000000000000000000000000000000000000000000000000000000000000000000000000000000000000000000000000000000000000000000000000000000000000000000000000000000000000000000000000000000000000000000000000000000000000000000000000000000000000000000000000000000000000000000000000000000000000000000000000000000000000000000000000000000000000000000000000000000000000000000000000000000000000000000000000000000000000000000000000000000000000000000000000000000000000000000000000000000000000000000000000000000000000000000000000000000000000000000000000000000000000000000000000000000000000000000000000000000000000000000000000000000000000000000000000000000000000000000000000000000000000000000000000000000000000000000000000000000000000000000000000000000000000000000000000000000000000000000000000000000000000000000000000000000000000000000000000000000000000000000000000000000000000000000000000190000000000000000000000000000000000000000000000000000000000000000000000000000000000000000000000000000000000000000000000000000000000000000000000000000000000000000000000000000000000000000000000000000000000000000000000000000000000000000000000000000000000000000000000000000000000000000000000000000000000000000000000000000000000000000000000000000000000000000000000000000000000000000000000000000000000000000000000000000000056540000000000000000000000000000000000000000000000000000000000340000000000000000000000000000000000000000000000000000000000545600000000000000000000000000000000000000000000000000000000000000000000000000000000000000000000000000000000000000000000000000000000000000000000000000000000000000000000000000000000000000000000000000000000000000000000000000000000000000000000000000000000000000000000000000000000000000000000000000000000000000000000000000000000000000000000000000000000000000000055530000000000000000000000000000000000000000000000000000000000330000000000000000000000000000000000000000000000000000000000535500000000000000000000000000000000000000000000000000000000000000000000000000000000000000000000000000000000000000000000000000000000000000000000000000000000000000000000000000000000000000000000000000000000000000000000000000000000000000000000000000000000000000000000000000000000000000000000000000000000000000000000000000000000000000000000000000000000000000000056540000000000000000000000000000000000000000000000000000000000340000000000000000000000000000000000000000000000000000000000545600000000000000000000000000000000000000000000000000000000000000000000000000000000000000000000000000000000000000000000000000000000000000000000000000000000000000000000000000000000000000000000000000000000000000000000000000000000000000000000000000000000000000000000000000000000000000000000000000000000000000000000000000000000000000000000000000000000000000000000000000000000000000000000000000000000000000000000000000000000
#063321:29
#0633a1:00142400
#063361:0000005400000000
#063360:0014
#063320:00000000000000000000000000540000
#064360:0024000000000000
#064320:00000000000000001454545454545454
#064340:0000000000000000000000000000000000540054005400540054005400540054
#065320:54545454545454545454545454545454
#065340:0054005400540054005400540054005400540054005400540054005400540054
#066320:24
#0643b1:00000013
#064391:00000000000000000000000000330000
#064381:0000000000000023
#065381:13
#0653a1:00330000000000000000000000000000
#0653b1:0023000000000000
#066370:00000013
#066380:00000000000000000000000000330000
#066390:0000000000000033
#0673b0:23
#067361:13
#067351:00330000000000000000000000000000
#067341:0033000000000000
#067321:00230000
#0673a1:00000000000000001454545454545454
#067381:0000000000000000000000000000000000540054005400540054005400540054
#0683a1:54545454545454545454545454545454
#068381:0054005400540054005400540054005400540054005400540054005400540054
#0693a1:24
#067320:00000013
#067350:0000000000000023
#068350:13
#068320:0023000000000000
#068350:0013
#068320:0000000000230000
#068320:00000013
#068350:0000000000000023
#069321:000000000000000000000000145454545454545454545454
#069341:000000000000000000000000000000000000000000000000005400540054005400540054005400540054005400540054
#070321:545454545454545454240000000000000000000000000000
#070341:005400540054005400540054005400540054000000000000000000000000000000000000000000000000000000000000
#0693b0:00000013
#069380:0000000000000023
#070380:13
#0703b0:0023000000000000
#071321:0000000000000013
#072321:23
#072371:0000001300230000
#0723b1:0053
#072340:0000000000132300
#073320:13230000
#073360:0033000000000000
#0733b0:0000000000000013
#0743b0:23
#074390:0000000000132300
#0753b0:13230000
#075370:0033000000000000
#075320:0012
#075370:00000052
#076320:22
#0763c1:1222
#076371:00520000
#076320:0013
#076370:00000053
#077320:23
#0773b1:1323
#077361:00530000
#077320:0014
#077380:0000000000000000000000000000000000000000000000000000000000000054
#078320:0000000000000000000000000000000056565656565656565656565656565656
#078350:00000000000000000000000000000000000000000000000000000000000000000053005300530053005300530053005300530053005300530053005300530053
#079320:5656565656565656260000000000000000000000000000000000000000000000
#079350:00530053005300530053005300530053000000000000000000000000000000000000000000000000000000000000000000000000000000000000000000000000
#078381:00000000000000000000000000000000000000000000000000000000000000001653565356535653565356535653565356535653565356535653565356535653
#079381:56535653565356535653565356535653260000000000000000000000000000000000000000000000000000000000000000000000000000000000000000000000
#079321:0016
#083321:0022
#079380:0016
#0833c0:0022
