This file was generated by Ched 2.6.4.0.
#TITLE ""
#ARTIST ""
#DESIGNER ""
#DIFFICULTY 0
#PLAYLEVEL
#SONGID ""
#WAVE ""
#WAVEOFFSET 0
#JACKET ""
#REQUEST "ticks_per_beat 480"
#00002: 4
#BPM01: 165
#00008: 01
#TIL00: ""
#HISPEED 00
#MEASUREHS 00
#0051a:14
#00512:14
#00518:0014
#00514:00140014
#00618:14140000
#00612:00001414
#0071a:14140000
#00714:00001414
#0081a:14140000
#00812:00001414
#00918:14140000
#00914:00001414
#0101a:14
#01018:00140000
#01012:0014
#01014:00000014
#01118:14
#0111a:00140000
#01114:0014
#01112:00000014
#0121a:14
#01214:00140000
#01218:0014
#01212:00000014
#0131a:14
#01314:00140000
#01318:0014
#01312:00000014
#01418:0014
#01412:00000014
#0141a:24
#01414:24
#01410:41
#01614:0014
#0161a:00000014
#01612:14
#01618:14
#01818:0014
#01814:24000014
#0181a:24
#02014:0014
#02018:14000014
#02012:14
#02112:0014
#0211a:0014
#0231a:1414
#02314:00140014
#0241a:0014
#02414:0014
#02418:14
#02412:14
#02514:00140000
#0251a:1414
#02712:1414
#02718:00140014
#0281a:14
#02814:14
#02812:0014
#02818:0014
#03014:14
#0301a:00140000
#03012:0014
#03018:00000014
#0321a:14
#03212:00140000
#03218:0014
#03214:00000014
#03318:0014
#0331a:14
#03312:00140000
#03912:1414
#0391a:00140000
#0431a:1414
#04312:00140000
#0471a:00000014
#04712:24
#0471f:0021
#04814:14
#04818:00140014
#04812:0014
#04810:0041
#04914:14
#0491a:00140000
#05014:0014
#0501a:00000014
#05112:14
#05118:00140000
#05114:0014
#05418:14140000
#05414:0014000034340000
#05413:00000034
#05412:0000000000000034
#0531a:0014
#05312:00000014
#06214:14140000
#06218:0014000034340000
#06219:0000000000003434
#06112:0014
#0611a:00000014
#06316:00140000
#0631a:0024
#06312:0024
#06412:0000000000140000
#06413:00242414
#06414:0000000000000014
#06419:0024002400000000
#06512:0014000000140000
#06513:14141414
#06514:0000001400000014
#06818:00000000000000140000000000000000
#06814:00000000000000140000000000000000
#0691a:0000001400000000
#06912:0000001400000000
#07114:00140000
#07118:14000014
#0711a:0024
#07112:0024
#07214:14
#07218:00140000
#07212:0014
#0731a:1424
#07314:00000014
#07312:0024
#07418:14000014
#07414:00140000
#0741a:0024
#07412:0024
#07514:1424
#07518:00140000
#0401a:14
#04014:00140000
#04019:0014
#04013:00000014
#04118:14
#04112:00140000
#04116:0014
#0411a:00000014
#04412:1414
#04418:00140000
#04413:0000000000340000
#04414:00000034
#04515:0000001400000000
#05512:3434000000001400
#0551a:0024
#05618:14
#05614:00140014
#0561a:0014
#05718:14
#05712:00140000
#05818:0014
#05812:00000014
#0591a:14
#05914:00140000
#05918:0014
#05910:0041
#03114:14
#0311a:00140000
#03112:0014
#03418:14
#03412:00140000
#0341a:0014
#03414:00000014
#03410:41
#03612:14
#0361a:00140000
#03614:0014
#03618:00000014
#03714:0014
#03712:14
#0371a:00140000
#03518:14
#03512:00140000
#0351a:0014
#07612:14
#07615:0014
#07712:14
#07716:0014
#07812:14
#0381f:11
#0221a:24
#02214:24
#02212:0024
#02218:0024
#02210:41
#02612:24
#02618:24
#0261a:0024
#02614:0024
#06617:00000024
#06612:00000024
#06610:0041
#0671a:2424
#06715:24
#06717:00240000
#06712:00242400
#06014:24242400
#06018:0024002400000000
#05214:00242400
#05218:0024002400000000
#06452:0000000000240000
#06453:00006464
#06454:0000000000000024
#06552:0024000000240000
#06553:64646464
#06554:0000002400000024
#06858:00000000000000240000000000000000
#06854:00000000000000240000000000000000
#0695a:0000006400000000
#06952:0000005400000000
#07252:0054
#0735a:64
#04452:0054
#04555:0000006400000000
#05154:0014
#05958:0014
#07652:54
#07655:0064
#07752:54
#07756:0064
#07852:24
#0635a:0014
#06352:0014
#0675a:0064
#06752:0054
#07554:0064
#04756:0014
#0003a0:0014
#001380:0034
#0023a0:34
#002380:0034
#0033a0:00000024
#015380:14240000
#015320:00001424
#017340:14240000
#0173a0:00001424
#0193a0:14240000
#019320:00001424
#021320:14240000
#029340:14240000
#0293a1:14240000
#0383a1:1434
#038381:00340024
#042321:1434
#042341:00340024
#044321:0014
#044331:0000000000340000
#044341:00000034
#044351:0000000000000034
#045351:0034343400000000
#046321:00000000002400000000000000000000
#047321:14
#047361:0024
#049321:0014
#050341:24
#052341:0014
#053321:24
#054341:0000001434340000
#054331:00000034
#054321:0000000000000034
#055321:3434240000000000
#0573a1:0014
#058381:24
#060341:0014
#061321:24
#062381:0000001434340000
#062391:0000000000003434
#0633a1:24
#064331:00001454
#064321:0000000000540000
#064341:0000000000000054
#065331:54545454
#065321:0054000000540000
#065341:0000005400000054
#066331:24
#0673a1:0014
#068381:00000000000000540000000000000000
#0693a1:0034343400000000
#070381:00240000
#067320:0014
#068340:00000000000000540000000000000000
#069320:0034343400000000
#070340:00240000
#072320:0014
#072340:00000024
#0733a0:14
#073380:00240000
#075340:0014
#076320:34
#076350:0034
#077320:34
#077360:0034
#078320:5438
#079320:00280000
#079380:0016
#0833a0:0024
