This file was generated by Ched 2.6.4.0.
#TITLE ""
#ARTIST ""
#DESIGNER ""
#DIFFICULTY 0
#PLAYLEVEL
#SONGID ""
#WAVE ""
#WAVEOFFSET 0
#JACKET ""
#REQUEST "ticks_per_beat 480"
#00002: 4
#BPM01: 138
#00008: 01
#TIL00: ""
#HISPEED 00
#MEASUREHS 00
#00214:14
#00318:14
#00414:14
#01014:14
#01214:14
#01118:14
#0231a:14
#0191a:14
#02014:14
#02212:14
#02414:14
#02118:14
#02110:41
#01718:14
#01812:14
#02718:14
#0251a:14
#02814:14
#02612:14
#04112:0016
#04118:26
#04110:41
#01412:14
#0131a:14
#01612:14
#0151a:14
#03118:14
#0291a:14
#03214:14
#03210:41
#03012:14
#04212:0016
#04218:26
#04318:1616
#04412:1616
#04418:00000016
#04512:1616
#04618:1616
#04712:16
#04718:0016
#04812:16
#04818:0016
#04918:0016
#04912:26
#05018:0016
#05012:26
#05112:1616
#05218:1616
#05212:00000016
#05318:1616
#05412:1616
#05518:16
#05512:0016
#05618:16
#05612:0016
#05814:14
#06014:14
#0591a:14
#06212:14
#06118:14
#06412:14
#06318:14
#07318:2616
#0731f:21
#07412:2616
#07410:41
#07518:16
#07512:0016
#07618:16000016
#07612:0016
#07712:16
#07718:0016
#07812:16
#07818:0016
#07912:1616
#08018:1616
#08218:14
#0841a:14
#08314:14
#08618:14
#08714:14
#08512:14
#0651f:11
#00118:24
#00918:24
#00910:41
#0571a:24
#05710:41
#08112:24
#005380:14
#006380:24
#007340:14
#008340:24
#0333a0:14000024
#035320:14000024
#037380:14000024
#039340:14
#040340:24
#065380:14
#066380:24
#067340:14
#068340:24
#069380:14
#070380:24
#071340:14
#072340:24
#0883a0:1434342400000000
