This file was generated by Ched 2.6.4.0.
#TITLE ""
#ARTIST ""
#DESIGNER ""
#DIFFICULTY 0
#PLAYLEVEL
#SONGID ""
#WAVE ""
#WAVEOFFSET 0
#JACKET ""
#REQUEST "ticks_per_beat 480"
#00002: 4
#BPM01: 138
#00008: 01
#TIL00: ""
#HISPEED 00
#MEASUREHS 00
#00518:16
#00612:16
#00718:1612
#00814:14
#00816:0012
#00414:0000001212000000
#00416:14
#0091b:00000013000000000000000013000000
#00912:26000013000000000000000013000000
#00918:2600001300000013
#00915:00000000000000000013000000000000
#00910:41
#0101b:13131300
#01015:13130000
#01012:0013000000000000
#01018:0000001300000000
#01017:0000000000000013
#01114:00000013000000000013000000000000
#01119:00000013000000000013000000000000
#01112:0000001300001300
#0111b:23000013
#01118:0000000000000013
#01117:0000001300000000
#01116:23
#01212:1300130000000013
#0121b:1300001300000000
#01215:0013000000000000
#01218:00130000
#01312:00000013000000000000000013000000
#0131b:00000013000000000000000013000000
#01315:2600001300000013
#01318:00000000000000000013000000000000
#01412:13131300
#01418:13130000
#0141b:0013000000000000
#01415:0000001300000000
#01416:0000000000000013
#01519:00000013000000000013000000000000
#01514:00000013000000000013000000000000
#0151b:0000001300001300
#01512:23000013
#01515:0000000000000013
#01516:0000001300000000
#01517:23
#01618:13
#01619:0013000000000000
#0161a:00130000
#0161b:0000001300000000
#01612:13
#01718:0013001300130000
#01715:00131300
#0171b:2313
#01712:23
#04116:0000001300000000
#04117:00000013000000001300000000000000
#0411b:13000013
#04112:2313
#04110:41
#04217:0000001300000000
#04216:00000013000000001300000000000000
#04212:13000013
#0421b:2313
#04316:13
#04314:00000013000000000000000000000000
#04312:0000001300000000
#04317:0013
#04319:00000000000000000000001300000000
#0431b:0000000000000013
#04416:13
#04414:00000013000000000000000000000000
#04412:0000001300000000
#0441b:00000000000000000000001300000000
#0451b:00000000130000000000001300000000
#04515:0000001300000000
#04512:0000000013000013
#04518:0013
#0461a:14
#04616:00000014000000000000000000000000
#04612:0000001400001300
#04618:0000000000000013
#04617:0013
#0671a:12000000000000000000001200000000
#06714:00000012000000000000000000001200
#06718:0000001200000000
#06716:0012
#06819:12
#06817:00000012000000000000000000000000
#06815:0000001200000000
#06813:0012
#0681b:0012
#06818:00000000000000000000001200001200
#06816:00000012
#07218:16000026000016002600000013001300
#07212:26000016000026002600000000000000
#07215:00000000000000000000000000130013
#0731a:2400001414000000
#07312:14000014
#07316:00000014000000001400000000001400
#0731f:21
#07412:2400001414000000
#0741a:14000014
#07416:00000014000000001400000000000000
#07410:41
#0471b:1300001300000000
#04718:00000013000000000000000000000000
#04712:0000000013000013
#04715:00000000000000000000001300000000
#0481b:1300001300000000
#04812:00000013000000001300000000000000
#04815:2300002300001300
#04818:00000023000000002300000000001300
#04917:0000001300000000
#04916:00000013000000001300000000000000
#04912:13000013
#04915:0000000000000013
#0491b:2313
#05016:0000001300000000
#05017:00000013000000001300000000000000
#0501b:13000013
#05012:2313
#0531b:1313
#05318:0000001300001300
#05312:00131300
#05315:0000000000000013
#05212:00000000000000000000001300000000
#0521b:0000001300000000
#05219:00000013000000000000000000000000
#05217:13
#05412:13
#05415:0000130013000013
#05418:1300001300001300
#0541b:0013
#0551b:0013001300000000
#05514:00001414
#05518:1300000000140014
#05512:1300001300000000
#05515:0013000000000000
#06915:0000001300000000
#0691b:13131313
#06912:13
#07019:0000000000000013
#07012:13131313
#0711b:13130000
#07112:00001313
#0761a:14000000000000000000001400000000
#07616:00000014000000000000000000001400
#07612:00000014
#07716:0000001400000014
#07712:24141400
#0771a:14001414
#0781a:0000000014000014
#07816:14141414
#07812:1400001400000000
#07912:1400001400000000
#07918:00001414
#07914:0000000000140014
#0791a:0014001400000000
#07917:14
#07915:0014000000000000
#08119:00000013000000000013000000000000
#08117:0000001300000000
#0811b:23
#08218:1300001300000000
#08215:0013000000000000
#0821b:00131300
#08212:0000130000000013
#05712:23000013000000000000000013000000
#05718:0000000000000013
#0571b:23
#05710:41
#0581b:1300001313000013
#05815:0013000000000000
#05818:00130000
#05812:13130000
#0591b:2300001300001300
#05912:00000013000000000013000013000000
#05915:0000000000000013
#05917:00000013000000000013000000000000
#05916:2300001300000000
#06012:13130013
#06018:13131300
#0601b:0013001300000013
#06015:0000001300130000
#0611b:00000013000000000000000013000000
#06115:2600000000000013
#06212:1300001313000013
#06218:0013000000000000
#06215:00130000
#0621b:13130000
#06312:2300001300001300
#0631b:00000013000000000013000013000000
#06318:0000000000000013
#06316:00000013000000000013000000000000
#06317:2300001300000000
#0641b:13130000
#06415:13130000
#06412:0013000000000000
#06418:0000001300140014
#06414:00001414
#0661c:12
#06612:12
#08312:00000013
#08317:0000000000000013
#08416:0013001300000000
#0841b:1300131300130000
#08412:1300130013000013
#08417:00000013
#08512:00000013000000000000000013000000
#08517:0000001300000000
#0851b:00000000000000000013000013000000
#08518:0000000000000013
#08515:26
#08615:1300001300000000
#08618:0013000000000000
#08612:00131300
#0861b:1300130000000013
#08716:0000000000000013
#0871b:00000013
#08812:14
#08818:0014000000000000
#08819:00140000
#0881a:0000001400000000
#08817:14
#08815:0000001400000000
#08814:00140000
#08813:0014000000000000
#0321b:0000130000130000
#03218:00000013
#03215:0000000000000013
#03212:00130000000013000000000000000000
#03217:0000001300000000
#03210:41
#03412:0013001300000000
#03417:00130000
#0341b:0000000000130000
#03418:0000000000002313
#03316:00003313330000000000000023001300
#0331b:0013230000002313
#03318:2300001300000000
#03312:13
#03517:0000230000002313
#03512:0000230000002313
#0351b:2300001300000000
#03516:0000001300000000
#0361b:0000131300000000
#03612:0000000000130000
#03615:00000013
#03618:0000000000000013
#03616:0000001300000000
#0381b:0013001300002313
#03816:0000130000002313
#03717:00003313330000000000000023001300
#03712:0013230000002313
#03715:2300001300000000
#0371b:13
#04013:1424140000000000
#04019:2414240000000000
#03912:0013
#0391b:0000000000130000
#03915:00000013
#03918:0000000000000013
#01815:0013000013000000
#01818:00130000
#01812:0000001300000000
#0181b:0000000013130000
#0191b:0013000000000000
#0191a:00130000
#01919:0000001300000000
#01915:0000000000130000
#01912:0000000000001313
#01918:0000000000000013
#0201b:0000131300001313
#02015:0000001300001313
#02012:0000000000130000
#02016:00130000000000000000000000000000
#02115:0013001300130000
#02118:00131300
#02112:0013
#02110:41
#02218:0013000013000000
#02215:00130000
#0221b:0000001300000000
#02212:0000000013130000
#02312:0013000000000000
#02313:00130000
#02314:0000001300000000
#02318:0000000000130000
#0231b:0000000000001313
#02315:0000000000000013
#02412:0000131300001300
#02418:0000001300001300
#0241b:0000000000130000
#02417:00130000000000000000000000000000
#02512:0013130000001300
#0251b:2313
#02518:00130000
#02515:2300001300130013
#02718:0013000000130000
#0271b:00130013
#02715:00130013
#02712:0000001300000013
#02717:0000000000000013
#02812:0000130000000013
#02817:0000000000130013
#0281b:00130000000013000000000013000000
#02816:0000001300001300
#02918:0013000000000013
#0291b:00130013
#02915:0000001300001300
#02912:0000130000130000
#0651c:12
#0651f:11
#06512:22
#0261b:0013130000001300
#0261b:00000013
#02612:0013
#02615:00130000
#02618:0000001300130013
#03015:0013000000000013
#03012:00130013
#03018:0000001300001300
#0301b:0000130000130000
#03115:0013000000130000
#03112:00130013
#03118:00130013
#0311b:0000001300000013
#03116:0000000000000013
#00216:1400001212000000
#00316:14
#0031a:0000001212000000
#00118:0000001212000000
#00115:26
#05117:23
#05116:0023
#0511b:0000002300000000
#05119:00000023000000000000000000000000
#05114:00000000000000000000002300000000
#05112:0000000000000023
#07512:2400000000000024
#07516:00000024000000000000002400000000
#0751a:0000002424000000
#07518:2400000000000024
#07514:0000002424000000
#00155:16
#00958:46
#00952:36
#00558:56
#00652:66
#00758:6622
#00854:54
#00856:0022
#00454:0022
#01652:2300001600000000
#0165b:0000001300000000
#04156:00000013
#04152:1353
#0415b:63
#04157:00000023000000000000000000000000
#04257:00000013
#04252:53
#04256:00000023000000000000000000000000
#0425b:1363
#04558:1353
#0455b:00000000000000000000002300000000
#0735a:4464
#07352:54000014
#07356:00000024000000000000000000000000
#0745a:64000014
#07456:00000024000000000000000000000000
#07452:3454
#0475b:13
#04752:0013
#0485b:13
#04852:0013
#0495b:1363
#04957:00000013
#04952:53
#04956:00000023000000000000000000000000
#05056:00000013
#0505b:63
#05057:00000023000000000000000000000000
#05052:1353
#05355:13
#0535b:63
#05352:0053
#0815b:13
#05752:13
#0575b:13
#0885a:0000001400000000
#08855:0000001400000000
#01952:0000000000000053
#02056:00230000000000000000000000000000
#0205b:0000002300000000
#0235b:0000000000000063
#02457:00230000000000000000000000000000
#02452:0000002300000000
#02757:0000000000000053
#0285b:00230000000000000000000000000000
#02856:0000006300000000
#0605b:0000006300000000
#06058:0023
#06055:0000000000630000
#06052:00000023
#08456:0000006300000000
#08452:0023
#0845b:0000000000630000
#08457:00000023
#01758:0000000000530000
#01752:0000000000000013
#0185b:0000000000630000
#01852:0000000000000013
#02155:0000000000630000
#0215b:0000000000000013
#02252:0000000000530000
#0225b:0000000000000013
#0335b:0000000000000063
#03352:53
#03356:00000023000000000000000000000000
#03552:0000000000000053
#0355b:0000001300000000
#03556:0000001300000000
#03752:0000000000000053
#0375b:63
#03757:00000023000000000000000000000000
#0385b:0000000000000063
#04657:0053
#05455:0063
#05458:53
#0655c:62
#06652:52
#07652:00000054
#07656:0000000000000024
#07957:54
#0795a:0024000000000000
#07952:54
#07955:0024000000000000
#07856:5464
#0775a:64
#07752:3454
#05558:53
#0555b:0023000000000000
#05552:53
#05555:0023000000000000
#03156:0000000000000063
#03252:00230000000000000000000000000000
#07258:0016
#07252:0016
#02558:0000000000000013
#02655:0000000000000013
#02958:0000000000000013
#03055:0000000000000013
#06155:16
#08555:16
#01355:16
#004340:0012
#005320:26
#005381:16
#0063c1:22
#006320:16
#007320:22
#007381:1652
#008381:24
#008340:14
#008360:0052
#009320:26
#010320:0000000013000023
#010360:00000000000000000000003300000000
#012320:0000001300000000
#012360:0000000000230000
#0123b1:0000000000130000
#012371:0000000000000023
#0143b1:0000000013000023
#014371:00000000000000000000003300000000
#016321:1300002600000000
#017381:0000000000130000
#0173b1:0000000000000023
#017320:0000000000130023
#0183b0:0000000000130000
#018380:0000000000000023
#018321:0000000000130023
#019351:0013333323000000
#019380:0000000013332300
#019320:0000000000000013
#020360:00530000000000000000000000000000
#020320:00230000
#0203b0:0000001300000000
#020380:0000000000230000
#021350:0000000000130000
#021320:0000000000000023
#0213b1:0000000000130023
#022321:0000000000130000
#022351:0000000000000023
#0223b0:0000000000130023
#023380:0013333323000000
#023351:0000000013332300
#0233b1:0000000000000013
#024371:00530000000000000000000000000000
#0243b1:00230000
#024321:0000001300000000
#024351:0000000000230000
#025381:0000000000001323
#026351:0000000000001323
#027381:0000001323000000
#027350:0000000013230000
#027370:0000000000000013
#0283b0:00530000000000000000000000000000
#028370:00230000
#028360:0000001300000000
#028320:0000000000230000
#029380:0000000013230000
#030350:0000000013230000
#031350:0000001323000000
#031381:0000000013230000
#031361:0000000000000013
#032321:00530000000000000000000000000000
#032361:00230000
#033321:1300002300000000
#033361:00003353330000000000000000000000
#0333b1:0000000000000013
#034371:0023000000000000
#034351:0000000000130000
#034321:0000000000003333
#035351:23
#035321:0000000000000013
#036361:00230000
#0373b1:1300002300000000
#037371:00003353330000000000000000000000
#037321:0000000000000013
#038361:0023000000000000
#0383b1:0000000000000013
#039371:0023
#0413b1:1300002300000000
#041371:00000053000000000000000000000000
#041321:0013
#041361:00000023
#042321:1300002300000000
#042361:00000053000000000000000000000000
#0423b1:0013
#042371:00000023
#0433b1:13
#043391:00000033000000000000000000000000
#043371:0000002300000000
#043321:0013
#043341:00000000000000000000003300000000
#043361:0000000000000023
#0443b1:13
#044391:00000033000000000000000000000000
#044371:0000002300000000
#044351:00000000000000001300002300000000
#044321:0000000000001323
#044380:0000000000000013
#045380:23
#045351:13
#045321:00230000
#045381:0000000013000023
#0453b1:00000000000000000000005300000000
#046371:0013
#0463b1:00000023
#047351:1300002300000000
#047321:00000033000000000000000000000000
#047381:0000000013000023
#0473b1:00000000000000000000003300000000
#048381:00001323
#049321:1300002300000000
#049361:00000053000000000000000000000000
#0493b1:0013
#049371:00000023
#0503b1:1300002300000000
#050371:00000053000000000000000000000000
#050321:0013
#050361:00000023
#051321:13
#051341:00000033000000000000000000000000
#051361:0000002300000000
#0513b1:0013
#051391:00000000000000000000003300000000
#051371:0000000000000023
#052321:13
#052341:00000033000000000000000000000000
#052361:0000002300000000
#052381:00000000000000001300002300000000
#0523b1:0000000000001323
#052350:0000000000000013
#053350:23
#0533b1:13
#053381:00230000
#053321:0013
#053351:00000023
#054381:13
#0543b1:00230000
#054351:0013
#054321:00000023
#055381:13230000
#0553b1:0053000000000000
#055320:13230000
#055350:0053000000000000
#0563b0:13
#0573b0:23
#056321:13
#057321:23
#0573b1:00000013000023000000000000000000
#057350:00000000000013000023000000000000
#057381:00000000000000000013000023000000
#058361:0000000013000023
#058321:00000000000000000000003300000000
#0603b1:0000001300230000
#060381:0053
#060350:0000000000130023
#060320:00000053
#061320:00000013000023000000000000000000
#061381:00000000000013000023000000000000
#061350:00000000000000000013000023000000
#062370:0000000013000023
#0623b0:00000000000000000000003300000000
#0653c0:12
#065380:0000003232002200
#066320:12
#066360:0000003232002200
#069350:0013
#069320:0000000000000023
#0703b0:1300003333000000
#070370:00000033000000000000000023000000
#071320:1300002300000000
#071360:00000033000000000000000000000000
#0713b0:0000000013000023
#071370:00000000000000000000003300000000
#073320:1400002400000000
#073360:00000054000000000000000000000000
#0733a0:0014
#073360:00000024
#0743a0:1400002400000000
#074360:00000054000000000000000000000000
#074320:0014
#074360:00000024
#076360:1400002400000000
#076320:00000034000000000000000000000000
#0763a1:0000001424000000
#076360:00000000000000001400002400000000
#076320:00000014
#076360:0000000000000054
#077320:24
#0773a1:14
#077361:00240000
#077321:0014
#077361:00000024
#078361:14
#0783a1:00240000
#078361:0014
#078321:00000024
#079371:14240000
#0793a1:0054000000000000
#079320:14240000
#079350:0054000000000000
#0803b0:13
#0813b0:23
#080321:13
#081321:5353535353535353
#081331:00530053005300530053005300530053
#082321:23
#0813b0:0000000000001323
#082351:00000000000000001300002300000000
#082380:00000000000000000000001300002300
#0833b0:1300003300002300
#083370:00000033000000000033000000000000
#083361:13
#083321:00000023000000000000000000000000
#083361:0000001300000000
#083321:00000000000000000023000000000000
#084360:0000001300230000
#084320:0053
#0843b1:0000000000130023
#084371:00000053
#0853b1:13
#085371:00000023000000000000000000000000
#085321:0000001300000000
#085361:00000000000000000023000000000000
#086381:00000000000000001300002300000000
#086350:00000000000000000000001300002300
#087320:1300003300002300
#087360:00000033000000000033000000000000
#087371:13
#0873b1:00000023000000000000000000000000
#087371:0000001300000000
#0873b1:00000000000000000023000000000000
