This file was generated by Ched 2.6.4.0.
#TITLE ""
#ARTIST ""
#DESIGNER ""
#DIFFICULTY 0
#PLAYLEVEL
#SONGID ""
#WAVE ""
#WAVEOFFSET 0
#JACKET ""
#REQUEST "ticks_per_beat 480"
#00002: 4
#BPM01: 138
#00008: 01
#TIL00: ""
#HISPEED 00
#MEASUREHS 00
#00918:0000000000000013
#0091a:24
#00914:00000000000033000033000000000000
#00910:41
#04418:00000000000000000000001300000000
#04415:00000013
#04618:1300000000000013
#0461a:00000033000000000000000000000000
#04812:0000002300000013
#04815:23
#0481b:00000023000000000000000000000000
#04818:0023
#06915:0000001300000000
#06918:13
#08818:0014000000000000
#08814:00140000
#0881a:0000001400000000
#08812:14
#03218:0000000000130013
#03215:0000001300001300
#03215:00000013
#0321b:00130000000000000000000000000000
#03210:41
#03412:0000000000130000
#03415:0000130000000013
#03418:0000001300002300
#03918:0000000000130013
#03915:00000013
#01912:0013000000130013
#01918:00130013
#01915:0000001300000000
#0191b:0013
#02015:0000000000001313
#0201b:0000001300000000
#02515:2313
#02518:0013001300000000
#02512:00130000
#0251b:0013
#0331b:2300000000000013
#03315:2313000000002300
#03318:0000231300000000
#03312:00230000
#03815:0000001300000013
#03818:00130023
#04112:0013
#0411b:23
#04110:41
#00214:14
#00218:0000001200000000
#00216:0012
#0031a:1412
#00316:0000001200000000
#00412:14
#00418:0000001200000000
#00414:0012
#0351b:2300001300000013
#03515:00230023
#00116:0000001200000000
#00118:2412
#04212:0013
#0421b:23
#04512:00130000
#04518:0000001300000000
#04515:0013
#04715:1300001300000000
#0471b:00000013000000000000000000000000
#04712:00000000000000000000001300000000
#04718:0000000013000013
#05215:00000000000000000000001300000000
#05218:00000013
#0491b:0013
#04912:2300000000000013
#0501b:0013
#05012:23
#0531b:00131300
#05315:0000001300000013
#05418:1300001300000000
#05415:0000000013000013
#05518:0000001300000000
#0551b:13
#05512:0013
#05515:0000000000000013
#05615:0000000013000013
#05618:00000000000000000000001300000000
#00515:0013
#00618:0013
#00715:0013
#00818:0013
#01012:13130000
#0101b:0013001300000000
#01118:0000000000000013
#0111a:24
#01113:00000000000033000033000000000000
#01212:13
#01218:0013000000000000
#01215:00130000
#0121b:0000000000130000
#01315:0000000000000013
#01312:24
#01319:00000000000033000033000000000000
#0141b:13130000
#01412:0013001300000000
#01515:0000000000000013
#01512:24
#0151a:00000000000033000033000000000000
#01618:13
#01612:0013000000000000
#0161b:00130000
#01615:0000001300000000
#01712:0013001300000000
#01718:00131300
#01715:0000000000130000
#0171b:23
#01818:0013001300000000
#01812:00131300
#0181b:0000000000130000
#0231b:0013000000130013
#02315:00130013
#02318:0000001300000000
#02312:0013
#02418:00000013
#02412:0000001300000000
#0211b:0013001300000000
#02115:00131300
#02118:0000000000130000
#02110:41
#02215:0013001300000000
#0221b:00131300
#02212:0000000000130000
#02618:0013
#02615:0013001300000000
#0261b:00130000
#02612:0013
#02715:0013000000130013
#0271b:00130013
#02712:0000001300000000
#02718:0013
#02815:0000000000001313
#02812:00130000000000000000000000000000
#02818:0000001300000000
#03118:0013000000130013
#03112:00130013
#0311b:0000001300000000
#03115:0013
#03612:0000001300000000
#03615:0000000000130013
#03618:00000013
#03618:00000013
#03712:2300000000000013
#03718:2313000000002300
#03715:0000231300000000
#0371b:00230000
#05718:2400000000000013
#05710:41
#05815:13
#0581b:0013000000000000
#05812:00130000
#05818:0000001300000000
#0591b:0000000000000013
#05918:24
#06012:13
#06018:0013001300000000
#06015:00130000
#0601b:0000000000130000
#06115:0000000000000013
#06114:24
#06218:13
#06212:0013000000000000
#0621b:00130000
#06215:0000001300000000
#06312:0000000000000013
#06314:24
#0641b:13001313
#06415:0013001300000000
#06418:00130000
#06412:0000000000130013
#07015:0000000000000013
#0721a:0000000000000014
#07214:00000024000000002400000000000000
#07218:2400002400000000
#07614:00000000000000000000001400000000
#07618:00000014
#0731a:0014
#07312:2600000000000014
#07314:0000001400000000
#07318:00140000
#0731f:21
#0771a:00140000
#07716:0000001400000014
#07712:0014
#07714:24
#08012:0000000014000014
#0801a:00000000000000000000001400000000
#07412:0014
#07414:00140000
#07418:2600001400000000
#07410:41
#08115:0000000000000013
#08118:24000013
#08212:13
#08215:0013000000000000
#08218:00000000130000000000001400000000
#0821b:0000001300000000
#08214:0000000014000014
#08315:0000000000000013
#08318:24000013
#08415:00130000
#0841b:13
#08418:0013000000000000
#08518:0000000000000013
#08515:00000013
#08514:24
#0861b:13
#08618:0013000014000014
#08615:00130000
#08612:0000001300000000
#08614:00000000000000000000001400000000
#08718:0000000000000013
#08715:00000013
#08714:24
#0651a:12
#06518:00000012
#0651f:11
#06614:12
#06616:00000012
#06718:12
#0671a:00000012
#07912:0000000014000014
#0791a:1400001400000000
#07917:0014000000000000
#07915:0000000000140000
#07816:0000001400000014
#0781a:14
#07812:0014
#06816:12
#06814:00000012
#02918:0013000000130000
#02912:00130013
#0291b:0000001300000013
#02915:0013
#03015:0013000000130000
#0301b:00130013
#03012:0000001300000013
#03018:0013
#04014:24240000
#04018:0024000000000000
#0751a:24000000000000000000002400000000
#07512:00000024000000000000000000002400
#07518:0000002400000000
#07514:0024
#05112:23
#00158:14
#04155:00000013
#04152:0053
#0415b:63
#04558:13
#04555:0063
#0885a:0000001400000000
#01952:0000000000000053
#0335b:0000000000000063
#03855:0000000000000063
#07254:0014
#0355b:0000001300000063
#04252:0053
#0425b:63
#04255:00000013
#04658:53
#0495b:0063
#04952:53
#04958:00000013
#0505b:0063
#05052:53
#05058:00000013
#05355:13
#0535b:0063
#05458:53
#05455:0063
#0555b:63
#05552:0053
#0125b:0000000000630000
#01655:0000001300000000
#01755:0000000000630000
#01752:0000000000000013
#0185b:0000000000630000
#01858:0000000000000013
#0235b:0000000000000063
#02158:0000000000530000
#0215b:0000000000000013
#02252:0000000000530000
#02255:0000000000000013
#0255b:0000000000000013
#02555:0000000000000013
#02652:0000000000000013
#02658:0000000000000013
#02755:0000000000000063
#02852:00230000000000000000000000000000
#02858:0000005300000000
#02452:0000005300000000
#0205b:0000006300000000
#03158:0000000000000053
#0325b:00230000000000000000000000000000
#03752:0000000000000053
#0605b:0000000000630000
#06058:0000005300000000
#0735a:0064
#07357:00000014
#07352:16
#07452:0054
#07455:00000014
#07458:16
#07754:14
#07752:0054
#0655a:62
#06654:52
#06758:52
#0095a:14
#01352:14
#05758:14
#06154:14
#08158:14
#08554:14
#07952:0054
#0795a:64
#07955:0000000000240000
#07957:0024000000000000
#0785a:64
#07852:0054
#06856:62
#0295b:0000000000000013
#03052:0000000000000013
#0053b0:13
#005380:0000002300000000
#006320:13
#006350:0000002300000000
#007380:13
#0073b0:0000002300000000
#008350:13
#008320:0000002300000000
#009320:00000013000000000000000000000000
#009340:00000000000033000033000000000000
#009350:00000023
#010320:0000000013000023
#010350:00000000000000000000003300000000
#011350:00000013000000000000000000000000
#011330:00000000000033000033000000000000
#011320:00000023
#0123b0:0000001300330000
#012380:0000000000000023
#0133b0:00000013000000000000000000000000
#013390:00000000000033000033000000000000
#013380:00000023
#0143b0:0000000013000023
#014380:00000000000000000000003300000000
#015380:00000013000000000000000000000000
#0153a0:00000000000033000033000000000000
#0153b0:00000023
#017350:0000000000130000
#017320:0000000000000023
#0183b0:0000000000130000
#018380:0000000000000023
#019320:0000000000000013
#020360:00230000
#0203b0:0000001300000000
#020380:0000000000230000
#021380:0000000000130000
#0213b0:0000000000000023
#022320:0000000000130000
#022350:0000000000000023
#0233b0:0000000000000013
#024370:00230000
#024320:0000001300000000
#024350:0000000000230000
#0253b0:0000000000130023
#025351:0000000000130023
#026321:0000000000130023
#026380:0000000000130023
#027350:0000000000000013
#028320:00530000000000000000000000000000
#028350:00230000
#028380:0000001300000000
#0283b0:0000000000230000
#031380:0000000000000013
#0323b0:00530000000000000000000000000000
#032380:00230000
#0333b0:0000000000000013
#034380:0023000000000000
#0353b0:0000000000000013
#036370:00230000
#037320:0000000000000013
#038350:0023000000000000
#038350:0000000000000013
#039320:0023
#0413b0:13
#041370:0000002300000000
#041320:0013
#041350:00000023
#0423b0:13
#042370:0000002300000000
#042320:0013
#042350:00000023
#0433b0:1300000000000023
#043390:00000033000000000000003300000000
#043370:0000003333000000
#044360:13
#044340:00000033000000000000000000000000
#044320:0000003323000000
#044380:0000000000000013
#045380:23
#045350:0013
#045320:0000000000000023
#046380:13
#0463a0:00000033000000000000000000000000
#0463b0:0000002300000000
#046350:00001323
#048380:00001323
#049320:13
#049360:0000002300000000
#0493b0:0013
#049380:00000023
#050320:13
#050360:0000002300000000
#0503b0:0013
#050380:00000023
#051320:1300000000000023
#051340:00000033000000000000003300000000
#051360:0000003333000000
#052370:13
#052390:00000033000000000000000000000000
#0523b0:0000003323000000
#052350:0000000000000013
#053350:23
#0533b0:0013
#053380:00000023
#054380:13
#0543b0:00230000
#054350:0013
#054320:00000023
#0553b0:13
#055380:00230000
#055320:0013
#055350:00000023
#056380:1300002300000000
#057320:00000013000000000033000023000000
#057350:0000003300000000
#058350:0000000013000023
#058320:00000000000000000000003300000000
#059350:00000013000000000033000023000000
#059320:0000003300000000
#060380:0000001300000023
#0603b0:0000000000330000
#0613b0:00000013000000000033000023000000
#061380:0000003300000000
#062380:0000000013000023
#0623b0:00000000000000000000003300000000
#063380:00000013000000000033000023000000
#0633b0:0000003300000000
#0653a0:12
#065380:0022
#066340:12
#066360:0022
#067380:12
#0673a0:0022
#068360:12
#068340:0022
#0693b0:0013
#069380:0000000000000023
#070350:1300002300000000
#070320:00000033000000000000000000000000
#070380:00001323
#071380:1300002300000000
#0713b0:00000033000000000000000000000000
#071350:0000000013000023
#071320:00000000000000000000003300000000
#0733a0:0014
#073370:00000024
#074320:0014
#074350:00000024
#0763a0:1400003424000000
#076370:00000034000000000000000000000000
#076340:0000000000000014
#077340:24
#077320:0014
#077360:00000024
#0783a0:14
#078360:00240000
#078320:0014
#078360:00000024
#0793a0:14240000
#079370:0054000000000000
#079320:00001424
#079350:0000000000540000
#080360:1400002400000000
#081320:00000013000000000023000000000000
#081350:0000003300000000
#083350:00000013000000000023000000000000
#083320:0000003300000000
#084320:0000001300230000
#084381:0000000000130023
#0853b1:00000013000000000023000000000000
#085381:0000003300000000
#087381:00000013000000000023000000000000
#0873b1:0000003300000000
