This file was generated by Ched 2.6.4.0.
#TITLE ""
#ARTIST ""
#DESIGNER ""
#DIFFICULTY 0
#PLAYLEVEL
#SONGID ""
#WAVE ""
#WAVEOFFSET 0
#JACKET ""
#REQUEST "ticks_per_beat 480"
#00002: 4
#BPM01: 138
#00008: 01
#TIL00: ""
#HISPEED 00
#MEASUREHS 00
#00518:16
#00612:16
#00812:1612
#00718:16
#0071c:0012
#00416:0000001212000000
#0041c:0000001212000000
#00415:16
#0091b:00131313
#00912:26131313
#00915:00000000000013000000001300000000
#00918:26000013000000000013000000001300
#00910:41
#0121b:0000001300000013
#01212:13001313
#01215:0013000000000000
#01218:00130000
#01217:00001313
#01216:0000000000130000
#01716:0013001300131300
#01712:23131300
#01717:0013
#0171b:2300000000131300
#04315:00000000130013000000001300000000
#04315:00130000
#0431b:13130000
#04318:00000013000000001300000013000000
#04312:0000000000001313
#0451b:00130000
#04514:0000001300000000
#04512:1300000013000013
#04517:1313
#04516:00000013
#0671c:12
#06714:0000001200000000
#06712:0012
#0671a:0000000000000012
#06816:00000000000012000000001200001200
#06812:0012
#0681c:12
#07218:16000026000016002600000000130000
#07212:26000016000026002600000000000013
#0721b:00000013
#07215:0000000000000013
#0731a:00000000000014000000001400001400
#07312:14001414
#07316:2814141414140014
#0731f:21
#04615:0000000000000013
#04612:00131300
#04617:00131300
#04616:1300001300130000
#0461b:1300001300130000
#04712:1313
#0471b:0000001300001300
#04718:0000130000000013
#0481b:1300132300001300
#04818:00001300001300001300000000001300
#04815:23000023000000130000130000000000
#04812:00130000000000002300000013000000
#05319:0000001300000013
#0531b:13001313
#05312:13130000
#05316:0013
#05416:0000001413000014
#05412:1300130000130000
#05417:13
#0541b:0013000013001300
#05518:0000001300000000
#05516:000000000000000000000000000000000000000000000000000000000000000000000000000000000000000000000000000000000000000000000000000000000000000000000000000000000000000000000000000000000000000000000000000000000000000000000000000000000000000000000000000000000000000000000000000000000000000000000000000000000000000000000000000000000000000000000000000000000000000000000000000000000000000000000000000000000000000000000000000000000000000000000000000000000000000000000000000000000000000000000000001300000000000000000000000000000000000000000000000000000000000000000000000000000000000000000000000000000000000000000000000000000000000000000000000000000000000000000000000000000000000000000000000000000000000000000000000000000000000000000000000000000000000000000000000000000000000000000000000000000000000000000000000000000000000000000000000000000000000000000000000000000000000000000000000000000000000000000000000000000000000000000000000000000000000000000000000000000000000000000000000000000000000000000000000000000000000000000000000000000000000000000000000000000000000000000000000000000000000000000000000000000000000000000000000000000000000000000000000000000000000000000000000000000000000000000000000000000000000000000000000000000000000000000000000000000000000000000000000000000000000000000000000000000000000000000000000000000000000000000000000000000000000000000000000000000000000000000000000000000000000000000000000000000000000000000000000000000000000000000000000000000000000000000000000000000000000000000000000000000000000000000000000000000000000000000000000000000000000000000000000000000000000000000000000000000000000000000000000000000000000000000000000000000000000000000000000000000000000000000000000000000000000000000000000000000000000000000000000000000000000000000000000000000000000000000000000000000000000000000000000000000000000000000000000000000000000000000000000000000000000000000000000000000000000000000000000000000000000000000000140000000000000000000000000000000000000000000000000000000000000000000000000000000000000000000000000000000000000000000000000000000000000000000000000000000000000000000000000000000000000000000000000000000000000000000000000000000000000000000000000000000000000000000000000000000000000000000000000000000000000000000000000000000000000000000000000000000000000000000000000000000000000000000000000000000000000000000000000000000000000000000000000000000000000000000000000000000000000000000000140000000000000000000000000000000000000000000000000000000000000000000000000000000000000000000000000000000000000000000000000000000000000000000000000000000000000000000000000000000000000000000000000000000000000000000000000000000000000000000000000000000000000000000000000000000000000000000000000000000000000000000000000000000000000000000000000000000000000000000000000000000000000000000000000000000000000000000000000000000000000000000000000000000000000000000000000000000000000000000000140000000000000000000000000000000000000000000000000000000000000000000000000000000000000000000000000000000000000000000000000000000000000000000000000000000000000000000000000000000000000000000000000000000000000000000000000000000000000000000000000000000000000000000000000000000000000000000000000000000000000000000000000000000000000000000000000000000000000000000000000000000000000000000000000000000000000000000000000000000000000000000000000000000000000000000000000000000000000000000000140000000000000000000000000000000000000000000000000000000000000000000000000000000000000000000000000000000000000000000000000000000000000000000000000000000000000000000000000000000000000000000000000000000000000000000000000000000000000000000000000000000000000000000000000000000000000000000000000000000000000000000000000000000000000000000000000000000000000000000000000000000000000000000000000000000000000000000000000000000000000000000000000000000000000000000000000000000000000000000000
#05515:0000001300000000
#0551b:13
#05517:0013000000000000
#05512:13
#0551a:0000000000130013
#05513:00001313
#07612:18000014140000000000000000001400
#07616:00000000000000000000001414001400
#0761a:00000014
#07712:0000140014000014
#0771a:1400001400001400
#07716:2414000014140000
#07912:1400001400000014
#07918:00001414
#07916:000000000000000000000000000000000000000000000000000000000000000000000000000000000000000000000000000000000000000000000000000000000000000000000000000000000000000000000000000000000000000000000000000000000000000000000000000000000000000000000000000000000000000000000000000000000000000000000000000000000000000000000000000000000000000000000000000000000000000000000000000000000000000000000000000000000000000000000000000000000000000000000000000000000000000000000000000000000000000000000014140000000000000000000000000000000000000000000000000000000000000000000000000000000000000000000000000000000000000000000000000000000000000000000000000000000000000000000000000000000000000000000000000000000000000000000000000000000000000000000000000000000000000000000000000000000000000000000000000000000000000000000000000000000000000000000000000000000000000000000000000000000000000000000000000000000000000000000000000000000000000000000000000000000000000000000000000000000000000000000000000000000000000000000000000000000000000000000000000000000000000000000000000000000000000000000000000000000000000000000000000000000000000000000000000000000000000000000000000000000000000000000000000000000000000000000000000000000000000000000000000000000000000000000000000000000000000000000000000000000000000000000000000000000000000000000000000000000000000000000000000000000000000000000000000000000000000000000000000000000000000000000000000000000000000000000000000000000000000000000000000000000000000000000000000000000000000000000000000000000000000000000000000000000000000000000000000000000000000000000000000000000000000000000000000000000000000000000000000000000000000000000000000000000000000000000000000000000000000000000000000000000000000000000000000000000000000000000000000000000000000000000000000000000000000000000000000000000000000000000000000000000000000000000000000000000000000000000000000000000000000000000000000000000000000000000000000000000000000000000000000000000000000000000000000000000000000000000000000000000000000000000000000000000000000000000000000000000000000000000000000000000000000000000000000000000000000000000000000000000000000000000000000000000000000000000000000000000000000000000000000000000000000000000000000000000000000000000000000000000000000000000000000000000000000000000000000000000000000000000000000000000000000000000000000000000000000000000000000000000000000000000000000000000000000000000000000000000000000000000000140000000000000000000000000000000000000000000000000000000000000000000000000000000000000000000000000000000000000000000000000000000000000000000000000000000000000000000000000000000000000000000000000000000000000000000000000000000000000000000000000000000000000000000000000000000000000000000000000000000000000000000000000000000000000000000000000000000000000000000000000000000000000000000000000000000000000000000000000000000000000000000000000000000000000000000000000000000000000000000000000000000000000000000000000000000000000000000000000000000000000000000000000000000000000000000000000000000000000000000000000000000000000000000000000000000000000000000000000000000000000000000000000000000000000000000000000000000000000000000000000000000000000000000000000000000000000000000000000000000000000000000000000000000000000000000000000000000000000000000000000000000000000000000000000000000000000000000000000000000000000000000000000000000000000000000000000000000000000000000000000000000000000000000000000000000000000000000000000000000000000000000000000000000000000000000000000000000000000000000000000000000000000000000000000000000000000000000000000000000000000000000000000000000000000000000000000000000000000000000000000000000000000000000000000000000000000000000000000000000000000000000000000000000000000000000000000000000000000000000000000000000000000000000000000000000000000000000000000000000000000000000000000000000000000000000000000000000000000000000000
#07914:00001414
#0791a:1400001400000014
#0811a:24000013000000000000000000000000
#0811b:0000001300000000
#08117:0000130013000013
#08112:2413
#08116:00000000000000000000001300000000
#0821b:13000000000000001300001313000000
#08214:0013001300000000
#08217:0000130000000013
#08212:0000000000000000130000000000000000000013000000000000000000000000
#08219:0013001300000000
#08216:1313
#0661c:12
#06612:12
#08416:1300000000130000
#08414:0013000013000000
#08417:0000131300000013
#08412:0000131300000000
#08419:0013000000001300
#0841b:13
#0881a:0014001400000000
#08817:14140000
#08815:0014001400000000
#08812:14140000
#03216:0013001300140000
#03218:0000000000000013
#03215:00000000000000000000000000130000
#03212:00131313
#0321b:0000001313001300
#03217:13130000
#03210:41
#03412:1313001300002300
#03418:00000000130000000000000000130013
#03419:0000000000130000
#03414:0000000000130000
#03415:00000013001300000000000000001300
#03416:0014
#0341b:0013001300002300
#03316:2300001300000013
#03314:0013000000000000
#0331b:2300000000000013
#03317:00000012000000000000130023000000
#03312:00231323
#03319:00120000230000000000000000000000
#03517:0013000000002313
#03512:2313000000002313
#03516:0000231300000000
#03518:0013
#03515:0000000000130000
#0351b:2300231300000000
#03617:0013001300000000
#03612:0000001300001300
#0361b:13130013
#03615:0000000013000013
#03618:00000000000000000000130000130000
#03616:13130000
#01916:0013000000001300
#01914:0000130000130000
#01912:1300001313000013
#0191b:0013000000000013
#01917:13000000000033133300000000000000
#01919:0000330000330000
#0201b:0000130013001313
#02012:0000001300130000
#02016:1300130000001313
#02017:0013001300000000
#0651c:12
#0651f:11
#06512:22
#00315:16
#00318:0000001212000000
#00312:0000001212000000
#01015:13000000000013000000001300001300
#01012:0013130013001300
#01118:00000013130000000000000013000000
#01112:23000000130000000000001313000000
#01115:0000001313000000
#0111b:23000000000000001313000000001300
#01312:26131313
#0131b:00131313
#01318:26000000000013000000001300000000
#01315:00000013000000000013000000001300
#01418:13000000000013000000001300001300
#0141b:0013130013001300
#01515:00000013130000000000000013000000
#0151b:23000000130000000000001313000000
#01518:0000001313000000
#01512:23000000000000001313000000001300
#01612:13
#01614:0014000000000000
#01616:00150000
#01618:0000001600000000
#0161b:13
#04117:00000000130000000000001300001300
#04114:0000001300000000
#04116:1313
#04112:0000000000131300
#0411b:23001313
#04110:41
#04216:00000000130000000000001300001300
#04219:0000001300000000
#04217:1313
#0421b:0000000000131300
#04212:23001313
#04914:0000000000000013
#04912:13000000000013000000001300000000
#0491b:23131313
#04917:0000000000130000
#04916:00001313
#05019:0000000000000013
#0501b:13000000000013000000001300000000
#05012:23131313
#05016:0000000000130000
#05017:00001313
#05115:23000000130000000000002300000000
#05115:00130000
#0511b:0000132300000000
#05112:00002313
#05112:00000013
#05118:00000023000000000000000013002300
#0521b:0000131300000000
#05215:13000000130000000000001300000000
#05215:00130000
#05218:00000013000000000000000013001300
#05212:00001313
#05212:00000013
#05715:00000000130000000000001300001300
#05712:23000013
#0571b:23000013
#05718:00000013000000001300000000000000
#05710:41
#05812:00130013
#05815:0000001300000013
#05818:13000000000000001300001300000000
#0581b:0013000000000000
#05915:0000001300000013
#0591b:13000000000000001313000000000000
#05917:00000013000000000000000000000000
#05912:23000013
#07412:28000000000014000000001400001400
#0741a:14001414
#07416:0014141414140014
#07410:41
#0181b:0013001313001300
#01816:00001313
#01812:1300000000130000
#01817:1300130000130000
#02117:0013001300131300
#0211b:23131300
#02116:0013
#02112:2300000000131300
#02110:41
#02317:0013000000001300
#02319:0000130000130000
#0231b:1300001313000013
#02312:0013000000000013
#02316:13000000000033133300000000000000
#02314:0000330000330000
#02412:00131313
#0241b:0000001300130000
#02417:1300130000001313
#02416:0013001300000000
#02212:0013001313001300
#02217:00001313
#0221b:1300000000130000
#02216:1300130000130000
#02516:0013000000000000
#02514:0013
#02519:0013
#0251b:2300001300000000
#02512:2300000000131300
#02517:00000013
#02819:00130000
#02817:0013000013000013
#02816:1300001300001300
#0281b:0000001300001300
#02812:0000000000130013
#02814:00130000
#02617:1300000000131300
#02612:13000013
#0261b:0013000000000000
#02614:0013
#02619:0013
#02616:0000001300000000
#02717:13
#02712:1300000000000013
#0271b:0013000000000000
#02917:0013000000000000
#02919:0013
#02914:0013
#02912:2300001300000000
#0291b:2300000000131300
#02916:00000013
#03016:1300000000131300
#0301b:13000013
#03012:0013000000000000
#03019:0013
#03014:0013
#03017:0000001300000000
#03112:0013000000000000
#0311b:1300000000000013
#03116:13
#0381b:1313001300002300
#03815:00000000130000000000000000130013
#03814:0000000000130000
#03819:0000000000130000
#03816:0014
#03818:00000013001300000000000000001300
#03812:0013001300002300
#03717:23000012000013000000000000001300
#03719:0013000000000000
#03712:2300000000000013
#0371b:00231323
#03716:0000000000132300
#03715:00120000000000000000000000000000
#03714:00230000
#06016:00131313
#06014:0013000000000000
#06012:1300001300000013
#0601b:00001313
#06017:0000000000130000
#06118:00000000130000000000001300001300
#0611b:23000013
#06112:23000013
#06115:00000013000000001300000000000000
#0621b:00130013
#06218:0000001300000013
#06215:13000000000000001300001300000000
#06212:0013000000000000
#06318:0000001300000013
#06312:13000000000000001313000000000000
#06316:00000013000000000000000000000000
#0631b:23000013
#06417:00130000
#06419:0013000000000000
#0641b:1300001300000000
#0641a:0000000014140000
#06414:0000000014140000
#06418:0000000000001414
#06412:0000000000001414
#07816:1400001414000014
#07812:0014000014001400
#0781a:1400140000140000
#08513:00000013000000000000000000000000
#08512:2400001300000000
#08516:0000130013000013
#0851b:0013
#08517:00000000000000000000001300000000
#0851a:24
#08612:13000000000000001300001313000000
#08619:0013001300000000
#08616:0000130000000013
#0861b:0000000000000000130000000000000000000013000000000000000000000000
#08614:0013001300000000
#08617:1313
#00215:16
#00216:0000001212000000
#0021a:0000001212000000
#00118:0000001212000000
#00114:2800001212000000
#04415:00000000130013000000001300000000
#04415:00130000
#0441b:13130000
#04418:00000013000000001300000013000000
#04412:0000000000001313
#06919:0000001300000000
#0691b:13000000000000000000001300000000
#06917:0013
#07016:0000131313000013
#07012:13000013
#08317:1300000000000013
#0831b:0000001300000000000000000000000000000000000000000000000000000000
#08312:23
#08712:0000001300000000000000000000000000000000000000000000000000000000
#08716:1300000000000013
#0871b:23
#04012:1626160000000000
#04018:2616260000000000
#0391b:13001300000000000000000000130013
#03912:00130013000000000000000013001300
#03918:000000000000000000000000130000000000120000001200000000130000000000130000000000000000000000000000
#03915:00000000001300000000130000000000
#03916:000000000012120000000000
#07117:00000013000000000000000000000000
#07112:0014
#07116:00000000000000000000001300000000
#0711a:14
#07512:2800002424002400
#07516:00000024000024002800002400002400
#0751a:2400240000000024
#00154:18
#00952:46
#00958:46
#00558:56
#00652:66
#00852:6622
#00758:56
#0075c:0022
#00456:0022
#0415b:1363
#04152:00000013
#04156:63
#07356:4824000000000000
#07352:54000014
#04752:1313
#0485b:13
#04858:0013
#0885a:0000001400000000
#08855:0000001400000000
#01952:0000000000000053
#01957:00000000000000230000000000000000
#0195b:0063000000000000
#02056:23
#02057:0000005300000000
#0205b:0023
#0335b:0000000000000063
#03552:0000000000000053
#03556:0000001300000000
#0355b:0000001300000000
#04652:0053
#04657:0053
#0465b:6300000000230000
#04656:6300000000230000
#0655c:62
#07952:54
#07956:000000000000000000000000000000000000000000000000000000000000000000000000000000000000000000000000000000000000000000000000000000000000000000000000000000000000000000000000000000000000000000000000000000000000000000000000000000000000000000000000000000000000000000000000000000000000000000000000000000000000000000000000000000000000000000000000000000000000000000000000000000000000000000000000000000000000000000000000000000000000000000000000000000000000000000000000000000000000000000000024240000000000000000000000000000000000000000000000000000000000000000000000000000000000000000000000000000000000000000000000000000000000000000000000000000000000000000000000000000000000000000000000000000000000000000000000000000000000000000000000000000000000000000000000000000000000000000000000000000000000000000000000000000000000000000000000000000000000000000000000000000000000000000000000000000000000000000000000000000000000000000000000000000000000000000000000000000000000000000000000000000000000000000000000000000000000000000000000000000000000000000000000000000000000000000000000000000000000000000000000000000000000000000000000000000000000000000000000000000000000000000000000000000000000000000000000000000000000000000000000000000000000000000000000000000000000000000000000000000000000000000000000000000000000000000000000000000000000000000000000000000000000000000000000000000000000000000000000000000000000000000000000000000000000000000000000000000000000000000000000000000000000000000000000000000000000000000000000000000000000000000000000000000000000000000000000000000000000000000000000000000000000000000000000000000000000000000000000000000000000000000000000000000000000000000000000000000000000000000000000000000000000000000000000000000000000000000000000000000000000000000000000000000000000000000000000000000000000000000000000000000000000000000000000000000000000000000000000000000000000000000000000000000000000000000000000000000000000000000000000000000000000000000000000000000000000000000000000000000000000000000000000000000000000000000000000000000000000000000000000000000000000000000000000000000000000000000000000000000000000000000000000000000000000000000000000000000000000000000000000000000000000000000000000000000000000000000000000000000000000000000000000000000000000000000000000000000000000000000000000000000000000000000000000000000000000000000000000000000000000000000000000000000000000000000000000000000000000000000000000000000000000000000000000000000000000000000000000000000000000000000000000000000000000000000000000000000000000000000000000000000000000000000000000000000000000000000000000000000000000000000000000000000000000000000000000000000000000000000000000000000000000000000000000000000000000000000000000000000000000000000000000000000000000000000000000000000000000000000000000000000000000000000000000000000000000000000000000000000000000000000000000000000000000000000000000000000000000000000000000000000000000000000000000000000000000000000000000000000000000000000000000000000000000000000000000000000000000000000000000000000000000000000000000000000000000000000000000000000000000000000000000000000000000000000000000000000000000000000000000000000000000000000000000000000000000000000000000000000000000000000000000000000000000000000000000000000000000000000000000000000000000000000000000000000000000000000000000000000000000000000000000000000000000000000000000000000000000000000000000000000000000000000000000000000000000000000000000000000000000000000000000000000000000000000000000000000000000000000000000000000000000000000000000000000000000000000000000000000000000000000000000000000000000000000000000000000000000000000000000000000000000000000000000000000000000000000000000000000000000000000000000000000000000000000000000000000000000000000000000000000000000000000000000000000000000000000000000000000000000000000000000000000000000000000000000000000000000000000000000
#0795a:64
#01256:0000000000630000
#01252:00000023
#0125b:0000006300000000
#01257:0023
#0425b:00000013
#04252:1353
#04257:53
#04956:0063
#04952:53
#0495b:13000013
#05057:0053
#0505b:63
#05052:13000013
#05457:53
#0545b:0023000000000000
#05456:0063
#05452:0000000000230000
#0555b:63
#05557:0023000000000000
#05552:53
#05556:000000000000000000000000000000000000000000000000000000000000000000000000000000000000000000000000000000000000000000000000000000000000000000000000000000000000000000000000000000000000000000000000000000000000000000000000000000000000000000000000000000000000000000000000000000000000000000000000000000000000000000000000000000000000000000000000000000000000000000000000000000000000000000000000000000000000000000000000000000000000000000000000000000000000000000000000000000000000000000000000002300000000000000000000000000000000000000000000000000000000000000000000000000000000000000000000000000000000000000000000000000000000000000000000000000000000000000000000000000000000000000000000000000000000000000000000000000000000000000000000000000000000000000000000000000000000000000000000000000000000000000000000000000000000000000000000000000000000000000000000000000000000000000000000000000000000000000000000000000000000000000000000000000000000000000000000000000000000000000000000000000000000000000000000000000000000000000000000000000000000000000000000000000000000000000000000000000000000000000000000000000000000000000000000000000000000000000000000000000000000000000000000000000000000000000000000000000000000000000000000000000000000000000000000000000000000000000000000000000000000000000000000000000000000000000000000000000000000000000000000000000000000000000000000000000000000000000000000000000000000000000000000000000000000000000000000000000000000000000000000000000000000000000000000000000000000000000000000000000000000000000000000000000000000000000000000000000000000000000000000000000000000000000000000000000000000000000000000000000000000000000000000000000000000000000000000000000000000000000000000000000000000000000000000000000000000000000000000000000000000000000000000000000000000000000000000000000000000000000000000000000000000000000000000000000000000000000000000000000000000000000000000000000000000000000000000000000000000000000000000000000000000000000000000000000000000000000000000000000000000000000000000000000000000000000000000000000000000000000000000000000000000000000000000000000000000000000000000000000000000000000000000000000000000000000000000000000000000000000000000000000000000000000000000000000000000000000000000000000000000000000000000000000000000000000000000000000000000000000000000000000000000000000000000000000000000000000000000000000000000000000000000000000000000000000000000000000000000000000000000000000000000000000000000000000000000000000000000000000000000000000000000000000000000000000000000000000000000000000000000000000000000000000000000000000000000000000000000000000000000000000000000000000000000000000000000000000000000000000000000000000000000000000000000000000000000000000000000000000000000000000000000000000000000000000000000000000000000000000000000000000000000000000000000000000000000000000000000000000000000000000000000000000000000000000000000000000000000000000000000000000000000000000000000000000000000000000000000000000000000000000000000000000000000000000000000000000000000000000000000000000000000000000000000000000000000000000000000000000000000000000000000000000000000000000000000000000000000000000000000000000000000000000000000000000000000000000000000000000000000000000000000000000000000000000000000000000000000000000000000000000000000000000000000000000000000000000000000000000000000000000000000000000000000000000000000000000000000000000000000000000000000000000000000000000000000000000000000000000000000000000000000000000000000000000000000000000000000000000000000000000000000000000000000000000000000000000000000000000000000000000000000000000000000000000000000000000000000000000000000000000000000000000000000000000000000000000000000000000000000000000000000000000000000000000000000000000000000000000000000000000000000000000000000000000000000000000000000000000000000000000000000000000000000000000000000000000000000000000000000
#05752:33
#0575b:43
#04552:53
#04557:1353
#01658:0000001600000000
#06652:52
#07258:4600004646000000
#07252:00000036000000003600000000000000
#07552:38
#07556:0048
#0745a:64000014
#07456:0024000000000000
#07452:38
#0815a:44
#08152:34
#01757:0000000000000033
#01752:0000000000000033
#01756:00000023
#0175b:00000023
#01852:0000000000000033
#01857:0000000000000033
#0185b:00000023
#01856:00000023
#0235b:0000000000000063
#02352:0053000000000000
#02356:00000000000000230000000000000000
#02456:0000006300000000
#02452:0023
#02457:2300000000000013
#0215b:0000000000000043
#02156:0000000000000043
#02152:00000023
#02157:00000023
#0225b:0000000000000043
#02256:0000000000000043
#02252:00000023
#02257:00000023
#02557:00000053
#02556:0000000000000033
#02552:00000053
#0255b:0000000000000033
#02752:0000000000000053
#02856:23
#0285b:0000006300000000
#02857:0023
#0315b:0000000000000063
#03257:23
#03752:0000000000000053
#03656:23
#0595b:63
#05957:00000053000000000000000000000000
#06056:0023
#06052:0000005300000000
#0605b:00000023
#06057:0000000000530000
#06352:53
#06356:00000063000000000000000000000000
#07656:00000064
#07652:3800000000000024
#0775a:64
#07756:4424000000240000
#07752:0054
#07856:6454
#07852:0024000000000000
#0785a:0000000000240000
#08457:0000005300000000
#08456:0000000000630000
#08552:34
#0855a:44
#0865b:0000000000000000000000000000000000000023000000000000000000000000
#08657:0053
#08252:0000000000000000000000000000000000000023000000000000000000000000
#08256:0063
#02652:00000053
#02657:00000053
#0265b:0000000000000033
#02656:0000000000000033
#02956:00000063
#0295b:00000063
#02957:0000000000000043
#02952:0000000000000043
#0305b:00000063
#03056:00000063
#03052:0000000000000043
#03057:0000000000000043
#07052:53
#07056:0063
#06957:0053
#0695b:00000000000000000000002300000000
#01358:36
#01352:36
#0835b:0000002300000000000000000000000000000000000000000000000000000000
#08357:53
#08752:0000002300000000000000000000000000000000000000000000000000000000
#08756:63
#07152:0034
#0715a:44
#06152:33
#0615b:43
#0535b:63
#05352:13
#05356:0063
#004360:0012
#005320:26
#005381:16
#006381:22
#006320:16
#007360:22
#007381:16
#0073c1:0052
#008381:26
#008320:1652
#009320:26
#0103b0:1323000000000000
#010380:0000132300000000
#0103b0:00000000000000001300002300000000
#010380:0000000000001323
#012380:1323000000000000
#012350:0000132300000000
#0123b1:0000001300230000
#012371:0053
#012360:0000000000130023
#012320:00000053
#014320:1323000000000000
#014350:0000132300000000
#014320:00000000000000001300002300000000
#014350:0000000000001323
#016360:0000000000000000000000000000000012525252220000000000000000000000
#016350:00000000000000000000000000000000000000000000000000000000000000000052005200520052000000000000000000000000000000000000000000000000
#016380:0000000000000000000000000000000000000000000000001252525222000000
#016390:00000000000000000000000000000000000000000000000000000000000000000000000000000000000000000000000000520052005200520000000000000000
#0173b0:0013002300000000
#017370:00330000
#017360:00000013
#017320:0000000000000023
#0173b1:00000013
#017371:0000000000000023
#018361:0013002300000000
#018321:00330000
#018361:00000013
#018321:0000000000000023
#0183b0:00000013
#018370:0000000000000023
#0193b0:0013000000002300
#019390:0000330000330000
#019370:00000000000033533300000000000000
#019320:0000000000000013
#020360:53
#020320:0023000000000000
#020370:0000001300230000
#0203b0:0053
#021320:0013002300000000
#021360:00330000
#021370:00000013
#0213b0:0000000000000023
#021321:00000013
#021361:0000000000000023
#022371:0013002300000000
#0223b1:00330000
#022371:00000013
#0223b1:0000000000000023
#022320:00000013
#022360:0000000000000023
#023320:0013000000002300
#023340:0000330000330000
#023360:00000000000033533300000000000000
#0233b0:0000000000000013
#024370:53
#0243b0:0023000000000000
#024360:0000001300230000
#024320:0053
#0253b0:0013000000000000
#025370:00230000
#025321:00130000
#025361:0000002300000000
#025371:0000000000133300
#0253b1:0000000000000023
#025320:00000013
#025360:0000000000000023
#026360:0013000000000000
#026320:00230000
#026371:00130000
#0263b1:0000002300000000
#026321:0000000000133300
#026361:0000000000000023
#026370:00000013
#0263b0:0000000000000023
#027360:0013002300000000
#027320:00330000
#027371:00132300
#0273b1:0000003300000000
#027320:00001323
#027360:0000000000330000
#0273b1:0000000000130023
#027371:00000033
#027320:0000000000000013
#028360:53
#028320:0023000000000000
#0283b0:0000001300230000
#028370:0053
#029320:0013000000000000
#029360:00230000
#0293b1:00130000
#029371:0000002300000000
#029361:0000000000133300
#029321:0000000000000023
#0293b0:00000013
#029370:0000000000000023
#030370:0013000000000000
#0303b0:00230000
#030361:00130000
#030321:0000002300000000
#0303b1:0000000000133300
#030371:0000000000000023
#030360:00000013
#030320:0000000000000023
#031370:0013002300000000
#0313b0:00330000
#031361:00132300
#031321:0000003300000000
#0313b0:00001323
#031370:0000000000330000
#031321:0000000000130023
#031361:00000033
#0313b0:0000000000000013
#032370:53
#0323b0:0023000000000000
#0333b0:0000001323000000
#0333b0:0000000000000013
#034370:23
#035320:0000000000000013
#036360:53
#036320:0023000000000000
#037320:0000001323000000
#037320:0000000000000013
#038360:23
#041360:13
#041320:00230000
#0413b0:0013
#041370:0000000000230000
#042370:13
#0423b0:00230000
#042320:0013
#042360:0000000000230000
#043350:13000023000000000000000000000000
#043320:00000000000000001300002300000000
#044350:13000023000000000000000000000000
#044320:00000000000000001300002300000000
#045320:13
#045360:00230000
#045370:0013
#0453b0:00000023
#046360:13
#046320:00000023000000000000000000000000
#0463b1:13
#046371:00000023000000000000000000000000
#046321:00001323
#046361:0000000000530000
#046370:00001323
#0463b0:0000000000530000
#0473b0:13
#047380:00000023000000000000000000000000
#047351:00000013000000000000000000000000
#047321:0000002300000000
#047381:0013
#0473b1:00000000000000000000002300000000
#047320:00000000000000000000001300000000
#047350:0000000000000023
#049320:13
#049360:00230000
#049360:0013
#049320:0000000000230000
#0503b0:13
#050370:00230000
#050370:0013
#0503b0:0000000000230000
#0513b0:13000023000000000000000000000000
#051380:00000000000000001300002300000000
#0523b0:13000023000000000000000000000000
#052380:00000000000000001300002300000000
#0533b0:13
#053370:00230000
#053360:0013
#053320:00000023
#054370:13230000
#0543b0:0053000000000000
#054360:00001323
#054320:0000000000530000
#0553b0:13230000
#055370:0053000000000000
#055321:13230000
#055361:000000000000000000000000000000000000000000000000000000000000000000000000000000000000000000000000000000000000000000000000000000000000000000000000000000000000000000000000000000000000000000000000000000000000000000000000000000000000000000000000000000000000000000000000000000000000000000000000000000000000000000000000000000000000000000000000000000000000000000000000000000000000000000000000000000000000000000000000000000000000000000000000000000000000000000000000000000000000000000000000005300000000000000000000000000000000000000000000000000000000000000000000000000000000000000000000000000000000000000000000000000000000000000000000000000000000000000000000000000000000000000000000000000000000000000000000000000000000000000000000000000000000000000000000000000000000000000000000000000000000000000000000000000000000000000000000000000000000000000000000000000000000000000000000000000000000000000000000000000000000000000000000000000000000000000000000000000000000000000000000000000000000000000000000000000000000000000000000000000000000000000000000000000000000000000000000000000000000000000000000000000000000000000000000000000000000000000000000000000000000000000000000000000000000000000000000000000000000000000000000000000000000000000000000000000000000000000000000000000000000000000000000000000000000000000000000000000000000000000000000000000000000000000000000000000000000000000000000000000000000000000000000000000000000000000000000000000000000000000000000000000000000000000000000000000000000000000000000000000000000000000000000000000000000000000000000000000000000000000000000000000000000000000000000000000000000000000000000000000000000000000000000000000000000000000000000000000000000000000000000000000000000000000000000000000000000000000000000000000000000000000000000000000000000000000000000000000000000000000000000000000000000000000000000000000000000000000000000000000000000000000000000000000000000000000000000000000000000000000000000000000000000000000000000000000000000000000000000000000000000000000000000000000000000000000000000000000000000000000000000000000000000000000000000000000000000000000000000000000000000000000000000000000000000000000000000000000000000000000000000000000000000000000000000000000000000000000000000000000000000000000000000000000000000000000000000000000000000000000000000000000000000000000000000000000000000000000000000000000000000000000000000000000000000000000000000000000000000000000000000000000000000000000000000000000000000000000000000000000000000000000000000000000000000000000000000000000000000000000000000000000000000000000000000000000000000000000000000000000000000000000000000000000000000000000000000000000000000000000000000000000000000000000000000000000000000000000000000000000000000000000000000000000000000000000000000000000000000000000000000000000000000000000000000000000000000000000000000000000000000000000000000000000000000000000000000000000000000000000000000000000000000000000000000000000000000000000000000000000000000000000000000000000000000000000000000000000000000000000000000000000000000000000000000000000000000000000000000000000000000000000000000000000000000000000000000000000000000000000000000000000000000000000000000000000000000000000000000000000000000000000000000000000000000000000000000000000000000000000000000000000000000000000000000000000000000000000000000000000000000000000000000000000000000000000000000000000000000000000000000000000000000000000000000000000000000000000000000000000000000000000000000000000000000000000000000000000000000000000000000000000000000000000000000000000000000000000000000000000000000000000000000000000000000000000000000000000000000000000000000000000000000000000000000000000000000000000000000000000000000000000000000000000000000000000000000000000000000000000000000000000000000000000000000000000000000000000000000000000000000000000000000000000000000000000000000000000000000000000000000
#0563b1:13000053000053000053000000530000
#056371:000000000000000000000000000000000000000000000000000000000000000000000000000000000000000000000000000000000000000000000000000000000000000000000000000000000000000000000000000000000000000000000000000000000000000000000000000000000000000000000000530000000000000000000000000000000000000000000000000000000000000000000000000000000000000000000000000000000000000000000000000000000000000000000000000000000000000000000000000000000000000000000000000000000000000000000000000000000000000000000000530000000000000000000000000000000000000000000000000000000000000000000000000000000000000000000000000000000000000000000000000000000000000000000000000000000000000000000000000000000000000000000000000000000000000000000000000000000000000000000000000000000000000000000000000000000000000000000000000000000000000000000000000000000000000000000000000000000000000000000000000000000000000000000000000000000000000000000000000000000000000000000000000000000000000000000000000000000000000000000000000000000000000000000000000000000000000000000000000000000000000000000000000000000000000000000000000000000000000000000000000000000000000000000000000000000000000000000000000000000000000000000000000000000000000000000000000000000000000000000000000000000000000000000000000000000000000000000000000000000000000000000000000000000000000000000000000000000000000000000000000000000000000000000000000000000000000000000000000000000000000000000000000000000000000000000000000000000000000000000000000000000000000000000000000000000000000000000000000000000000000000000000000000000000000000000000000000000000000000000000000000000000000000000000000000000000000000000000000000000000000000000000000000000000000000000000000000000000000000000000530000000000000000000000000000000000000000000000000000000000000000000000000000000000000000000000000000000000000000000000000000000000000000000000000000000000000000000000000000000000000000000000000000000000000000000000000000000000000000000000530000000000000000000000000000000000000000000000000000000000000000000000000000000000000000000000000000000000000000000000000000000000000000000000000000000000000000000000000000000000000000000000000000000000000000000000000000000000000000000000000000000000000000000000000000000000000000000000000000000000000000000000000000000000000000000000000000000000000000000000000000000000000000000000000000000000000000000000000000000000000000000000000000000000000000000000000000000000000000000000000000000000000000000000000000000000000000000000000000000000000000000000000000000000000000000000000000000000000000000000000000000000000000000000000000000000000000000000000000000000000000000000000000000000000000000000000000000000000000000000000000000000000000000000000000000000000000000000000000000000000000000000000000000000000000000000000000000000000000000000000000000000000000000000000000000000000000000000000000000000000000000000000000000000000000000000000000000000000000000000000000000000000000000000000000000000000000000000000000000000000000000000000000000000000000000000000000000000000000000000000000000000000000000000000000000000000000000000000000000000000000000000000000000000000000000000000000000000000000000000000000000000000000000000000000000000000000000000000000000000000000000000000000000000000000000000000000000000000000000000000000000000000000000000000000000000000000000000000000000000000000000000000000000000000000000000000000000000000000000000005300000000000000000000000000000000000000000000000000000000000000000000000000000000000000000000000000000000000000000000000000000000000000000000000000000000000000000000000000000000000000000000000000000000000000000000000000000000000000000000330000000000000000000000000000000000000000000000000000000000000000000000000000000000000000000000000000000000000000000000000000000000000000000000000000000000000000000000000000000000000000000000000000000000000000000000000000000000000000000000
#0573b1:23
#056320:13000053000053000053000053530000
#056360:000000000000000000000000000000000000000000000000000000000000000000000000000000000000000000000000000000000000000000000000000000000000000000000000000000000000000000000000000000000000000000000000000000000000000000000000000000000000000000000000000000000000000000000000000000000000000000000000000000000000000000000000000000000000000000000000000000000000000000000000000000000000000000000000000000000000000000000000000000000000000000000000000000000000000000000000000000000000000000000000000000000000000000000000000000000000000000000000000000000000000000000000000000000000000000000000000000000000000000000000000000000000000000000000000000000000000000000000000000000000000000000000000000000000000000000000000000000000000000000000000000000000000000000000000000000000000000000000000000000000000000000000000000000000000000000000000000000000000000000000000000000000000000000000000000000000000000000000000000000000000000000000000000000000000000000000000000000000000000000000530000000000000000000000000000000000000000000000000000000000000000000000000000000000000000000000000000000000000000000000000000000000000000000000000000000000000000000000000000000000000000000000000000000000000000000000000000000000000000000000530000000000000000000000000000000000000000000000000000000000000000000000000000000000000000000000000000000000000000000000000000000000000000000000000000000000000000000000000000000000000000000000000000000000000000000000000000000000000000000000000000000000000000000000000000000000000000000000000000000000000000000000000000000000000000000000000000000000000000000000000000000000000000000000000000000000000000000000000000000000000000000000000000000000000000000000000000000000000000000000000000000000000000000000000000000000000000000000000000000000000000000000000000000000000000000000000000000000000000000000000000000000000000000000000000000000000000000000000000000000000000000000000000000000000000000000000000000000000000000000000000000000000000000000000000000000000000000000000000000000000000000000000000000000000000000000000000000000000000000000000000000000000000000000000000000000000000000000000000000000000000000000000000000000000000000000000000000000000000000000000000000000000000000000000000000000000000000000000000000000000000000000000000000000000000000000000000000000000000000000000000000000000000000000000000000000000000000000000000000000000000000000000000000000000000000000000000000000000000000000530000000000000000000000000000000000000000000000000000000000000000000000000000000000000000000000000000000000000000000000000000000000000000000000000000000000000000000000000000000000000000000000000000000000000000000000000000000000000000000000530000000000000000000000000000000000000000000000000000000000000000000000000000000000000000000000000000000000000000000000000000000000000000000000000000000000000000000000000000000000000000000000000000000000000000000000000000000000000000000000000000000000000000000000000000000000000000000000000000000000000000000000000000000000000000000000000000000000000000000000000000000000000000000000000000000000000000000000000000000000000000000000000000000000000000000000000000000000000000000000000000000000000000000000000000000000000000000000000000000000000000000000000000000000000000000000000000000000000000000000000000000000000000000000000000000000000000000000000000000000000000000000000000000000000000000000000000000000000000000000330000000000000000000000000000000000000000000000000000000000000000000000000000000000000000000000000000000000000000000000000000000000000000000000000000000000000000000000000000000000000000000000000000000000000000000000000000000000000000000053000000000000000000000000000000000000000000000000000000000000000000000000000000000000000000000000000000000000000000000000000000000000000000000000000000000000000000000000000000000000000000000000000000000000000000000000000000000000000000000000
#057320:23
#0573b0:0000132300000000
#057321:0000001323000000
#057381:00000000000000000013002300000000
#058351:13
#058321:0023000000000000
#058381:00130000
#0583b1:0000002300000000
#058351:0013
#058321:00000000000000000000002300000000
#0583b1:0000000000001323
#0593b1:1300002300000000
#059371:00000033000000000000000000000000
#059320:00000013230000000000000000000000
#059351:00000000000000001300002300000000
#059380:00000000000000000000001323000000
#0603b0:13330000
#060370:0033002300000000
#060321:0000001300230000
#060361:0053
#060370:0000000000130023
#0603b0:00000053
#061320:0000132300000000
#0613b1:0000001323000000
#061351:00000000000000000013002300000000
#062381:13
#0623b1:0023000000000000
#062351:00130000
#062321:0000002300000000
#062381:0013
#0623b1:00000000000000000000002300000000
#062321:0000000000001323
#063321:1300002300000000
#063361:00000033000000000000000000000000
#0633b0:00000013230000000000000000000000
#063381:00000000000000001300002300000000
#063350:00000000000000000000001323000000
#064320:13330000
#064360:0033002300000000
#0653c0:12
#065380:0000002200000000
#065360:00001222
#066320:12
#066360:0000002200000000
#066380:00001222
#067360:12000022000000000000000000000000
#067381:00000012000022000000000000000000
#067381:00000000000000001200002200000000
#067360:00000000000000000000001200002200
#068340:12000022000000000000000000000000
#068381:00000012000022000000000000000000
#0683a1:00000000000000001200002200000000
#068381:0000000000001222
#069321:13230000
#069371:0000000013000023
#0693b1:00000000000000000000005300000000
#069320:00001323
#070321:13
#070361:00000023000000000000000000000000
#0703b0:13230000
#070360:0013
#070320:00000000000000000000002300000000
#0703b1:00001323
#071321:13230000
#071370:0000132300000000
#0713b0:00001323
#071361:0000000000001323
#073321:14240000
#073361:0054000000000000
#0743a1:14240000
#074361:0054000000000000
#0763a1:14
#076361:00000024000000000000000000000000
#0763a1:0000142400000000
#076320:0000001424000000
#076361:0014
#0763a1:00000000000000000000002400000000
#076361:00000014
#076321:0000000000000054
#077361:24
#0773a0:14240000
#077360:0054000000000000
#077320:00001424
#077360:0000000000540000
#078360:14240000
#078320:0054000000000000
#078360:00001424
#0783a0:0000000000540000
#079320:14240000
#079360:0054000000000000
#0793a1:14240000
#079361:000000000000000000000000000000000000000000000000000000000000000000000000000000000000000000000000000000000000000000000000000000000000000000000000000000000000000000000000000000000000000000000000000000000000000000000000000000000000000000000000000000000000000000000000000000000000000000000000000000000000000000000000000000000000000000000000000000000000000000000000000000000000000000000000000000000000000000000000000000000000000000000000000000000000000000000000000000000000000000000054000000000000000000000000000000000000000000000000000000000000000000000000000000000000000000000000000000000000000000000000000000000000000000000000000000000000000000000000000000000000000000000000000000000000000000000000000000000000000000000000000000000000000000000000000000000000000000000000000000000000000000000000000000000000000000000000000000000000000000000000000000000000000000000000000000000000000000000000000000000000000000000000000000000000000000000000000000000000000000000000000000000000000000000000000000000000000000000000000000000000000000000000000000000000000000000000000000000000000000000000000000000000000000000000000000000000000000000000000000000000000000000000000000000000000000000000000000000000000000000000000000000000000000000000000000000000000000000000000000000000000000000000000000000000000000000000000000000000000000000000000000000000000000000000000000000000000000000000000000000000000000000000000000000000000000000000000000000000000000000000000000000000000000000000000000000000000000000000000000000000000000000000000000000000000000000000000000000000000000000000000000000000000000000000000000000000000000000000000000000000000000000000000000000000000000000000000000000000000000000000000000000000000000000000000000000000000000000000000000000000000000000000000000000000000000000000000000000000000000000000000000000000000000000000000000000000000000000000000000000000000000000000000000000000000000000000000000000000000000000000000000000000000000000000000000000000000000000000000000000000000000000000000000000000000000000000000000000000000000000000000000000000000000000000000000000000000000000000000000000000000000000000000000000000000000000000000000000000000000000000000000000000000000000000000000000000000000000000000000000000000000000000000000000000000000000000000000000000000000000000000000000000000000000000000000000000000000000000000000000000000000000000000000000000000000000000000000000000000000000000000000000000000000000000000000000000000000000000000000000000000000000000000000000000000000000000000000000000000000000000000000000000000000000000000000000000000000000000000000000000000000000000000000000000000000000000000000000000000000000000000000000000000000000000000000000000000000000000000000000000000000000000000000000000000000000000000000000000000000000000000000000000000000000000000000000000000000000000000000000000000000000000000000000000000000000000000000000000000000000000000000000000000000000000000000000000000000000000000000000000000000000000000000000000000000000000000000000000000000000000000000000000000000000000000000000000000000000000000000000000000000000000000000000000000000000000000000000000000000000000000000000000000000000000000000000000000000000000000000000000000000000000000000000000000000000000000000000000000000000000000000000000000000000000000000000000000000000000000000000000000000000000000000000000000000000000000000000000000000000000000000000000000000000000000000000000000000000000000000000000000000000000000000000000000000000000000000000000000000000000000000000000000000000000000000000000000000000000000000000000000000000000000000000000000000000000000000000000000000000000000000000000000000000000000000000000000000000000000000000000000000000000000000000000000000000000000000000000000000000000000000000000000000000000000000000000000000000000000000000000000000000000000000000000000000000000000000000000000000000000
#080321:14000054000054000054000000540000
#080361:00545400000000545400000000005454
#081321:24
#0803a0:14000054000054000054000054540000
#080360:000000000000000000000000000000000000000000000000000000000000000000000000000000000000000000000000000000000000000000000000000000000000000000000000000000000000000000000000000000000000000000000000000000000000000000000000000000000000000000000000000000000000000000000000000000000000000000000000000000000000000000000000000000000000000000000000000000000000000000000000000000000000000000000000000000000000000000000000000000000000000000000000000000000000000000000000000000000000000000000000000000000000000000000000000000000000000000000000000000000000000000000000000000000000000000000000000000000000000000000000000000000000000000000000000000000000000000000000000000000000000000000000000000000000000000000000000000000000000000000000000000000000000000000000000000000000000000000000000000000000000000000000000000000000000000000000000000000000000000000000000000000000000000000000000000000000000000000000000000000000000000000000000000000000000000000000000000000000000000000000540000000000000000000000000000000000000000000000000000000000000000000000000000000000000000000000000000000000000000000000000000000000000000000000000000000000000000000000000000000000000000000000000000000000000000000000000000000000000000000000540000000000000000000000000000000000000000000000000000000000000000000000000000000000000000000000000000000000000000000000000000000000000000000000000000000000000000000000000000000000000000000000000000000000000000000000000000000000000000000000000000000000000000000000000000000000000000000000000000000000000000000000000000000000000000000000000000000000000000000000000000000000000000000000000000000000000000000000000000000000000000000000000000000000000000000000000000000000000000000000000000000000000000000000000000000000000000000000000000000000000000000000000000000000000000000000000000000000000000000000000000000000000000000000000000000000000000000000000000000000000000000000000000000000000000000000000000000000000000000000000000000000000000000000000000000000000000000000000000000000000000000000000000000000000000000000000000000000000000000000000000000000000000000000000000000000000000000000000000000000000000000000000000000000000000000000000000000000000000000000000000000000000000000000000000000000000000000000000000000000000000000000000000000000000000000000000000000000000000000000000000000000000000000000000000000000000000000000000000000000000000000000000000000000000000000000000000000000000000000000540000000000000000000000000000000000000000000000000000000000000000000000000000000000000000000000000000000000000000000000000000000000000000000000000000000000000000000000000000000000000000000000000000000000000000000000000000000000000000000000540000000000000000000000000000000000000000000000000000000000000000000000000000000000000000000000000000000000000000000000000000000000000000000000000000000000000000000000000000000000000000000000000000000000000000000000000000000000000000000000000000000000000000000000000000000000000000000000000000000000000000000000000000000000000000000000000000000000000000000000000000000000000000000000000000000000000000000000000000000000000000000000000000000000000000000000000000000000000000000000000000000000000000000000000000000000000000000000000000000000000000000000000000000000000000000000000000000000000000000000000000000000000000000000000000000000000000000000000000000000000000000000000000000000000000000000000000000000000000000054000000000000000000000000000000000000000000000000000000000000000000000000000000000000000000000000000000000000000000000000000000000000000000000000000000000000000000000000000000000000000000000000000000000000000000000000000000000000000000000054000000000000000000000000000000000000000000000000000000000000000000000000000000000000000000000000000000000000000000000000000000000000000000000000000000000000000000000000000000000000000000000000000000000000000000000000000000000000000000000000
#0813a0:24
#081320:0000132300000000
#0813b0:00000000000000000013002300000000
#081320:0000000000001323
#082360:00000000000000001300002300000000
#082320:0000000000000000000000000000000000000053000000000000000000000000
#082320:0000000000001323
#083370:13000023000000000000000000000000
#0833b0:0000005300000000000000000000000000000000000000000000000000000000
#083321:00000013230000000000000000000000
#083370:00130000
#0833b0:0000002300000000
#083361:0000001300000000
#083321:0023
#083370:00000000000000001323000000000000
#083321:00000000000000000013000000000000
#083361:00000000000000000000002300000000
#0833b0:00000000000000000000001323000000
#083361:00000013
#083321:0000000000000023
#084371:0000001300000000
#0843b1:00000000000000530000230000000000
#084360:0000000000130000
#084320:00000000000000000000005300002300
#0853b0:0000132300000000
#085320:00000000000000000013002300000000
#0853b0:0000000000001323
#086370:00000000000000001300002300000000
#0863b0:0000000000000000000000000000000000000053000000000000000000000000
#0863b0:0000000000001323
#087360:13000023000000000000000000000000
#087320:0000005300000000000000000000000000000000000000000000000000000000
#0873b1:00000013230000000000000000000000
#087360:00130000
#087320:0000002300000000
#087371:0000001300000000
#0873b1:0023
#087360:00000000000000001323000000000000
#0873b1:00000000000000000013000000000000
#087371:00000000000000000000002300000000
#087320:00000000000000000000001323000000
#087371:00000013
#0873b1:0000000000000023
