This file was generated by Ched 2.6.4.0.
#TITLE ""
#ARTIST ""
#DESIGNER ""
#DIFFICULTY 0
#PLAYLEVEL
#SONGID ""
#WAVE ""
#WAVEOFFSET 0
#JACKET ""
#REQUEST "ticks_per_beat 480"
#00002: 4
#BPM01: 138
#00008: 01
#TIL00: ""
#HISPEED 00
#MEASUREHS 00
#00214:1414
#00118:2414
#07616:00000014
#07618:14
#07614:00140000
#0761a:0014
#0031a:1414
#00412:1414
#00912:00140014
#00918:2414
#00910:41
#01114:00140014
#0111a:1414
#01312:00140000
#0131a:0014
#01314:00000014
#01318:24
#01514:00140000
#01518:0014
#01512:00000014
#0151a:14
#01618:14140000
#01614:0014001400000000
#01814:1414
#0181a:00140000
#0201a:1414
#02014:00140000
#01912:00140014
#01918:1414
#0171a:2414
#01714:00140000
#02218:1414
#02212:00140000
#02412:1414
#02418:00140000
#0231a:00140014
#02314:1414
#02112:1414
#02118:00140000
#02110:41
#02614:0014
#02618:00140000
#02612:14
#0281a:0014
#02814:00140000
#02818:14
#02712:00000014
#02718:0014
#02714:00140000
#0271a:14
#02518:0014
#02514:00140000
#0251a:24
#02912:14
#02914:0014
#02918:00140000
#03018:0014
#03014:00140000
#0301a:14
#03212:0014
#03218:00140000
#03214:14
#03210:41
#0311a:00000014
#03114:0014
#03118:00140000
#03112:14
#0351a:00000014
#0351a:00000014
#04118:00140000
#0411a:24
#04112:24
#04110:41
#04214:00140000
#04212:24
#0421a:24
#04312:14
#0431a:00140000
#04314:0014
#04318:00000014
#04412:14
#0441a:00140000
#04414:0014
#04418:00000014
#04612:00000034140034000000000000000000
#04614:14
#0471a:1414
#04712:00140014
#04818:1414
#04814:00140000
#04918:00140000
#0491a:24
#04912:24
#05014:00140000
#05012:24
#0501a:24
#05114:14
#05118:00140000
#05112:0014
#0511a:00000014
#05214:14
#05218:00140000
#05212:0014
#0521a:00000014
#05414:0000143400000000
#05412:14
#05518:14001414
#05514:0000140000140014
#0571a:00140014
#05714:2414
#05710:41
#05918:00140014
#05912:1414
#0611a:00140000
#06112:0014
#06118:00000014
#06114:24
#06318:00140000
#06314:0014
#0631a:00000014
#06312:14
#06412:1416
#06418:00140016
#06915:13
#06918:0013
#07015:13
#07018:0013
#07114:14
#07118:0014
#07314:00140000
#07318:2614
#0731f:21
#07418:00140000
#07414:0014
#07412:26
#07410:41
#07814:14
#07812:0000143400000000
#0791a:1414
#07912:0000140000000014
#07914:0000000000140000
#07918:00000014
#0811a:00140000
#08114:0014
#08118:00000014
#08112:24
#08318:00140000
#08312:0014
#0831a:00000014
#08314:14
#0851a:00140000
#08516:0014
#08512:24000014
#08712:00140000
#08716:0014
#0871a:14000014
#08812:16160000
#08818:0016001600000000
#08212:14
#08218:0014
#08412:14
#0841a:0014
#0861a:14
#08614:0014
#03318:00000014
#03414:00000014
#03612:00000014
#0371a:14000014
#03717:00140000
#03812:14000014
#03815:00140000
#04014:14140000
#04018:0014000000000000
#0651f:11
#0751a:24
#07514:00240000
#07518:0024
#07512:00000024
#00158:14
#07358:1654
#0735a:00000014
#00958:14
#01358:14
#04654:64
#04652:00240000
#04858:0014
#05454:00240000
#05452:54
#05754:14
#06154:14
#07454:0064
#07452:16000014
#07854:64
#07852:00240000
#08152:14
#08552:14
#08252:54
#08258:0054
#08452:54
#0845a:0064
#0865a:64
#08654:0064
#0375a:64
#03757:00240000
#03852:54
#03855:00240000
#005380:1424
#006340:1424
#0073a0:1424
#008320:1424
#0103a0:14240000
#010340:00001424
#012380:14240000
#012320:00001424
#014380:14240000
#014340:00001424
#0333a0:14
#033390:00340000
#033380:0024
#034320:14
#034330:00340000
#034340:0024
#035380:14
#035390:00340000
#0353a0:0024
#036340:14
#036330:00340000
#036320:0024
#0373a0:1424
#037370:00340000
#038320:1424
#038350:00340000
#0393a0:14
#039360:00000024
#041340:00001424
#042380:00001424
#045340:14240000
#0453a0:00001424
#046340:14003424
#046320:00000034540034000000000000000000
#049340:0014
#049320:00000024
#050380:0014
#0503a0:00000024
#053340:14240000
#053380:00001424
#054320:14003424
#054340:0000543400000000
#056380:1424
#058320:14240000
#058380:00001424
#060340:14240000
#0603a0:00001424
#062340:14240000
#062380:00001424
#065350:1323
#066380:1323
#067320:1323
#0683b0:1323
#072320:14000034000034002400000000000000
#0723a1:14000034000034002400000000000000
#073381:0014
#0733a1:00000024
#074341:0014
#074321:00000024
#077321:14240000
#077381:00001424
#078341:14003424
#078321:0000543400000000
#080381:1424
#082321:14
#082341:00240000
#082381:0014
#0823a1:00000024
#084321:14
#084341:00240000
#0843a1:0014
#084381:00000024
#0863a1:14
#086381:00240000
#086341:0014
#086321:00000024
