This file was generated by Ched 2.6.4.0.
#TITLE ""
#ARTIST ""
#DESIGNER ""
#DIFFICULTY 0
#PLAYLEVEL
#SONGID ""
#WAVE ""
#WAVEOFFSET 0
#JACKET ""
#REQUEST "ticks_per_beat 480"
#00002: 4
#BPM01: 115
#00008: 01
#TIL00: ""
#HISPEED 00
#MEASUREHS 00
#00218:00140000
#01118:00140000
#01214:14000014
#0131a:0014
#01310:0041
#01412:00140000
#0151a:14
#01512:00000014
#0161a:0014
#0171a:00140000
#01812:14000014
#01918:0014
#02014:00140000
#02118:14
#02114:00000014
#02110:41
#02412:14
#0241a:00000014
#0271a:14
#02712:00000014
#02818:0014
#02914:00140000
#03018:2600001600000000
#03012:00000016
#0301f:21
#03010:00000041
#03112:0016000000000000
#03118:0000000016000016
#03412:0016000000000000
#03312:0000001600000000
#03318:26000016
#03618:14000014
#03614:0000001400000000
#03714:0014000000000000
#0371a:0014
#03712:0000000000000014
#0381a:00140000
#03812:0000000000140000
#03810:00410000
#05618:00140000
#05712:14
#0571a:00000014
#05814:0014
#0221f:0011
#04012:0014
#04114:14
#04118:0014
#0481a:14
#04814:00000014
#04810:41
#04918:0014
#05012:00140000
#0511a:14
#05112:00000014
#0521a:0014
#05318:14
#05314:0014
#04218:26
#05412:26
#00310:41
#003340:14
#005340:00240000
#0063a0:14000024
#007320:0014
#008320:00240000
#009380:14
#010380:0024
#022380:0014
#023380:00240000
#025340:0014
#026340:00240000
#032320:0000160000260000
#034380:0000000016000026
#035320:0000160000260000
#0393a0:14000024
#042380:16
#044380:00260000
#045320:14
#047320:00240000
#054320:16
#055320:0026
#0593a0:00140000
#059390:0000000000350000
#060380:36
#0613a0:00240000
