This file was generated by Ched 2.6.4.0.
#TITLE ""
#ARTIST ""
#DESIGNER ""
#DIFFICULTY 0
#PLAYLEVEL
#SONGID ""
#WAVE ""
#WAVEOFFSET 0
#JACKET ""
#REQUEST "ticks_per_beat 480"
#00002: 4
#BPM01: 115
#00008: 01
#TIL00: ""
#HISPEED 00
#MEASUREHS 00
#00216:000000000012000000000000000000000012000000120000
#00218:000000000000120000120000120000220000120012000000
#0051b:000000131300000000000000
#00512:000000000000133333333333000000000000000000001300000000000000000000000000000000001300000000000000
#00515:000000000000000000000000000013000000000000000013
#00518:0000000000131300
#01012:0012
#01018:0000000000120000
#01014:00000012
#0101a:130013001300130013001300000000000000000000120000
#01019:001300000013000000130000000000000000000000000000
#0101b:000000130000001300000013000000000000000000000000
#01116:1200001200000012
#01118:0012000000001200
#01114:0000120000120000
#0111a:0012
#0111c:00120000
#01214:12000012
#01216:0012000012000000
#01218:0000120000120000
#0121a:1200001200000000
#01318:000000000000000000000000000000130000000000000013
#01315:000000000000001300130000
#01312:0000000000000013
#0131b:0000000023000013
#01310:0041
#01412:0000130000130000
#01415:0000001300000000
#01418:000013130000
#0141b:0013130000130000
#01417:0000000000000013
#01419:00000013
#01416:000000000000000000000000000000000013000000000000
#01414:000000000013
#0151b:1300001300001300
#01512:130000000000000000130000000000000013000000000000
#01515:000000130000130000000000000000000000000013000000
#01518:0000000013130000
#01615:13
#01612:0013000012000000
#01616:0000000000120000
#01618:000000000000003232323232000000000000120000000000
#01614:0000000000000012
#0161a:000000000032000000000000000000000000000000120000
#0161b:003200000000
#01619:00320000
#01716:0012120012001200
#0171c:00120000
#01718:1200001200000012
#01714:0000000000120000
#0171a:0000000000120000
#01818:12122200
#01812:12
#01814:0000001200002200
#01816:0012000000220000
#0181a:0000002200000000
#05715:000000000000001300000000
#05718:0000000013130000
#0571b:2323232300000000
#05712:0000000000002323
#05818:001300
#05815:0000131300000000
#05812:230000230000000000000013000000000000000000000000
#0581b:0013
#05816:0000000000121200
#0581a:0000000000000022
#05916:001200000000
#05918:000000120012000000000000000000160000000000000000
#0591a:0012
#05912:00160012
#05914:12
#0591c:0000001200000000
#02219:0000000000130000
#0221b:0000001300001300
#02216:1300000000001324
#02212:0016000023000000
#0221f:0011
#02217:0023
#0221a:343434000000000000000000000000000000000000000000
#02312:13
#02314:0013000000000000
#02316:0000130000000013
#02317:13000000000000130000000000000000
#0231b:00130000
#02315:0000000000260000
#02417:00130000
#02412:0000001300000000
#02416:1300002400130000
#0241b:13
#02512:0000001300001300
#0251b:0013
#02516:0024000013000000
#02514:0000000000130000
#02517:00000013
#02515:0000000000000026
#02616:13000000000000130000000000000000
#0261b:13
#02619:0013000000000000
#02617:00130000
#02612:00130000
#02615:0000000000290013
#02717:1300000000130000
#0271b:0000001300001300
#02716:0000001300000013
#02719:0013
#02712:13
#02715:0013000000000000
#02718:00130000
#02816:1300000000130000
#02812:0013000000000000
#02817:00130000
#0281b:0000000000130000
#0291b:00130000
#02916:00130000
#02912:13000000000000130000000000000000
#02917:13000000000000130000000000000000
#02918:000000000000000000000000000000000013000000130000
#02915:000000000000000000131300
#0321b:0000130000000013
#03219:0000001300000000
#03217:0000000013130000
#03214:00000013
#03216:0000130000000013
#03212:0013000013130000
#03412:0023000013000000
#03414:0000000000130000
#03416:1300001300001313
#03417:0013000013000000
#0341b:1300000000001313
#03512:00130000
#03517:00130000
#03515:00000013
#03518:0000000000000013
#0361b:1300000000130000
#03612:00000013
#03712:0000001300000000
#03717:0013
#0061b:0000001300000000
#00618:1300000000000013
#00615:0013130013001300
#00612:0000001300130000
#00919:001300000013000000130000001300000013000000130000
#0091a:131313131313131313131313
#0091b:000000130000001300000013000000130000001300000013
#03817:0013000000130013
#03816:00131300
#03812:0000001300000000
#0381b:00000013
#03810:00410000
#0391b:00000013
#03916:00000013
#03917:23
#03912:23
#00712:0013000000130000
#00718:13130000
#0071b:0013001300000000
#00715:00000013
#0081b:1300000000000013
#00818:0013000000000000
#00812:0000001300000000
#00815:0013
#06018:00000000000000000000000000000000000000000000000000000000000000000000000000000000000000000000001400000000000000000000000000000000
#0041b:000000000000000000000000000000000000000000000000000000000000000000133333333333333333000000000000
#00417:0013000000000000
#00317:0000001300000000
#0031b:23000013
#00310:41
#0511b:13000013
#05117:000033003300330033003300330033003300000000000000000000000000000000000000000033003300330033133300
#05112:0000001300000000
#05116:000000000000000000003333333333333333000000000000
#05212:0013000000000000
#05216:000000000000000033003300330033133300330033003300000000000000000000000000000000000000000000000000
#0521c:0022
#05217:333333000000000000000000000000000000000000000000
#05612:130000000000130000000000230000000013000000000000
#05618:000013000000000000000013000000000000130013000000
#05615:000000130000000013000000000000130000001300130000
#0561b:000000000000130000130000000013000000000000000000
#05518:0000000000000013
#0551b:00000013
#05515:000000000000000000000000000000130000000013000000
#01916:0014000000000000
#0191b:000000000000000000000013000000000000000000130000
#01915:000000000000000000000000000000130000000000000013
#01918:000000000000001300130000
#01912:0000000023000013
#02112:130000000000000000000000003333333333000000000000
#02114:000000130000000000000033000000000000000000130000
#02116:00130014
#02119:000033000000000000000000130000000000000000340000
#02117:000000000000000000000000000000130000003400000000
#0211a:000000330000000000000000000000000000000000003434
#02118:003300000000000000000000000000000000000034000000
#02113:0033
#02115:000000000033000000000000
#0211b:000000003333333333000000000000000000000000000000
#02110:41
#03012:0000130000132300
#03017:0013130000001300
#03016:1300000000000013
#0301b:2300001300000000
#0301f:21
#03010:00000041
#0311b:1300001323000013
#03116:1313
#03112:0013000000001300
#03117:0000000000131300
#03317:1300130000130013
#0331b:0013000000002300
#03316:0013001300001300
#03312:2300130000000013
#04812:1300001300001300
#0481b:13000000000000000013000013000000
#04818:00001300000000130000130000000000
#04815:00000000130000001300001300001300
#04810:41
#04918:13000000130000130000000000000000
#04912:00000000001300001300130000000000
#0491b:00001300000000001300000000000013
#04917:00000013
#04916:0000000000000013
#04915:00000013000013000000000000000000
#05014:0013000000000000
#0501b:0000131300000013
#05012:00130000
#05016:1313
#05019:00130000000000000000000013000000
#05017:00000013000000000000130000000000
#0201b:0000130000130000
#02018:0000001300000000
#02015:000013130000
#02012:0013130000130000
#02016:0000000000000013
#02014:00000013
#02017:000000000000000000000000000000000013000000000000
#02019:000000000013
#04012:0022
#00118:0022
#00116:0000000000000022
#05958:0000000000660000
#05952:00560000
#02452:0000001300000000
#0245b:13
#02456:0000001400000000
#0275b:00000013
#02757:13
#02756:0000001300000000
#02852:0013000000000013
#02856:0013
#0285b:0013
#02857:0000000000000013
#0295b:00630000
#02956:00630000
#02952:00000000000000230000000000000000
#02957:00000000000000230000000000000000
#03257:0000000000130000
#03256:00130000
#03456:6300000000000023
#0345b:0000000000000023
#03457:0053000000000000
#03452:0013000000000000
#03552:00530000
#03557:00530000
#03556:0013
#0355b:0000000000130000
#0235b:00630000
#02357:00000000000000230000000000000000
#02355:0000000000160000
#02652:00530000
#02656:00000000000000230000000000000000
#02655:0000000000190000
#0065b:0000006300000000
#00658:53
#00655:00000063
#00959:002300000023000000230000002300000023000000230000
#0095a:636363636363636363636363
#0095b:000000230000002300000023000000230000002300000023
#01059:002300000023000000230000000000000000000000000000
#0105a:636363636363000000000000
#0105b:000000230000002300000023000000000000000000000000
#0395b:00000063
#03956:00000063
#00752:0053000000000000
#06058:00000000000000000000000000000000000000000000000000000000000000000000000000000000000000000000006400000000000000000000000000000000
#00552:0023000000000000
#00556:00430000
#0045b:00000000000000000000002300000000
#00457:0000000000000033
#0515b:63000063
#05157:00000000000000000000000000000023
#05152:0000005300000000
#05252:0053000000000000
#05256:00000000002300000000000000000000
#01956:0014000000000000
#02252:0066000000000000
#02256:0000000000000014
#03056:6300001300000000
#03052:00530013
#03057:00000053
#0305b:1300006300000000
#0315b:6300000013000063
#03152:0053000000005300
#03156:0000000063000013
#03157:0013000000000000
#03357:53530000
#0335b:0063001300001300
#03356:0000006300006300
#03352:1300000000000053
#02156:00000054
#04852:0000001300000000
#04956:0000000000000013
#0495b:0013000000000000
#05057:0000000000130000
#02556:0014000000000000
#02555:0000000000000016
#05752:0000001300000000
#0585b:0013000000000000
#003330:133333333333333333333333
#003320:003300330033003300330033003300330033003300330033
#004330:333333333300000000000000
#004320:003300330033003300230000000000000000000000000000
#0033b1:0013000000000000
#003371:00230000
#003371:0013
#0033b1:0000000000230000
#0033b1:0000000000000013
#004371:23
#004371:00130000
#0043b1:0000002300000000
#0043b1:000000000000000000000000000000000000000000000000133333333333333333333333333333333333000000000000
#004371:0000000000000023
#005321:133333333333333333333333000000000000000000000000000000000000000000000000000000000000000000000000
#005361:00230000
#006381:13000023
#0063b1:0000003300000000
#006350:00000013
#007320:0033000000000000
#007350:0023
#007381:0000000013003323
#0073b1:0000000000330000
#007350:0000000000000013
#008320:33
#008350:0033230000000000
#0083b1:0000130033230000
#008381:0000003300000000
#008320:0000000000130000
#008360:0000000000000023
#0093a0:135353535353535353535353
#009390:005300000053000000530000005300000053000000530000
#0093b0:000000530000005300000053000000530000005300000053
#0103a0:535353535353230000000000
#010390:005300000053000000530000000000000000000000000000
#0103b0:000000530000005300000053000000000000000000000000
#009331:133333333333333333000000
#009341:003300330033003300330033003300330033003400340034
#009321:000000000000000000343434
#010321:343400000000000000000000
#010341:003400340000000000240000000000000000000000000000
#0123a0:00000012
#0133a0:0022000000000000
#013351:0013230000000000
#013380:0000132300000000
#013321:0000001323000000
#014351:1323000000000000
#015381:0013230000000000
#015351:0000000013230000
#015381:0000000000000013
#016381:23
#0163c1:0012000000000000
#0163b1:003200000000
#0163a1:000000000032000000000000000000000000000000000000
#016391:00320000
#016381:000000000000003232323232220000000000000000000000
#0183a1:00000012
#0193a1:0022000000000000
#020381:1323000000000000
#021371:13
#021381:003300000000000000000000000000000000000000000000
#021391:003300000000000000000000
#0213a1:0033000000000000
#0213b1:000000003333333333230000000000000000000000000000
#021360:0000001300000000
#021350:000000000033000000000000
#021340:000000000000000000000033000000000000000000000000
#021330:0033
#021320:000000000000000000000000003333333333230000000000
#021361:00000014
#021371:000000000000000000000000000000000000003400000000
#021381:000000000034
#021391:0000000000000034
#0213a1:000000000000000000000000000000000000000000003434
#0223a1:343434240000000000000000000000000000000000000000
#022320:0016002200000000
#0233b0:0000130000230000
#023370:00000000000000530000000000000000
#0243b0:0000000000130000
#0243a0:00000023
#024351:00000013
#024341:0000000000000023
#024390:0000000000000013
#025380:23
#025331:13
#025321:0023000000000000
#026321:0000130000230000
#026361:00000000000000530000000000000000
#027321:0000000000130000
#027361:00000023
#0283b1:13
#028371:0023000000000000
#028321:0000001300000000
#028361:0023
#028370:0000001300000000
#0283b0:0023
#0283b0:00000013
#028370:0000000000000023
#028361:00000013
#028321:0000000000000023
#029321:00001300000000530000000000000000
#029361:0000330000230000
#029370:00001300000000530000000000000000
#0293b0:0000330000230000
#030360:1300002300000000
#030320:0033330000000000
#0303b1:0000001300000000
#030371:0000000000230000
#030371:00000013
#0303b1:0000000000000033
#0313b1:33
#031371:0023000000000000
#031320:0013000000000000
#031360:0000002300000000
#031360:0000000013000023
#031320:0000000000333300
#0313b1:0000000000000013
#032371:0023000000000000
#033371:13330000
#0333b1:0033002300000000
#033360:0000001300000000
#033320:0000000000230000
#033360:00000013
#033320:0000000000000033
#034360:33
#034320:0023000000000000
#034371:0013000000000000
#0343b1:0000002300000000
#034361:0000000000000013
#035321:0023000000000000
#0343b0:0000000000000013
#035370:0023000000000000
#035320:00130000
#035360:0023
#035371:00130000
#0353b1:0000000000230000
#036361:13230000
#036321:0033000000000000
#036370:0013002300000000
#0363b0:00330000
#036321:0000001300000000
#036361:0000000000230000
#036371:00000013
#0363b1:0000000000000033
#037371:23
#036360:0000000000000013
#037320:33
#037360:0023000000000000
#0373b1:0013000000000000
#037371:0000002300000000
#037321:00001323
#037361:0000000000330000
#0373b0:0000000000130023
#037370:00000033
#037361:0000000000000013
#038321:0023000000000000
#0383b1:00132300
#038371:0000003300000000
#038321:0000000000130023
#038361:00000033
#039371:13
#0393b1:00000033
#040371:0023000000000000
#039320:13
#039360:00000033
#040320:0023000000000000
#040320:000000000000000000000000000000000000000000000000000000000000000000000000000000000000000000000000000000000000000000000000000000000000000000000000000000000000000000000000000000000000000000000000000000000000000000000000000000000000000000000000000000000000000000000000000000000000000000000000000000000000000000000000000000000000000000000000000000000000000000000000000000000000000000000000000000000000000000000000000000000000000000000000000000000000000000000000000000000000000000000000000000000000000000000000000000000000000000000000000000000000000000000000000000000000000000000000000000000000000000000000000000000000000000000000000000000000000000000000000000000000000000000000000000000000000000000000000000000000000000000000000000000000000000000000000000000000000000000000000000000000000000000000000000000000000000000000000000000000000000000000000000000000000000000000000000000000000000000000000000000000000000000000000000000000000000000000000000000000000000000000000000000000000000000000000000000000000000000000000000000000000000000000000000000000000000000000000000000000000000000000000000000000000000000000000000000000000000000000000000000000000000000000000000000000000000000000000000000000000000000000000000000000000000000000000000000000000000000000000000000000000000000000000000000000000000000000000000000000000000000000000000000000000000000000000000000000000000000000000000000000000000000000000000000000000000000000000000000000000000000000000000000000000000000000000000000000000000000000000000000000000000000000000000000000000000000000000000000000000000000000000000000000000000000000000000000000000000000000000000000000000000000000000000000000000000000000000000000000000000000000000000000000000000000000000000000000000000000000000000000000000000000000000000000000000000000000000000000000000000000000000000000000000000000000000000000000000000000000000000000000000000000000000000000000000000000000000000000000000000000000120000000000000000000000000000000000000000000000000000000000000000000000000000000000000000000000000000000000000000000000000000000000000000000000000000000000000000000000000000000000000000000000000000000000000000000000000000000000000000000000000000000000000000000000000000000000000000000000000000000000000000000000000000000000000000000000000000000000000000000000000000000000000000000000000000000000000000000000000000000000000000000000000000000000000000000000000000000000000000000000000000000000000000000000000000000000000000000000000000000000000000000000000000000000000000000000000000000000000000000000000000000000000000000000000000000000000000000000000000000000000000000000000000000000000000000000000000000000000000000000000000000000000000000000000000000000000000000000000000000000000000000000000000000000000000000000000000000000000000000000000000000000000000000000000000000000000000000000000000000000000000000000000000000000000000000000000000000000000000000052340000000000000000000000000000000000000000000000000000000000000000000000000000000000000000000000000000000000000000000000000000000000000000000000000000000000000000000000000000000000000000000000000000000000000000000000000000000000000000000000000000000000000000000000000000000000000000000000000000000000000000000000000000000000000000000000000000000000000000000000000000000000000000000000000000000000000000000000000000000000000000000000000000000000000000000000000000000000000000000000000000000000000000000000000000000000000000000000000000000000000000000000000000000000000000000000000000000000000000000000000000000000000000000000000000000000000000000000000000000000000000000000000000000000000000000000000000000000000000000000000000000000000000000000000000000000000000000000000000000000000000000000000000000000000000000000000000000000000000000000000000000000000000000000000000000000000000000000000000000000000000000000000000000000000000000000000000000000000000000054
#041320:3600000000000000000000000000000000000000000000000000000000000000000000000000000000000000000000000000000000000000000000000000000000000000000000000000000000000000000000000000000000000000000000000000000000000000000000000000000000000000000000000000000000000000000000000000000000000000000000000000000000000000000000000000000000000000000000000000000000000000000000000000000000000000000000000000000000000000000000000000000000000000000000000000000000000000000000000000000000000000000000000000000000000000000000000000000000000000000000000000000000000000000000000000000000000000000000000000000000000000000000000000000000000000000000000000000000000000000000000000000000000000000000000000000000000000000000000000000000000000000000000000000000000000000000000000000000000000000000000000000000000000000000000000000000000000000000000000000000000000000000000000000000000000000000000000000000000000000000000000000000000000000000000000000000000000000000000000000000000000000000563800000000000000000000000000000000000000000000000000000000000000000000000000000000000000000000000000000000000000000000000000000000000000000000000000000000000000000000000000000000000000000000000000000000000000000000000000000000000000000000000000000000000000000000000000000000000000000000000000000000000000000000000000000000000000000000000000000000000000000000000000000000000000000000000000000000000000000000000000000000000000000000000000000000000000000000000000000000000000000000000000000000000000000000000000000000000000000000000000000000000000000000000000000000000000000000000000000000000000000000000000000000000000000000000000000000000000000000000000000000000000000000000000000000000000000000000000000000000000000000000000000000000000000000000000000000000000000000000000000000000000000000000000000000000000000000000000000000000000000000000000000000000000000000000000000000000000000000000000000000000000000000000000000000000000000000000000000000000000000000583a000000000000000000000000000000000000000000000000000000000000000000000000000000000000000000000000000000000000000000000000000000000000000000000000000000000000000000000000000000000000000000000000000000000000000000000000000000000000000000000000000000000000000000000000000000000000000000000000000000000000000000000000000000000000000000000000000000000000000000000000000000000000000000000000000000000000000000000000000000000000000000000000000000000000000000000000000000000000000000000000000000000000000000000000000000000000000000000000000000000000000000000000000000000000000000000000000000000000000000000000000000000000000000000000000000000000000000000000000000000000000000000000000000000000000000000000000000000000000000000000000000000000000000000000000000000000000000000000000000000000000000000000000000000000000000000000000000000000000000000000000000000000000000000000000000000000000000000000000000000000000000000000000000000000000000000000000000000000000000005a3c0000000000000000000000000000000000000000000000000000000000000000000000000000000000000000000000000000000000000000000000000000000000000000000000000000000000000000000000000000000000000000000000000000000000000000000000000000000000000000000000000000000000000000000000000000000000000000000000000000000000000000000000000000000000000000000000000000000000000000000000000000000000000000000000000000000000000000000000000000000000000000000000000000000000000000000000000000000000000000000000000000000000000000000000000000000000000000000000000000000000000000000000000000000000000000000000000000000000000000000000000000000000000000000000000000000000000000000000000000000000000000000000000000000000000000000000000000000000000000000000000000000000000000000000000000000000000000000000000000000000000000000000000000000000000000000000000000000000000000000000000000000000000000000000000000000000000000000000000000000000000000000000000000000000000000000000000000000000000000000000
#042320:3c000000000000000000000000005b000000005a00000000000000000000000000000000000000000000005a0000005b00000000580000000000000000000000
#042360:00560000005500530000000000000056000000000000550000005400540054000000540000005300550000005500560000000000000000570054000000000000
#042340:000059000000590000005a0000570000000000000000005a000000000000005a000000000058005a00000000005a00005600005a00580000000000005a000000
#042350:00000055000000000000005400000000005800005600000056000058000000000059000055000000000054000000000000005500000000005600005400000056
#042330:0000000059000000590000005900000056000000005a0000005900000058000000000058000000000059000000000000005a0000000057000000590000005a00
#042370:00000000000000000054000000000000000054000000000000000000000000005500000000000000000000000000000000000000000000000000000000550000
#043320:5a00000000005b5a0000005b0000005b000000005a000000005c000000005b00
#043340:005500000000000000005a0000000000590000005a0000005a0000005a0000005a0000000000000000005900000000005a000000000000005700000000000000
#043330:00005a0000005a00580000000057000000005900000000000000590000000000000000005a00000000000000000059000000000059005b000000590000005b00
#043370:00000055005500000000000000000000005300000000005400000000000000000054005300550000000000540000000000000000000000530000000000000054
#043350:00000000590000550000000000000055000000560057000000000000005600000000580000005900005600005900000000000054005500000000005500570000
#043360:00000000000000000054005500000000000000000000000000530055000000540000000000000055000000000055005400550000000000000054000000000000
#044340:58000000590000560000000000005a000000000000005a00000000005a00005500005a0059000000000000000000000000000000000000000000000000000000
#044360:00540000005400000055000000540000000000000053005400000055005600000054000000550000000000000000000000000000000000000000000000000000
#044350:00005900000000000000005400000000000055000000000000550000000000000000000000000055000000000000000000000000000000000000000000000000
#044370:00000054000000000000000000000053005600550000000000000000000000000000005300000000000000000000000000000000000000000000000000000000
#044320:000000590000000000000000005a005b000000002c0000000000000000000000
#044330:000000005a5b5900580057005a0000005900005a000000000000000000000000
#045360:14000054000055005500005400005500550000005500000000005500000056000000000056005500560000000000000000005500000056000000000057005600
#045350:00540000005500000055000000550054000000550000005500550000005600005600005600000055000000005600005600000055000000560000560000000000
#045370:0054550000555400005500555500560000560000005600565500550056000000
#045340:00000000000000550000000000000000005600000055000000000056000000000056000000550000005600560000000000550000005500000056000000570056
#045330:00000000000000000000000000000000000000000000000000000000000000560000000000000000000000000056000000000000000000000000005700000000
#046360:5655575756005600560000550058000057000056570000550055560057000057
#046350:00550000000000000000000000550000000000560000000056000000580000000000000057000000000057005800005500000000000000000000000057000000
#046330:00000057000000570000000000000000005600000000000000000058005800000000005700560000005700570000000000000056000000570000000000570000
#046340:00000000005700000056005600000056000000000055005500560000000058000057000000000056000000000000000000550000000057000057005600000055
#046370:0000000000560056005655000000000000570000000000005500000000560000
#046320:00000000000000000000000000000000000000000000000000000000000000590000000000000000000000000058000000000000005700000000000000000000
#047370:5500000000000056000056000055550055550054000000000000000000000000
#047350:00550000570057000000580056000056000057000000000000000000005500000055000000540054000000000000000000000000000000000000000000000000
#047360:0055000058000000560000565500005500005500240000000000000000000000
#047330:00000057000000000058000000000000005700000000005600000056000000000000000000000000000000000000000000000000000000000000000000000000
#047320:00000000005700000000005800000000000000000000000000000000000000000000000000000000000000000000000000000000000000000000000000000000
#047340:00000000000000570000000000560000000000560056000000550000000000550000005500000000000000000000000000000000000000000000000000000000
#050320:0000000000133300
#050330:000000000000000000000000000000000000003300000000
#050340:000000000033
#050350:0000000000000033
#050360:000000000000000000000000000000000000000000003333
#051360:23
#0513b1:13
#051371:003333333333333333230000000000000000000000000000
#051320:0000001300000000
#051360:000000000000000000003333333333333333230000000000
#0513b1:00000013
#051371:000000000000000000000000000000000000000000000000000000000000000000000000000033003300330033533300
#052371:333333000000000000000000000000000000000000000000
#0523b1:0023000000000000
#052320:0013000023000000
#052360:000000000000000033003300330033533300330033003300000000000000000000000000000000000000000000000000
#0523c1:000000000000000000000000000000000000000000000000000000000000000000000000000000000000000000000000000000000000000000000000000000000000000000000000000000000000000000000000000000000000000000000000000000000000000000000000000000000000000000000000000000000000000000000000000000000000000000000000000000000000000000000000000000000000000000000000000000000000000000000000000000000000000000000000000000000000000000000000000000000000000000000000000000000000000000000000000000000000000000000000000000000000000000000000000000000000000000000000000000000000000000000000000000000000000000000000000000000000000000000000000000000000000000000000000000000000000000000000000000000000000000000000000000000000000000000000000000000000000000000000000000000000000000000000000000000000000000000000000000000000000000000000000000000000000000000000000000000000000000000000000000000000000000000000000000000000000000000000000000000000000000000000000000000000000000000000000000000000000000000000000000000000000000000000000000000000000000000000000000000000000000000000000000000000000000000000000000000000000000000000000000000000000000000000000000000000000000000000000000000000000000000000000000000000000000000000000000000000000000000000000000000000000000000000000000000000000000000000000000000000000000000000000000000000000000000000000000000000000000000000000000000000000000000000000000000000000000000000000000000000000000000000000000000000000000000000000000000000000000000000000000000000000000000000000000000000000000000000000000000000000000000000000000000000000000000000000000000000000000000000000000000000000000000000000000000000000000000000000000000000000000000000000000000000000000000000000000000000000000000000000000000000000000000000000000000000000000000000000000000000000000000000000000000000000000000000000000000000000000000000000000000000000000000000000000000000000000000000000000000000000000000000000000000000000000000000000000000000000000000000120000000000000000000000000000000000000000000000000000000000000000000000000000000000000000000000000000000000000000000000000000000000000000000000000000000000000000000000000000000000000000000000000000000000000000000000000000000000000000000000000000000000000000000000000000000000000000000000000000000000000000000000000000000000000000000000000000000000000000000000000000000000000000000000000000000000000000000000000000000000000000000000000000000000000000000000000000000000000000000000000000000000000000000000000000000000000000000000000000000000000000000000000000000000000000000000000000000000000000000000000000000000000000000000000000000000000000000000000000000000000000000000000000000000000000000000000000000000000000000000000000000000000000000000000000000000000000000000000000000000000000000000000000000000000000000000000000000000000000000000000000000000000000000000000000000000000000000000000000000000000000000000000000000000000000000000000000000000000000000052000000000000000000000000000000000000000000000000000000000000000000000000000000000000000000000000000000000000000000000000000000000000000000000000000000000000000000000000000000000000000000000000000000000000000000000000000000000000000000000000000000000000000000000000000000000000000000000000000000000000000000000000000000000000000000000000000000000000000000000000000000000000000000000000000000000000000000000000000000000000000000000000000000000000000000000000000000000000000000000000000000000000000000000000000000000000000000000000000000000000000000000000000000000000000000000000000000000000000000000000000000000000000000000000000000000000000000000000000000000000000000000000000000000000000000000000000000000000000000000000000000000000000000000000000000000000000000000000000000000000000000000000000000000000000000000000000000000000000000000000000000000000000000000000000000000000000000000000000000000000000000000000000000000000000000000000000000000000000000000000
#0523a1:000000000000000000000000000000000000000000000000000000000000000000000000000000000000000000000000000000000000000000000000000000000000000000000000000000000000000000000000000000000000000000000000000000000000000000000000000000000000000000000000000000000000000000000000000000000000000000000000000000000000000000000000000000000000000000000000000000000000000000000000000000000000000000000000000000000000000000000000000000000000000000000000000000000000000000000000000000000000000000000000000000000000000000000000000000000000000000000000000000000000000000000000000000000000000000000000000000000000000000000000000000000000000000000000000000000000000000000000000000000000000000000000000000000000000000000000000000000000000000000000000000000000000000000000000000000000000000000000000000000000000000000000000000000000000000000000000000000000000000000000000000000000000000000000000000000000000000000000000000000000000000000000000000000000000000000000000000000000000000000000000000000000000000000000000000000000000000000000000000000000000000000000000000000000000000000000000000000000000000000000000000000000000000000000000000000000000000000000000000000000000000000000000000000000000000000000000000000000000000000000000000000000000000000000000000000000000000000000000000000000000000000000000000000000000000000000000000000000000000000000000000000000000000000000000000000000000000000000000000000000000000000000000000000000000000000000000000000000000000000000000000000000000000000000000000000000000000000000000000000000000000000000000000000000000000000000000000000000000000000000000000000000000000000000000000000000000000000000000000000000000000000000000000000000000000000000000000000000000000000000000000000000000000000000000000000000000000000000000000000000000000000000000000000000000000000000000000000000000000000000000000000000000000000000000000000000000000000000000000000000000000000000000000000000000000000000000000000000000000000000000000000000000000000000000000000000000000000000000000000000000000000000000000000000000000000000000000000000000000000000000000000000000000000000000000000000000000000000000000000000000000000000000000000000000000000000000000000000000000000000000000000000000000000000000000000000000000000000000000000000000000000000000000000000000000000000000000000000000000000000000000000000000000000000000000000000000000000000000000000000000000000000000000000000000000000000000000000000000000000000000000000000000000000000000000000000000000000000000000000000000000000000000000000000000000000000000000000000000000000000000000000000000000000000000000000000000000000000000000000000000000000000000000000000000000000000000000000000000000000000000000000000000000000000000000000000000000000000000000000000000000000000000000000000000000000000000000000000000000000000000000000000000000000000000000000000000000000000000000000000000000000000000000000000000000000000000000000000000000000000340000000000000000000000000000000000000000000000000000000000000000000000000000000000000000000000000000000000000000000000000000000000000000000000000000000000000000000000000000000000000000000000000000000000000000000000000000000000000000000000000000000000000000000000000000000000000000000000000000000000000000000000000000000000000000000000000000000000000000000000000000000000000000000000000000000000000000000000000000000000000000000000000000000000000000000000000000000000000000000000000000000000000000000000000000000000000000000000000000000000000000000000000000000000000000000000000000000000000000000000000000000000000000000000000000000000000000000000000000000000000000000000000000000000000000000000000000000000000000000000000000000000000000000000000000000000000000000000000000000000000000000000000000000000000000000000000000000000000000000000000000000000000000000000000000000000000000000000000000000000000000000000000000000000000000000000000000000000000000000054
#053381:360000000000000000000000000000000000000000000000000000000000000000000000000000000000000000000000000000000000000000000000000000000000000000000000000000000000000000000000000000000000000000000000000000000000000000000000000000000000000000000000000000000000000000000000000000000000000000000000000000000000000000000000000000000000000000000000000000000000000000000000000000000000000000000000000000000000000000000000000000000000000000000000000000000000000000000000000000000000000000000000000000000000000000000000000000000000000000000000000000000000000000000000000000000000000000000000000000000000000000000000000000000000000000000000000000000000000000000000000000000000000000000000000000000000000000000000000000000000000000000000000000000000000000000000000000000000000000000000000000000000000000000000000000000000000000000000000000000000000000000000000000000000000000000000000000000000000000000000000000000000000000000000000000000000000000000000000000000000000000000056000000000000000000000000000000000000000000000000000000000000000000000000000000000000000000000000000000000000000000000000000000000000000000000000000000000000000000000000000000000000000000000000000000000000000000000000000000000000000000000000000000000000000000000000000000000000000000000000000000000000000000000000000000000000000000000000000000000000000000000000000000000000000000000000000000000000000000000000000000000000000000000000000000000000000000000000000000000000000000000000000000000000000000000000000000000000000000000000000000000000000000000000000000000000000000000000000000000000000000000000000000000000000000000000000000000000000000000000000000000000000000000000000000000000000000000000000000000000000000000000000000000000000000000000000000000000000000000000000000000000000000000000000000000000000000000000000000000000000000000000000000000000000000000000000000000000000000000000000000000000000000000000000000000000000000000000000000000000000000000000000000000000000000000000000000000000000000000000000000000000000000000000000000000000000000000000000000000000000000000000000000000000000000000000000000000000000000000000000000000000000000000000000000000000000000000000000000000000000000000000000000000000000000000000000000000000000000000000000000000000000000000000000000000000000000000000000000000000000000000000000000000000000000000000000000000000000000000000000000000000000000000000000000000000000000000000000000000000000000000000000000000000000000000000000000000000000000000000000000000000000000000000000000000000000000000000000000000000000000000000000000000000000000000000000000000000000000000000000000000000000000000000000000000000000000000000000000000000000000000000000000000000000000000000000000000000000000000000000000000000000000000000000000000000000000000000000000000000000000000000000000000000000000000000000000000000000000000000000000000000000000000000000000000000000000000000000000000000000000000000000000000000000000000000000000000000000000000000000000000000000000000000000000000000000000000000000000000000000000000000000000000000000000000000000000000000000000000000000000000000000000000000000000000000000000000000000000000000000000000000000000000000000000000000000000000000000000000000000000000000000000000000000000000000000000000000000000000000000000000000000000000000000000000000000000000000000000000000000000000000000000000000000000000000000000000000000000000000000000000000000000000000000000000000000000000000000000000000000000000000000000000000000000000000000000000000000000000000000000000000000000000000000000000000000000000000000000000000000000000000000000000000000000000000000000000000000000000000000000000000000000000000000000000000000000000000000000000000000000000000000000000000000000000000000000000000000000000000000000000000000000000000000000000000000000000000000000000000000000000000000000000000000000000000000000000000000000000000000000000000
#053361:000000000000000000000000000000000000000000000000000000000000000000000000000000000000000000000000000000000000000000000000000000000000000000000000000000000000000000000000000000000000000000000000000000000000000000000000000000000000000000000000000000000000000000000000000000000000000000000000000000000000000000000000000000000000000000000000000000000000000000000000000000000000000000000000000000000000000000000000000000000000000000000000000000000000000000000000000000000000000000000000000000000000000000000000000000000000000000000000000000000000000000000000000000000000000000000000000000000000000000000000000000000000000000000000000000000000000000000000000000000000000000000000000000000000000000000000000000000000000000000000000000000000000000000000000000000000000000000000000000000000000000000000000000000000000000000000000000000000000000000000000000000000000000000000000000000000000000000000000000000000000000000000000000000000000000000000000000000000000000000000380000000000000000000000000000000000000000000000000000000000000000000000000000000000000000000000000000000000000000000000000000000000000000000000000000000000000000000000000000000000000000000000000000000000000000000000000000000000000000000000000000000000000000000000000000000000000000000000000000000000000000000000000000000000000000000000000000000000000000000000000000000000000000000000000000000000000000000000000000000000000000000000000000000000000000000000000000000000000000000000000000000000000000000000000000000000000000000000000000000000000000000000000000000000000000000000000000000000000000000000000000000000000000000000000000000000000000000000000000000000000000000000000000000000000000000000000000000000000000000000000000000000000000000000000000000000000000000000000000000000000000000000000000000000000000000000000000000000000000000000000000000000000000000000000000000000000000000000000000000000000000000000000000000000000000000000000000000000000000000058000000000000000000000000000000000000000000000000000000000000000000000000000000000000000000000000000000000000000000000000000000000000000000000000000000000000000000000000000000000000000000000000000000000000000000000000000000000000000000000000000000000000000000000000000000000000000000000000000000000000000000000000000000000000000000000000000000000000000000000000000000000000000000000000000000000000000000000000000000000000000000000000000000000000000000000000000000000000000000000000000000000000000000000000000000000000000000000000000000000000000000000000000000000000000000000000000000000000000000000000000000000000000000000000000000000000000000000000000000000000000000000000000000000000000000000000000000000000000000000000000000000000000000000000000000000000000000000000000000000000000000000000000000000000000000000000000000000000000000000000000000000000000000000000000000000000000000000000000000000000000000000000000000000000000000000000000000000000000000000000000000000000000000000000000000000000000000000000000000000000000000000000000000000000000000000000000000000000000000000000000000000000000000000000000000000000000000000000000000000000000000000000000000000000000000000000000000000000000000000000000000000000000000000000000000000000000000000000000000000000000000000000000000000000000000000000000000000000000000000000000000000000000000000000000000000000000000000000000000000000000000000000000000000000000000000000000000000000000000000000000000000000000000000000000000000000000000000000000000000000000000000000000000000000000000000000000000000000000000000000000000000000000000000000000000000000000000000000000000000000000000000000000000000000000000000000000000000000000000000000000000000000000000000000000000000000000000000000000000000000000000000000000000000000000000000000000000000000000000000000000000000000000000000000000000000000000000000000000000000000000000000000000000000000000000000000000000000000000000000000
#053341:0000000000000000000000000000000000000000000000000000000000000000000000000000000000000000000000000000000000000000000000000000000000000000000000000000000000000000000000000000000000000000000000000000000000000000000000000000000000000000000000000000000000000000000000000000000000000000000000000000000000000000000000000000000000000000000000000000000000000000000000000000000000000000000000000000000000000000000000000000000000000000000000000000000000000000000000000000000000000000000000000000000000000000000000000000000000000000000000000000000000000000000000000000000000000000000000000000000000000000000000000000000000000000000000000000000000000000000000000000000000000000000000000000000000000000000000000000000000000000000000000000000000000000000000000000000000000000000000000000000000000000000000000000000000000000000000000000000000000000000000000000000000000000000000000000000000000000000000000000000000000000000000000000000000000000000000000000000000000000000000000000000000000000000000000000000000000000000000000000000000000000000000000000000000000000000000000000000000000000000000000000000000000000000000000000000000000000000000000000000000000000000000000000000000000000000000000000000000000000000000000000000000000000000000000000000000000000000000000000000000000000000000000000000000000000000000000000000000000000000000000000000000000000000000000000000000000000000000000000000000000000000000000000000000000000000000000000000000000000000000000000000000000000000000000000000000000000000000000000000000000000000000000000000000000000000000000000000000000000000000000000000000000000000000000000000000000000000000000000000000000000000000000000000000000000000000000000000000000000000000000000000000000000000000000000000000000000000000000000000000000000000000000000000000000000000000000000000000000000000000000000000000000000000000000000000000000000000000000000000000000000000000000000000000000000000000000000000000000000000000003a000000000000000000000000000000000000000000000000000000000000000000000000000000000000000000000000000000000000000000000000000000000000000000000000000000000000000000000000000000000000000000000000000000000000000000000000000000000000000000000000000000000000000000000000000000000000000000000000000000000000000000000000000000000000000000000000000000000000000000000000000000000000000000000000000000000000000000000000000000000000000000000000000000000000000000000000000000000000000000000000000000000000000000000000000000000000000000000000000000000000000000000000000000000000000000000000000000000000000000000000000000000000000000000000000000000000000000000000000000000000000000000000000000000000000000000000000000000000000000000000000000000000000000000000000000000000000000000000000000000000000000000000000000000000000000000000000000000000000000000000000000000000000000000000000000000000000000000000000000000000000000000000000000000000000000000000000000000000000000005a000000000000000000000000000000000000000000000000000000000000000000000000000000000000000000000000000000000000000000000000000000000000000000000000000000000000000000000000000000000000000000000000000000000000000000000000000000000000000000000000000000000000000000000000000000000000000000000000000000000000000000000000000000000000000000000000000000000000000000000000000000000000000000000000000000000000000000000000000000000000000000000000000000000000000000000000000000000000000000000000000000000000000000000000000000000000000000000000000000000000000000000000000000000000000000000000000000000000000000000000000000000000000000000000000000000000000000000000000000000000000000000000000000000000000000000000000000000000000000000000000000000000000000000000000000000000000000000000000000000000000000000000000000000000000000000000000000000000000000000000000000000000000000000000000000000000000000000000000000000000000000000000000000000000000000000000000000000000000000000000
#053321:0000003c
#054321:3c000000580000000000000000005b0000000000000000000000005900000000005c0000000000000000005b00000000005a0000005700005c00000000005a00
#054361:00550053000000530054000000000054000000540057000000005400000000000000540000000000540000000000000055000000560000000054000000000055
#054331:00005a000000000000000000000000000000000058000059000000000000005a00000000005a000000000000005a005b00000000000000000000580000000000
#054371:00000000005600000000005400000000005300000000530000000000000054000000000054005300000054000000530000000000000000000000000000530000
#054351:00000000000056000000590000550000570059000000000055000000550000005400000000000000000000005500000000005500000057000000005400000000
#054341:000000000000000057000000590000000000000000000000005a000000590000000000580000005a00580000000000000000005a00000057000000005a000000
#055341:5a0000005a000000005900000000000000000000000000000000000000000000
#055361:00550000000000530055000000000055000000540000000000000000000000540000000000000000000000000000000000000000000000000000000000000000
#055331:0059005a0000005a5b00005b0059005b00000000000000000000000000000000
#055351:00000054000000000000005500000000005400000056005500000000005400000000000000000000000000000000000000000000000000000000000000000000
#055321:00005c00005a5c0000005a005b005b002c000000000000000000000000000000
#055371:00000000005400000000000000540000000000000000000000540054000000000000000000000000000000000000000000000000000000000000000000000000
#057321:1300332300000000
#057361:0033000000000000
#0573b1:00000013
#057371:0000000000000033
#0583b1:3323000000000000
#059321:00160000
#059361:0000000000220000
#059380:0000000000160022
#059341:000000000000000000000000000000000000000000130034
#059321:000000000000000000000033
#060321:24
#060380:14005400540054005400540054005400540000000000000000000000000000000054005400540054005400540054005400000000000000000000000000000000
#060360:00580058005800580058005800580058000000000000000000000000000000000000000000000000000000000000000000000000000000000000000000000000
#060370:00000000000000000000000000000000005600560056005600560056005600560000000000000000000000000000000000000000000000000000000000000000
#060390:0000000000000000005252525252525252525252525252520000000000000000
#061390:00220000
