This file was generated by Ched 2.6.4.0.
#TITLE ""
#ARTIST ""
#DESIGNER ""
#DIFFICULTY 0
#PLAYLEVEL
#SONGID ""
#WAVE ""
#WAVEOFFSET 0
#JACKET ""
#REQUEST "ticks_per_beat 480"
#00002: 4
#BPM01: 115
#00008: 01
#TIL00: ""
#HISPEED 00
#MEASUREHS 00
#01015:0000000000130000
#0101b:00000013
#01012:0000000000000013
#01019:141414141414000000000000
#0101a:001400000014000000140000000000000000000000000000
#01018:000000140000001400000014000000000000000000000000
#01412:00130000
#01415:0000001300000000
#01418:0013
#0141b:00130000
#05718:0023000013000000
#05715:0000230000130023
#05712:23
#0571b:0000002300002300
#0221b:0000000000130000
#02215:0013000000001300
#02218:1300001300000023
#0221f:0011
#02212:0023
#02312:13130000
#0231b:0013000000000000
#02318:0000000000000013
#02315:0000000000230000
#02415:0000130000130000
#02412:1300000000000013
#0241b:00000013
#0241a:0000002400000000
#0251b:0013
#02518:13000013
#02512:0024000000130000
#02515:0000000000000023
#0321b:00130000
#03218:0000001300130013
#03215:00131313
#03212:0000000000130000
#0061b:0000001300000000
#00618:13
#00615:00000013
#03916:00000013
#03912:23
#00712:0013000000000000
#02615:0000000000000013
#0261b:13130000
#02612:0013000000000000
#02618:0000000000230000
#02718:13130000
#02715:0000001300000000
#00412:0013000013000000
#0041b:0000000013000013
#0561b:00130013
#05618:0000001300000013
#05615:0013000000130000
#05612:13132300
#0551b:00000013
#05515:0000000000130000
#05518:0000000000000013
#03015:0013000000000000
#03018:0000130000000013
#0301b:2300001300000000
#03012:00000023
#0301f:21
#03010:00000041
#04812:1300130000130000
#0481b:13000013
#04818:0013001313000000
#04815:00000000000000130000000000001300
#04810:41
#0491b:1300001300130000
#04912:00000013
#04915:00001300130000001300000000000013
#04918:00000013000000000000000000001300
#00312:23000013
#0031b:2300001300001300
#00310:41
#01315:0000001300001300
#01318:0000130000130000
#0131b:0023
#01312:0023
#01310:0041
#00215:00131313
#00212:0000000000000013
#00218:0000001300230000
#0051b:00130000
#00512:0000130000130000
#01115:1300130000130000
#01118:0013001300001300
#0111b:0013
#01112:0000000000000013
#0121b:13
#01218:0013000013000000
#01215:0000130000130000
#01212:0000001300000000
#01618:0013000000130000
#01612:00001313
#0161b:0000000000000013
#01615:13
#01718:1300130000130000
#01715:0013001300001300
#01712:0013
#0171b:0000000000000013
#01812:13
#01815:0013000013000000
#01818:0000130000130000
#0181b:0000001300000000
#0201b:00130000
#02012:00130000
#02015:0013
#02018:0000001300000000
#01918:00000013
#01915:0000000000130000
#01912:0023
#0191b:0023
#02912:00130000
#02918:00130000
#03115:1300000000130000
#03112:0013000000000000
#03118:00000013
#0311b:0000000023000013
#03312:0013000000002300
#03317:0000131300000000
#0331b:2300000000000013
#03416:1313000000000000
#03412:0013
#03415:0000000000130000
#03418:00001313
#0351b:0000000000130000
#05012:0013001300000000
#05018:13000000130000000000001300000000
#0501b:0000000013000013
#05015:0000000000131300
#05112:1300001300000000
#05118:0013000013000000
#0511b:0000130000131300
#05115:0000130000130013
#05212:1300001300000000
#05218:1300001300000000
#0521b:0013000000000000
#05215:00130000
#05216:0024
#05815:00131313
#05818:2300001300130000
#05812:0023000000000000
#0581b:0000000000000023
#05915:13000013
#05918:0013000000000000
#05912:00000000160000130000160000000000
#06018:16
#00919:140000140000140000140000140000140000140014001400
#0091a:00000014000000140000001400001400
#00918:000000140000000000000000000000140000000000000000000000140000000000000000000014000000000000001400
#02112:13
#0211b:0000000000000013
#02115:00000013
#02118:0013000000000000
#02114:0013
#02113:00130000
#0211a:0000000000130000
#02119:0000001300000000
#02110:41
#0151b:13
#01512:0000000000000013
#01518:00000013
#01515:0013000000000000
#01519:0013
#0151a:00130000
#01513:0000000000130000
#01514:0000001300000000
#00116:0000000024000024
#04016:0024
#03810:00410000
#0065b:0000006300000000
#00658:53
#00655:00000063
#03956:00000063
#00752:0053000000000000
#02758:13
#02755:0000001300000000
#0305b:1300006300000000
#03052:00000013
#02352:00530000
#02355:0000000000130000
#02452:13
#0245a:0000001400000000
#0265b:00630000
#02658:0000000000130000
#02952:00530000
#02958:00530000
#03152:0053000000000000
#0315b:0000000013000063
#03357:0000005300000000
#0335b:13
#03352:00000013
#03456:0063000000000000
#05952:00000000660000230000560000000000
#05955:00000023
#06058:56
#00959:640000640000640000640000640000640000640054005400
#0095a:00000024000000240000002400002400
#00958:000000240000000000000000000000240000000000000000000000240000000000000000000024000000000000002400
#01059:545454545454000000000000
#0105a:002400000024000000240000000000000000000000000000
#01058:000000240000002400000024000000000000000000000000
#02258:0000000000000013
#02552:0014000000000000
#02555:0000000000000013
#01952:0013000000000000
#003320:0013000000000000
#003360:00230000
#003360:0013
#003320:0000000000230000
#0033b0:0000000000000013
#004370:23
#004370:00130000
#0043b0:0000002300000000
#004320:0000000000130000
#004360:00000023
#0053b0:13
#005370:0023000000000000
#0053b0:0000001300000000
#005370:0023
#005320:00000013
#005360:0000000000000023
#006380:13000023
#0063b0:0000003300000000
#006351:00000013
#007321:0033000000000000
#007351:0023
#007380:00001323
#0073b0:0000000000330000
#007350:0000000000000013
#008320:33
#008350:0023000000000000
#0083b0:00132300
#008380:0000003300000000
#008320:0000000000130000
#008360:0000000000000023
#009390:140000540000540000540000540000540000540054005400
#009380:000000540000000000000000000000540000000000000000000000540000000000000000000054000000000000005400
#0093a0:00000054000000540000005400005400
#010390:545454545454240000000000
#0103a0:005400000054000000540000000000000000000000000000
#010380:000000540000005400000054000000000000000000000000
#0123b0:00000013
#0133b0:0023000000000000
#0133b0:0000000000000013
#014370:0023000000000000
#014320:0000000000130000
#014340:00000033
#014360:0000000000000023
#018320:00000013
#019320:0023000000000000
#019320:0000000000000013
#020360:0023000000000000
#0203b0:0000000000130000
#020370:0000000000000023
#023320:00130000
#023350:0000000000230000
#0263b0:00130000
#026380:0000000000230000
#0273b0:0000000000130000
#027380:00000023
#028320:13
#028350:0023000000000000
#0283b0:0000001300000000
#028380:0023
#028351:0000001300000000
#028321:0023
#028321:00000013
#028351:0000000000000023
#028380:00000013
#0283b0:0000000000000023
#029350:0013000000230000
#029320:00330000
#0293b1:0013000000230000
#029381:00330000
#0303b1:0000001300000000
#030371:0000000000230000
#031321:0013000000000000
#031361:0000002300000000
#0313b1:0000000000000013
#032371:0023000000000000
#033371:0000001300000000
#0333b1:0000000000230000
#034361:0013000000000000
#034321:0000002300000000
#0343b1:0000000000000013
#035371:0023000000000000
#035321:00130000
#035361:0023
#036321:13230000
#036351:0033000000000000
#0363b1:0000001300000000
#036371:0000000000230000
#0363b1:00000013
#036381:0000000000000033
#0373b1:23
#037321:0013000000000000
#037361:0000002300000000
#037321:00001323
#037351:0000000000330000
#0373b1:0000000000000013
#038371:0023000000000000
#038351:00132300
#038321:0000003300000000
#038381:0000000000130023
#0383b1:00000033
#039321:13
#039361:00000033
#040321:0023000000000000
#040361:0014
#040351:00000036
#041341:38
#041331:003a0000
#041321:00003c3c
#042321:3c005b0000005b0000005b5c
#042341:005800580000005800580000005800580058005800000000
#042331:00005a0000005a005b005a0000005a005b005a0000000059
#042351:000000000057000000000056000000000000000000570000
#043321:5b005b5c005c005b0000005b
#043351:005700570000000000580000000000570000000000000000
#043331:00005b00005800005b0000005a0000005a005b005a000059
#043341:000000000000005900000058005800000058005700580000
#044321:5c005c5c5c5c5b5c00000000
#044341:005800580000000000000058005800000000000000000000
#044331:00005a00005a0000005a00000000002a0000000000000000
#044351:000000000000005800000000000000000000000000000000
#045341:180000000058000000580000590058000000580000000000
#045331:005800580000005800000059005800580058005800580058
#045351:005858580058000058005758
#045361:005700
#046341:580000000058000000570000000000570000000000580000
#046331:005800570000005800000058005800000058005800000058
#046351:005758585758585758005858
#046361:00000058
#047361:57
#047331:005800000058005700000058005800000000000000000000
#047351:005758005858585800000000
#047341:0057585800280000
#052361:0014
#052351:00000036
#053341:38
#053331:003a0000
#053321:00003c3c
#054321:3c00005c5b005c5c005b005a
#054341:005700000058000000580059000000570000005800570057
#054331:000059005a00005900005b00005a00005b0000005a000000
#054351:000000560000000000000000000000000057000000000000
#055331:5b005b5b005b2a0000000000
#055341:005900580000005700580000000000000000000000000000
#055321:005c00005b00000000000000
#055351:000000000058000000000056000000000000000000000000
#059321:00000000160000530000360000003600
#059351:00000053
#060321:26
#060380:16
#0613b0:00230000
