This file was generated by Ched 2.6.4.0.
#TITLE ""
#ARTIST ""
#DESIGNER ""
#DIFFICULTY 0
#PLAYLEVEL
#SONGID ""
#WAVE ""
#WAVEOFFSET 0
#JACKET ""
#REQUEST "ticks_per_beat 480"
#00002: 4
#BPM01: 115
#00008: 01
#TIL00: ""
#HISPEED 00
#MEASUREHS 00
#05912:0000160000140000
#00218:00140000
#00214:0000000000140000
#00514:0000000000140000
#00917:160000000000000016000000000000001600000000000000160000000000000016000000000000160000000000160000
#00916:001600000016000000160000
#00918:000000000000160000000000000016000000000000160000
#01016:16160000
#01017:00160016001600160000000000000000
#01018:0016001600000000
#01014:0000000000000014
#01118:00140000
#01112:0000000000140000
#0121a:14
#01214:0000001400000000
#01312:00001414
#01318:0000000000140014
#01310:0041
#01414:00141414
#0141a:0000001400140014
#0161a:0014
#01614:0000000000000014
#01718:00140000
#01712:0000000000140000
#01818:14
#01814:0000001400000000
#01914:00001414
#0191a:0000000000140000
#02012:00141400
#02018:0000001400000000
#03014:0014000000000000
#03018:0000140000000014
#0301a:24
#03012:00000024
#0301f:21
#03010:00000041
#03114:1400000000140000
#03118:00000014
#0311a:0024
#0331a:0014000000000000
#03314:00140000
#03312:2400000000000014
#03318:00000024
#0341a:14001414
#03414:0024000000140000
#0361a:14
#03614:0014000000000000
#03618:00140014
#03612:0000001400000014
#0371a:14000014
#03714:0014000000140000
#03718:0014
#03712:0000000000000014
#04012:0014
#04013:00000014
#04114:14
#04115:00140000
#04116:0014
#04117:00000014
#04818:14140000
#04814:0014001400000014
#0481a:00000014
#04810:41
#0491a:14
#04914:0014000000000000
#04918:00001414
#04912:0000000000140014
#05018:00140000
#05014:0000001400000000
#0501a:0014
#05012:0000000000140000
#0511a:14140000
#05114:0014000000000000
#05118:00000014
#05112:0000000000000014
#05218:14
#0521a:0014
#05219:00000014
#05318:14
#05317:00140000
#05316:0014
#05315:00000014
#05518:0000000000140014
#05514:00000014
#05618:0000001400000000
#05612:00140000
#05613:0014
#05619:0000000000140000
#05614:00000014
#0561a:0000000000000014
#05814:0014
#05818:0000000000000014
#03212:0000140000140000
#03214:00000000000000140000000000000000
#03215:00000000000000000000000000140000
#02218:0014
#02214:0000000000000014
#0221f:0011
#02514:0014
#02518:0000000000000014
#0251a:0014000000000000
#02618:0000000000000014
#02712:14000014
#0271a:00140000
#02714:0000001400000000
#02718:0000000000140000
#0281a:14000024
#02814:0014000024000000
#02818:0000002400000000
#02812:0000000000000024
#02412:00000014
#02418:14
#02414:00140000
#0241a:0000001400000000
#02312:0000000000000014
#04218:26
#05412:26
#02918:0024000000000000
#02914:00240000
#03810:00410000
#00310:41
#02110:41
#05952:0000660000240000
#00957:660000000000000066000000000000006600000000000000660000000000000066000000000000660000000000660000
#00956:002600000026000000260000
#00958:000000000000260000000000000026000000000000260000
#01056:26260000
#01057:00660066006600660000000000000000
#01058:0026002600000000
#03252:0000540000540000
#03254:00000000000000240000000000000000
#03255:00000000000000000000000000240000
#0305a:14
#03052:00000014
#0315a:0014
#03352:14
#03358:00000014
#03454:0014000000000000
#0195a:0014000000000000
#003380:14000054
#0033a0:0000005400000000
#0043a0:0054000000000054
#004380:0054
#005380:00240000
#0063a0:14
#006380:0000002400000000
#006320:00000014
#007340:0024000000000000
#007380:0014
#0073a0:0000000000000024
#008340:00140000
#008320:0000000000240000
#009370:160000000000000056000000000000005600000000000000560000000000000056000000000000560000000000560000
#009360:005600000056000000560000
#009380:000000000000560000000000000056000000000000560000
#010360:56562600
#010370:00560056005600560000000000000000
#010380:0056005600000000
#012380:00000014
#013380:0024000000000000
#015340:14000034
#015320:0000003400000000
#016320:0024000000000000
#0183a0:00000014
#0193a0:0024000000000000
#0193a0:0000000000000014
#020380:0024000000000000
#020380:0000000000140000
#0203a0:0000000000000024
#021320:14000034
#021340:0000003400000000
#022340:0024000000000000
#0233a0:0000140000240000
#026320:0000140000240000
#029340:0000140000240000
#030340:0000001400000000
#030320:00000024
#031380:0014000000000000
#0313a0:0024
#031340:0000000000000014
#032320:0000340000340000
#032340:00000000000000540000000000000000
#032350:00000000000000000000000000540000
#033320:24
#0333a0:0000001400000000
#033380:00000024
#034340:0000000000000014
#035320:0034340000000000
#035340:0000000034240000
#0383a0:00140000
#038390:0000003400000034
#038380:00003434
#038370:0000000000340000
#0393a0:34
#039370:00000034
#0403a0:0024000000000000
#042380:16
#044380:0000000000260000
#045320:14
#047320:0000000000240000
#051340:0000001400000000
#051330:0034
#051320:0000000000240000
#052320:0014000000000000
#052330:00340000
#052340:0000002400000000
#054320:16
#055320:0026
#057340:1434342400000000
#057380:0000000000001434
#058380:3424000000000000
#059320:0000160000340036
#060320:36
#061320:00240000
