This file was generated by Ched 2.7.0.0.
#TITLE ""
#ARTIST ""
#DESIGNER ""
#DIFFICULTY 0
#PLAYLEVEL
#SONGID ""
#WAVE ""
#WAVEOFFSET 0
#JACKET ""
#REQUEST "ticks_per_beat 480"
#00002: 4
#BPM01: 188
#00008: 01
#TIL00: ""
#HISPEED 00
#MEASUREHS 00
#0001a:14
#00114:14
#00218:14
#00312:14
#0041a:14
#00514:14
#00618:14
#00712:14
#00914:14
#0101a:14
#01114:14
#01312:14
#01418:14
#01512:14
#0241a:14
#02414:0014
#02410:41
#0251a:14
#02612:14
#02618:0014
#02712:14
#0281a:14
#02814:0014
#0291a:14
#03012:14
#03018:0014
#03112:14
#03612:14
#03718:14
#03814:14
#0391a:14
#04018:0016
#04012:26
#0401f:21
#04112:16
#04118:0016
#04110:41
#04418:0016
#04412:26
#04512:16
#04518:0016
#04812:1616
#04918:1616
#05212:16
#0521a:0014
#05314:14
#05318:0014
#05412:14
#0541a:0014
#05514:14
#05518:0014
#06012:0016
#06018:26
#06010:41
#06118:16
#06112:0016
#06418:1616
#06512:1616
#06818:16
#06812:0014
#06918:14
#06914:0014
#0701a:14
#07012:0014
#07118:14
#07114:0014
#0721a:14
#07210:41
#07314:14
#07418:14
#07512:14
#07714:0014
#0781a:14
#07912:14
#07918:0014
#08012:14
#0811a:14
#08114:0014
#0821a:14
#08312:14
#08418:14
#08512:14
#08518:0014
#08612:14
#0871a:14
#08714:0014
#0881a:14
#08912:14
#08918:0014
#09012:14
#0321f:11
#0081a:24
#00810:41
#01218:24
#0911a:24343434
#0921a:34343400
#01610:41
#0163a0:14
#0173a0:24
#018340:14
#019340:24
#020380:14
#021380:24
#022320:14
#023320:24
#032390:15
#033370:35
#034390:35
#035370:25
#042320:1626
#043380:1626
#046320:1626
#047380:1626
#050320:1626
#051380:1626
#056320:14
#057340:34
#058320:34
#059340:24
#062380:1626
#063320:1626
#066380:1626
#067320:1626
#0763a0:14
#0773a0:24
#0913a0:14343434
#0923a0:34343400
#092380:00000024
