This file was generated by Ched 2.7.0.0.
#TITLE ""
#ARTIST ""
#DESIGNER ""
#DIFFICULTY 0
#PLAYLEVEL
#SONGID ""
#WAVE ""
#WAVEOFFSET 0
#JACKET ""
#REQUEST "ticks_per_beat 480"
#00002: 4
#BPM01: 188
#00008: 01
#TIL00: ""
#HISPEED 00
#MEASUREHS 00
#00018:1300000000000013
#0001b:0000001313000000
#00015:13
#00012:0013
#00118:0013000000000000
#0011b:0000001313000000
#00115:13
#00112:0013
#00216:00130000
#00214:0013
#00212:00000013
#00218:13
#0021b:00130000
#00219:0013
#00217:00000013
#00316:13
#0031b:0013001300000000
#00312:0000001300001300
#00317:0000000000130000
#0061b:00130000
#00618:00001313
#00615:1300001300000013
#00612:0000000000130000
#00718:0013
#00715:0000000000130000
#0071b:00000013
#00712:00000013
#0081b:0000001313000000
#00817:2300000000000013
#00812:23131313
#00810:41
#00919:0013000000000000
#0091b:0000001313000013
#00912:13131300
#00915:0000000000130000
#00918:00000013
#01616:13000013
#0161b:0013000000001300
#01614:00130000
#01619:0000001300000000
#01612:0013
#01610:41
#0171b:0013
#01717:00000013
#01719:00130000
#01714:00130000
#01716:0013
#01712:00000013
#0181b:1313
#01818:0000130000000013
#01815:0013000000001300
#01812:0000001300130000
#0191b:13
#01915:0000001300000000
#01918:00131300
#01912:13000013
#02312:1300001300000000
#02315:0013
#02318:0000000000130000
#0231b:13000013
#02417:1313
#0241b:00130000
#02419:0000001300000000
#02416:00130000
#02412:0013
#02410:41
#0251b:1313
#02512:00130013
#02514:0000001300000000
#02516:0013
#02517:0000130000000013
#02616:00130000
#02617:1313
#02615:0000000000130013
#02618:00000013
#02612:13
#0261b:00130000
#02712:13
#02716:0000001313000000
#0271b:0013
#02717:13
#0291b:00130000
#02914:0000001300000000
#02912:0013
#02916:00130013
#02917:1313
#03017:13000013
#0301b:00000013000000001300000000000000
#03012:13000013
#03016:00000013000000001300000000000000
#0311b:13001313
#03118:0000130000130000
#03115:1300000000000013
#03112:00131313
#0321b:13
#03212:13
#0321f:11
#03314:12
#03318:0012
#0331a:00000012
#03316:00120000
#03416:12
#0341c:12
#03418:0012
#03412:0012
#03612:0000001300000000
#03616:13
#0361b:23000023
#03912:00130000
#03915:0013
#03918:00000013
#04017:00000000130000000013000000000000
#04016:0000001300001300
#04012:23130000
#0401b:2300001300000000
#04019:0000000000000013
#0401f:21
#0411b:00130000
#04117:2300001300000000
#04118:0000000000130013
#04115:00000013
#04116:00130000
#04112:2300001300000000
#04110:41
#04216:0013000000000000
#04218:00130013
#04215:0000001300130000
#0421b:0000000000000013
#04212:0013
#04317:1313
#0431b:0000130000130000
#04318:00000013
#04315:0000000000000013
#04617:00130013
#0461b:0013
#04616:0013
#04612:00000013
#0471b:1300001300000013
#04712:0000001300000013
#04715:00001313
#04718:0000000000130000
#04716:13
#0481b:0013000013000013
#04818:0000130000130000
#04815:0000001300001300
#04812:0000000000000013
#04918:0013001300001300
#04915:0000130000130013
#04912:0000001300000000
#0491b:0000000000000013
#0501b:0013000013000013
#05017:00130000
#05012:00130013
#05016:0013000000000013
#0511b:0000001300000000
#05118:0013
#05115:0000000000130000
#05112:00000013
#0521b:13000023
#05218:0000000013000013
#05215:0000000000131300
#05212:0023
#05318:1300001313000013
#05315:0013130000131300
#05312:2323
#0531b:00230023
#0541b:0000000013000013
#05418:13
#05415:0000001313000013
#05412:23
#05518:13
#0551b:0000130000230000
#05512:1300002300000000
#05516:0000130000230000
#05517:0000002300000000
#05815:13
#05818:0000130000000014
#05812:0014
#05814:0000000000140000
#05816:00000014
#06017:00000000130000000013000000000000
#06012:24000000130000000013000000000000
#0601b:0000001300000000
#06016:0000001300000014
#0601a:24
#06010:41
#06117:0000001300000000
#0611b:00130000
#06116:00130000
#06112:2400001300000000
#06118:0000000000130013
#06115:00000013
#0611a:24
#07115:13130013
#07118:0000001300130000
#0711b:13000013
#07112:0000001300000000
#07218:1300000000130000
#0721b:0013
#07215:00000013
#07212:1300000000000013
#07217:0000000000000013
#07210:41
#07316:00130013
#07312:0013
#07412:13
#0741b:0013
#07419:00130000
#07414:00000013
#07517:0000000000000013
#07512:1300000000000013
#0751b:0013
#07519:00130000
#0761b:0013000000001300
#07616:0023000013000000
#07617:00230000
#07612:00230000
#07717:0000001300000000
#0771b:2300130013000013
#07712:23131313
#07817:0013000000000000
#0781b:0000001300000000
#07818:0000000013000013
#07812:13131313
#07815:0000000000130000
#08415:0013
#08418:0000000000130000
#0841b:13130023
#08412:00240023
#08414:24
#01016:1300000000000013
#01012:0000001313000000
#0101b:13131313
#01114:0013000000000000
#01112:0000001313000013
#0111b:13131300
#01118:0000000000130000
#01115:00000013
#01217:1300000000000013
#0121b:0000001313000000
#01212:13131313
#01319:0013000000000000
#0131b:0000001313000013
#01312:13131300
#01315:0000000000130000
#01318:00000013
#01412:13130000
#0141b:1300000000130000
#01415:00001313
#01418:0000001300000013
#00415:1300000000000013
#00412:0000001313000000
#00418:13
#0041b:0013
#00515:0013000000000000
#00512:0000001313000000
#00518:13
#0051b:0013
#01515:0013
#01518:0000000000130000
#0151b:00000013
#01512:00000013
#02017:13000013
#02012:0013000000001300
#02019:00130000
#02014:0000001300000000
#0201b:0013
#02112:0013
#02116:00000013
#02114:00130000
#02119:00130000
#02117:0013
#0211b:00000013
#02212:1313
#02215:0000130000000013
#02218:0013000000001300
#0221b:0000001300130000
#02812:00130000
#02819:0000001300000000
#0281b:0013
#02817:00130000
#02816:1313
#0351c:12
#03512:0013
#03514:00000013
#03517:0023
#03519:00000023
#03714:13
#03712:00130013
#03716:0013
#03719:23
#03717:00230023
#0371b:0023
#03816:00000000001300000000000000000000
#0381b:2323000000000000
#03819:0000002323000000
#03817:0000000000002323
#04416:00000000130000000013000000000000
#04417:0000001300001300
#0441b:23130000
#04412:2300001300000000
#04414:0000000000000013
#04512:00130000
#04516:2300001300000000
#04515:0000000000130013
#04518:00000013
#04517:00130000
#0451b:2300001300000000
#0561b:0013
#05615:13
#05612:0013
#05618:23
#05712:0013
#05718:13
#0571b:0013
#0631b:0000001300000013
#06318:00001313
#06315:0000000000130000
#06312:2300001300000013
#06317:13
#06412:0013000013000013
#06415:0000130000130000
#06418:0000001300001300
#0641b:0000000000000023
#06612:0013000023000013
#0661b:00230013
#06617:0023000000000013
#06616:00230000
#06712:0000001300000000
#06715:0013
#06718:0000000000130000
#0671b:0023000000001300
#06716:0023000000000000
#06812:13000023
#06815:0000000013130000
#06818:0000000000001313
#0681b:0023
#06915:1313000013130000
#06918:0000131300001313
#0691b:2323
#06912:00230023
#07015:13
#07018:0000001313000013
#07012:0000000013000013
#0701b:23
#07916:0000001300000000
#07912:2300130013000013
#0791b:23131313
#08016:0013000000000000
#08012:0000001300000000
#08015:0000000013000013
#0801b:13131313
#08018:0000000000130000
#08117:0000001300000000
#0811b:2300130013000013
#08112:23131313
#08217:0013000000000000
#0821b:0000001300000000
#08218:0000000013000013
#08212:13131313
#08215:0000000000130000
#08312:23131300
#0831b:23
#0831a:00240000
#08318:0024
#08316:00000024
#08519:0000001300000000
#0851b:2313
#08517:0000130000000013
#08512:23131313
#0861b:0013000000000013
#08617:0000001300000000
#08612:13131313
#08615:0000000000130000
#08618:00000013
#08714:0000001300000000
#08712:2313
#08716:0000130000000013
#0871b:23131313
#08812:0013000000000013
#08816:0000001300000000
#0881b:13131313
#08818:0000000000130000
#08815:00000013
#08919:0000001300000000
#0891b:2313
#08917:0000130000000013
#08912:23131313
#0901b:0013000000000013
#09017:0000001300000000
#09012:13131313
#09015:0000000000130000
#09018:00000013
#06515:0013001300001300
#06518:0000130000130013
#0651b:0000002300000000
#06512:0000000000000023
#06217:0013
#06216:00130013
#0621b:00230023
#06212:0023
#0591a:2424
#05918:00230023
#05915:2323
#05912:00240024
#09112:23
#0911b:23220000
#09119:0022
#09117:00000022
#09215:22
#09213:00220000
#09218:00002222
#09216:0000000000220000
#0605a:14
#06052:14000000000000000023000000000000
#0605b:0000005300000000
#06057:00000000000000000023000000000000
#06056:0000005300000000
#0615a:14
#06152:14
#06158:0000000000000063
#00055:53
#00052:0023
#00155:53
#00152:0023
#0095b:0013
#01152:0013
#0135b:0013
#00458:63
#0045b:0023
#00558:63
#0055b:0023
#0155b:00000013
#0165b:00000053
#01656:00000053
#01952:13
#01958:0053
#01757:13
#01752:13
#02057:00000063
#02052:00000063
#0235b:13
#02156:13
#0215b:13
#02452:0053
#0255b:0053
#02652:53
#02656:00530000
#02757:53
#02756:0053
#02856:0063
#02957:0053
#03057:53
#0305b:00000023000000000000000000000000
#03052:53
#03056:00000023000000000000000000000000
#03452:0052
#0365b:53
#03652:0000005300000000
#03752:00000053
#03856:00000000002300000000000000000000
#0405b:1300006300000000
#04057:00000000000000000023000000000000
#04052:13
#04158:0000000000000053
#04152:13
#04157:13
#04452:1300005300000000
#04456:00000000000000000023000000000000
#0445b:13
#04555:0000000000000053
#04556:13
#0455b:13
#04652:00130013
#0465b:0013
#0475b:13
#04952:0000001300000000
#0495b:0000000000000013
#05052:00530000
#0505b:0000000063000053
#05056:0000000000000053
#05157:0013000000000000
#05152:0013000000005300
#05458:53
#05455:0053
#0545b:0053
#05655:53
#05652:0023
#05758:53
#0575b:0023
#06652:0000000053000063
#06657:0000000000000063
#0665b:00530000
#0675b:0013000000006300
#06756:0013000000000000
#07055:63
#07058:0063
#07052:0063
#07257:0000000000000053
#07452:53
#0745b:0063
#07552:53
#07652:00530033
#0765b:00000043
#07656:0023
#08452:00000013
#0845b:00000013
#08557:0000000000000013
#0855b:0013
#0865b:0013000000000000
#08657:0000001300000000
#08752:0013
#08756:0000000000000013
#08852:0013000000000000
#08856:0000001300000000
#0895b:0013
#08957:0000000000000013
#0905b:0013000000000000
#09057:0000001300000000
#09258:00000012
#00752:00000013
#0485b:0000000000000013
#06452:0000000000000013
#0625b:00130013
#06252:0013
#06352:13
#0655b:0000001300000000
#06552:0000000000000013
#000350:13
#000320:0053
#001350:33
#001320:0053
#002350:23
#004380:13
#0043b0:0053
#005380:33
#0053b0:0053
#006380:23
#007320:13230000
#0073b1:13230000
#0153b1:13230000
#015320:13230000
#0163b0:00000013
#017370:23
#016361:00000013
#017321:23
#019381:0013
#0193b1:00000023
#020321:00000013
#021361:23
#020370:00000013
#0213b0:23
#023360:00000013
#023340:0000000000000033
#024320:23
#024320:0013
#025360:23
#0253b0:0013
#025370:00000023
#026320:1323
#026360:00330000
#027370:13
#0273b0:0000002300000000
#027360:0013
#027320:00000023
#027371:00000013
#027391:0000000000000033
#0283b1:23
#028361:0013
#029321:23
#029371:0013
#0293b1:00000023
#030371:1300002300000000
#0303b1:00000053000000000000000000000000
#030320:1300002300000000
#030360:00000053000000000000000000000000
#0323a0:0012
#0333a0:22
#034320:0012
#035360:22
#0363b0:13
#036370:0000002300000000
#036321:0000001300000000
#036361:00000023
#037321:00000013
#038361:00000000005300000000000000000000
#038321:0000000000000023
#0403b1:0000001300002300
#040371:00000000000000000053000000000000
#041381:0000000000000013
#0423b1:0023000000000000
#043321:1323
#043341:0033003300000000
#043361:00330000
#044321:0000001300002300
#044361:00000000000000000053000000000000
#045351:0000000000000013
#046321:00230000
#050321:00130000
#050361:000000000000000000000000000000000000000000000000000000000000000000000000000000000000000000000000000000000000000000000000000000000000000000000000000000000000000000000000000000000000000000000000000000000000000000000000000000000000000000000000000000000000000000000000000000000000000000000000000000000000000000000000000000000000000000000000000000000000000000000000000000000000000000000000000000000000000000000000000000000000000000000000000000000000000000000000000000000000000000000000000000000000000000000000000000000000000000000000000000000000000000000000000000000000000000000000000000000000000000000000000000000000000000000000000000000000000000000000000000000000000000000000000000000000000000000000000000000000000000000000000000000000000000000000000000000000000000000000000000000000000000000000000000000000000000000000000000000000000000000053000000000000000000000000000000000000000000000000000000000000000000000000000000000000000000000000000000000000000000000000230000000000000000000000000000000000000000000000000000000000000000000000000000000000000000000000000000000000000000000000000000000000000000000000000000000000000000000000000000000000000000000000000000000000000000000000000000000000000000000000000000000000000000000000000000000000000000000000000000000000000000000000000000000000000000000000000000000000000000000000000000000000000000000000000000000000000000000000000000000000000000000000000000000000000000000000000000000000000000000000000000000000000000000000000000000000000000000000000000000000000000000000000000000000000000000000000000000000000000000000000000000000000000000000000000000000000000000000000000000000000000000000000000000000000000000000000000000000000000000000000000000000000000000000000000000000000000000000000000000000000000000000000000000000000000000000000000000000000000000000000000000000000000000000000000000000000000000000000000000000000000000000000000000000000000000000000000000000000000000000
#050341:00000000000000570000000000000000
#0503b0:0013
#050370:000000000000000000000000000000000000000000000000000000000000000000000000000000000000000000000000000000000000000000000000000000000000000000000000000000000000000000000000000000000000000000000000000000000000000000000000000000000000000000000000000000000000000000000000000000000000000000000000000000000000000000000000000000000000000000000000000000000000000000000000000000000000000000000000000000000000000000000000000000000000000000000000000000000000000000000000000000000000000000000000000000000000000000000000000000000000000000000000000000000000000000000000000000000000000000000000000000000000000000000000000000000000000000000000000000000000000000000000000000000000000000000000000000000000000000000000000000000000000000000000000000000000000000000000000000000000000000000000000000000000000000000000000000000000000000000000000000000000000000000000000000000000000000000000000000000000000000000000000000000000000000000000000000000000000000000000000000000000000000000000000000000000000000000000000000000000000000000000000000000000000000000000000000000000000000000000000000000000000000000000000000000000000000000000000000000000000000000000000000000000000000000000000000000000000000000000000000000000000000000000000000000000000000000000000000000000000000000000000000000000000000000000000000000000000000000000000000000000000000000053000000000000000000000000000000000000000000000000000000000000000000000000000000000000000000000000000000000000000000000000230000000000000000000000000000000000000000000000000000000000000000000000000000000000000000000000000000000000000000000000000000000000000000000000000000000000000000000000000000000000000000000000000000000000000000000000000000000000000000000000000000000000000000000000000000000000000000000000000000000000000000000000000000000000000000000000000000000000000000000000000000000000000000000000000000000000000000000000000000000000000000000000000000000000000000000000000000000000000000000000
#050350:00000000000000000000005700000000
#050360:0000000000000013
#051320:0023000000000000
#0503b1:0000000000000013
#051371:0023000000000000
#051321:00000013
#052361:23
#054381:13
#0543b1:0000002300000000
#054351:0013
#054321:00000023
#0543b0:0013
#054380:00000023
#056350:13
#056320:0053
#057350:23
#057381:13
#0573b1:0053
#058381:23
#0603b1:0000001300002300
#060371:00000000000000000053000000000000
#060360:0000001300002300
#060320:00000000000000000053000000000000
#061380:0000000000000013
#0623b0:00230000
#0663b0:00130000
#066370:000000000000000000000000000000000000000000000000000000000000000000000000000000000000000000000000000000000000000000000000000000000000000000000000000000000000000000000000000000000000000000000000000000000000000000000000000000000000000000000000000000000000000000000000000000000000000000000000000000000000000000000000000000000000000000000000000000000000000000000000000000000000000000000000000000000000000000000000000000000000000000000000000000000000000000000000000000000000000000000000000000000000000000000000000000000000000000000000000000000000000000000000000000000000000000000000000000000000000000000000000000000000000000000000000000000000000000000000000000000000000000000000000000000000000000000000000000000000000000000000000000000000000000000000000000000000000000000000000000000000000000000000000000000000000000000000000000000000000000000053000000000000000000000000000000000000000000000000000000000000000000000000000000000000000000000000000000000000000000000000230000000000000000000000000000000000000000000000000000000000000000000000000000000000000000000000000000000000000000000000000000000000000000000000000000000000000000000000000000000000000000000000000000000000000000000000000000000000000000000000000000000000000000000000000000000000000000000000000000000000000000000000000000000000000000000000000000000000000000000000000000000000000000000000000000000000000000000000000000000000000000000000000000000000000000000000000000000000000000000000000000000000000000000000000000000000000000000000000000000000000000000000000000000000000000000000000000000000000000000000000000000000000000000000000000000000000000000000000000000000000000000000000000000000000000000000000000000000000000000000000000000000000000000000000000000000000000000000000000000000000000000000000000000000000000000000000000000000000000000000000000000000000000000000000000000000000000000000000000000000000000000000000000000000000000000000000000000000000000000000
#066350:00000000000000570000000000000000
#066321:0013
#066361:000000000000000000000000000000000000000000000000000000000000000000000000000000000000000000000000000000000000000000000000000000000000000000000000000000000000000000000000000000000000000000000000000000000000000000000000000000000000000000000000000000000000000000000000000000000000000000000000000000000000000000000000000000000000000000000000000000000000000000000000000000000000000000000000000000000000000000000000000000000000000000000000000000000000000000000000000000000000000000000000000000000000000000000000000000000000000000000000000000000000000000000000000000000000000000000000000000000000000000000000000000000000000000000000000000000000000000000000000000000000000000000000000000000000000000000000000000000000000000000000000000000000000000000000000000000000000000000000000000000000000000000000000000000000000000000000000000000000000000000000000000000000000000000000000000000000000000000000000000000000000000000000000000000000000000000000000000000000000000000000000000000000000000000000000000000000000000000000000000000000000000000000000000000000000000000000000000000000000000000000000000000000000000000000000000000000000000000000000000000000000000000000000000000000000000000000000000000000000000000000000000000000000000000000000000000000000000000000000000000000000000000000000000000000000000000000000000000000000000000053000000000000000000000000000000000000000000000000000000000000000000000000000000000000000000000000000000000000000000000000230000000000000000000000000000000000000000000000000000000000000000000000000000000000000000000000000000000000000000000000000000000000000000000000000000000000000000000000000000000000000000000000000000000000000000000000000000000000000000000000000000000000000000000000000000000000000000000000000000000000000000000000000000000000000000000000000000000000000000000000000000000000000000000000000000000000000000000000000000000000000000000000000000000000000000000000000000000000000000000000
#066341:00000000000000000000005700000000
#066371:0000000000000013
#0673b1:0023000000000000
#066320:0000000000000013
#067360:0023000000000000
#0673b0:00000013
#068370:23
#070350:13
#070320:0000002300000000
#070380:0013
#0703b0:00000023
#070321:0013
#070351:00000023
#072371:0000000000000013
#0733b1:00330033
#073371:0033
#074371:23
#074320:13
#074360:0023
#0743b1:0013
#075371:23
#075320:13
#075360:0023
#076320:00130023
#076360:0053
