This file was generated by Ched 2.7.0.0.
#TITLE ""
#ARTIST ""
#DESIGNER ""
#DIFFICULTY 0
#PLAYLEVEL
#SONGID ""
#WAVE ""
#WAVEOFFSET 0
#JACKET ""
#REQUEST "ticks_per_beat 480"
#00002: 4
#BPM01: 188
#00008: 01
#TIL00: ""
#HISPEED 00
#MEASUREHS 00
#00018:1313
#00015:0000001300000000
#00012:0000000000000013
#0011b:0013000000000000
#00115:0000001300000000
#00118:0013
#00215:00130000
#00218:0013
#0021b:00000013
#00212:13
#00315:13
#0031b:0013001300000000
#00312:0000001300130000
#00318:00000013
#00715:0013
#00718:0000000000130000
#00716:14
#0071a:00140000
#00712:00000013
#00818:0000001300000000
#0081b:2300000000000013
#00815:00130000
#00812:2313
#00810:41
#00915:0013000000000000
#00918:0000001300000000
#00912:0013
#01612:13131300
#01618:0013001300000000
#0161b:00000013
#01610:41
#01815:1313
#0181b:00130000
#01818:00000013
#01918:0000001300000000
#01915:0013
#01912:13
#02312:0000001300000000
#02318:00001313
#02315:0000000000130013
#0231b:13
#0241b:13
#02415:00130000
#02418:0000001300000000
#02412:0013
#02410:41
#02612:00130000
#0261b:0000000000130000
#02615:13000013
#02618:0000000000000013
#02718:0000000013000013
#02712:13
#02715:00000013
#0311b:1313
#03115:1300000000130000
#03112:0000130000000013
#03118:00130013
#0321b:13
#0321f:11
#03317:0012
#03318:00000012
#03316:00120000
#03415:12
#03419:12
#03418:0012
#03414:0012
#03912:00130000
#03918:0013
#03915:00000013
#04118:0000130000000013
#0411b:0000000000130000
#04115:0000001300001300
#04112:23
#04110:41
#04215:00130013
#04218:0000001300130000
#0421b:0000000000000013
#04212:0013
#0431b:0000000000130000
#04315:00000013
#04318:0000000000000013
#04312:1414
#0431a:0014001400000000
#04316:00140000
#04618:0013
#04615:00000013
#0471b:13
#04712:0000001300000013
#04718:00001313
#04715:0000000000130000
#0481b:0013000000000013
#04815:00130013
#04818:0000001300130000
#04812:0013
#04912:0013000000000000
#04918:0000130000000013
#04915:0000001300001300
#0491b:0000000000130000
#05015:0013000000000000
#0501b:0000000000000013
#05112:0000001300000000
#05118:0013
#05115:0000000000130000
#0511b:00000013
#05518:13130000
#05512:0000130000230000
#0551b:0000002300230000
#05515:0000002300000000
#05815:0000130000130000
#0581b:0013
#05818:00000013
#05812:0000000000000013
#07118:0000000000130000
#07112:00000013
#07115:1300001300000000
#0711b:00130000
#07215:13000013
#07212:0013
#07218:0000000000130000
#0721b:1300000000000013
#07210:41
#07515:0000000000000013
#0751b:0000000000000013
#08418:00001323
#08415:0000000000130000
#08414:24
#08412:00240000
#01712:0013
#01718:00000013
#02512:00130000
#02518:0000001300000013
#02515:0013
#0251b:13
#0351a:12
#03515:0013
#03512:00000013
#03516:12
#0351b:0023
#03518:00000023
#03712:13000013
#03714:00130000
#03716:0013
#03717:23000023
#03719:00230000
#0371b:0023
#0381b:00000000001300000000000000000000
#03816:00000000001300000000000000000000
#04015:00130000
#04018:0000001300000000
#0401b:23
#0401f:21
#05315:00000013
#05318:2313
#0531b:00230023
#05312:0023
#05415:0000001300000013
#05418:1313
#0541b:0000001300000000
#05412:2313
#00415:1313
#00418:0000001300000000
#0041b:0000000000000013
#00518:0000001300000000
#00515:0013
#00512:0013000000000000
#0061a:00140000
#00616:0014
#00612:00000014
#01012:1300000000000013
#01015:0000001300000000
#01018:00130000
#0101b:1313
#01118:0013000000000000
#01115:0000001300000000
#0111b:0013
#0121b:1300000000000013
#01218:0000001300000000
#01215:00130000
#01212:1313
#01315:0013000000000000
#01318:0000001300000000
#01312:0013
#01518:0013
#01515:0000000000130000
#01516:14
#01512:00140000
#0151b:00000013
#01412:00140000
#01416:0014
#0141a:00000014
#0201b:13131300
#02015:0013001300000000
#02012:00000013
#02218:1313
#02212:00130000
#02215:00000013
#0211b:0013
#02115:00000013
#03015:00000013000000000000000013000000
#03012:13
#03018:0013
#02812:13
#02818:00130000
#02815:0000001300000000
#0281b:0013
#0291b:00130000
#02915:0000001300000000
#02918:0013
#02912:13
#03615:13
#03618:0000001300000000
#03612:0000001300000000
#0361b:23
#04515:0000130000000013
#04512:0000000000130000
#04518:0000001300001300
#0451b:23
#04418:00130000
#04415:0000001300000000
#04412:23
#0631b:0000001300000013
#06315:00001313
#06318:0000000000130000
#06312:23
#06412:0013000000000013
#06418:00130013
#06415:0000001300130000
#0641b:0013
#0651b:0013000000000000
#06515:0000130000000023
#06512:0000000000130000
#06518:0000002300001300
#06618:0013000024000000
#06612:0000000000000013
#06614:00240000
#06118:0000130000000013
#0611b:0000000000130000
#06115:0000001300001300
#06112:24
#06015:00130000
#06018:0000001300000000
#0601a:24
#06010:41
#0671b:0000001300000000
#06715:0023000013000000
#06718:0000000000130000
#06712:00000013
#06918:00000013
#06915:2313
#06912:00230023
#0691b:0023
#07018:0000001300000013
#07015:1313
#07012:0000001300000000
#0701b:2313
#07312:0013
#07612:0013000000000000
#0761b:00130000
#07615:00230000
#07618:0023000000000000
#07715:0000001300000000
#07712:23000013
#07718:0000130000000013
#0771b:2313
#0781b:0013000000000000
#07818:0000001300001300
#07815:1313
#07812:00130000
#07918:0000001300000000
#0791b:23000013
#07915:0000130000000013
#07912:2313
#08012:0013000000000000
#08015:0000001300001300
#08018:1313
#0801b:00130000
#08115:0000001300000000
#08112:23000013
#08118:0000130000000013
#0811b:2313
#0821b:0013000000000000
#08218:0000001300001300
#08215:1313
#08212:00130000
#08518:0000001300001300
#08515:0000130000000013
#08512:2313
#0851b:23
#08612:0013000000000000
#08615:0000001300001300
#0861b:1313
#08618:00130000
#08715:0000001300001300
#08718:0000130000000013
#0871b:2313
#08712:23
#0881b:0013000000000000
#08818:0000001300001300
#08812:1313
#08815:00130000
#08918:0000001300001300
#08915:0000130000000013
#08912:2313
#0891b:23
#09012:0013000000000000
#09015:0000001300001300
#0901b:1313
#09018:00130000
#0571b:13
#05715:13
#05612:13
#05618:23
#0591a:24
#05914:00240000
#05918:0024
#05912:00000024
#05212:0023
#05215:00000023
#0831b:23
#08312:23
#0831a:00240000
#08318:0024
#08316:00000024
#09112:23
#0911b:23
#0911a:00220000
#09116:0022
#09119:00000022
#09215:22
#09218:00220000
#09214:00002222
#09217:0000000000220000
#0621b:00230000
#06215:0023
#06218:00000023
#0681b:0023
#06818:00000023
#0165b:00000053
#01952:13
#01955:0063
#01758:13
#02452:0053
#02555:0053
#02655:53
#02652:00530000
#02752:53
#0385b:00000000002300000000000000000000
#03856:00000000002300000000000000000000
#04058:0000006300000000
#0405b:13
#04158:0000000000000053
#04152:13
#04658:0013
#04655:00000013
#04652:00130000
#0475b:13
#04955:0000001300000000
#04958:0000000000000013
#0505b:0000000000000063
#05158:0013000000000000
#0515b:00000063
#0605a:14
#06058:0000006300000000
#08458:00000013
#00752:00000013
#00952:0013
#0115b:0013
#01352:0013
#0155b:00000013
#02052:00000063
#0235b:13
#02155:13
#03052:53
#03055:00000023000000000000000000000000
#0285b:0063
#02958:0063
#0365b:53
#03655:53
#03658:0000005300000000
#03652:0000005300000000
#03752:00000053
#03757:00000053
#04555:0000000000000063
#0455b:13
#04455:0000005300000000
#04452:13
#06652:0000000000000053
#06158:0000000000000053
#06152:14
#0625b:00130000
#06255:0013
#06258:00000013
#06352:13
#06755:0013000000000000
#06752:00000053
#06558:0000001300000000
#06555:0000000000000013
#0725b:0000000000000063
#07352:0063
#07655:00630000
#0765b:00630000
#07652:00000013
#07658:00000013
#0865b:0013
#08552:0013
#0875b:0013
#08852:0013
#08952:0013
#0905b:0013
#0575b:53
#05755:53
#05652:53
#05658:53
#0485b:0000000000000013
#06452:0000000000000013
#0163b0:00000013
#017380:23
#019350:0013
#019320:00000023
#020320:00000013
#021350:23
#024320:0013
#024350:00000023
#025350:0013
#025320:00000023
#026350:1323
#026320:00330000
#027320:13
#027350:0000002300000000
#0283b0:0013
#028380:00000023
#029380:0013
#0293b0:00000023
#030320:1300002300000000
#030350:00000053000000000000000000000000
#032350:0012
#033350:22
#036350:13000023
#036320:0000003300000000
#0363b1:13000023
#036381:0000003300000000
#037371:00000013
#0383b1:00000000005300000000000000000000
#038371:0000000000000023
#037320:00000013
#038360:00000000005300000000000000000000
#038320:0000000000000023
#040380:0000001300000000
#0403b0:00000023
#041380:0000000000000013
#0423b0:0023000000000000
#044350:0000001300000000
#044320:00000023
#045350:0000000000000013
#046320:00230000
#050380:000000000000000000000000000000000000000000000000000000000000000000000000000000000000000000000000000000000000000000000000000000000000000000000000000000000000000000000000000000000000000000000000000000000000000000000000000000000000000000000000000000000000000000000000000000000000000000000000000000000000000000000000000000000000000000000000000000000000000000000000000000000000000000000000000000000000000000000000000000000000000000000000000000000000000000000000000000000000000000000000000000000000000000000000000000000000000000000000000000000000000000000000000000000000000000000000000000000000000000000000000000000000000000000000000000000000000000000000000000000000000000000000000000000000000000000000000000000000000000000000000000000000000000000000000000000000000000000000000000000000000000000000000000000000000000000000000000000000000000000000000000000000000000000000000000000000000000000000000000000000000000000000000000000000000000000000000000000000000000000000140000000000000000000000000000000000000000000000000000000000000000000000000000000000000000000000000000000000000000000000000000000000000000000000000000000000000000000000000000000000000000000000000000000000000000000000000000000000000000000000000000000000000000000000000000000000000000000000000000000000000000000000000000000000000000000000000000000000000000000000000000000000000000000000000000000000000000000000000000000000000000000000000000000000000000000000000000000000000000000000000000000000000000000000000000000000000000000000000000000000000000000000000000000000000000000000000000000000000000000000000000000000000000000000000000000000000000000000000000000054000000000000000000000000000000000000000000000000000000000000000000000000000000000000000000000000000000000000000000000000000000000000000000000000000000000000000000000000000000000000000000000000000000000000000000000000000000000000000000000000000000000000000000000000000000000000000000000000000000000000000000000000000000000000000000000000000000000000000000000000000000000000000000000000000000000000000000000000000000000000000000000000000000000000000000000000000000000000000000000000000000000000000000000000000000000000000000000000000000000000000000000000000000000000000000000000000000000000000000000000000000000000000000000000000000000000000000000000000000000000000000000000000000000000000000000000000000000000000000000000000000000000000000000000000000000000000000000000000000000000000000000000000000000000000000000000000000000000000000000000000000000000000000000000000000000000000000000000000000000000000000000000000000000000000000000000000000000000000000000000000000000000000000000000000000000000000000000000000000000000000000000000000000000000000000000000000000000000000000000000000000000000000000000000000000000000000000000000000000000000000000000000000000000000000000000000000000000000000000000000000000000000000000000000000000000000000000000000000000000000000000000000000000000000000000000000000000000000000000000000000000000000000000000000000000000000000000000000000000000000000000000000000000000000000000000000000000000000000000000000000000000000000000000000000000000000000000000000000000000000000000000000000000000000000000000000000000000000000000000000000000000000000000000000000000000000000000000000000000000000000000000000000000000000000000000000000000000000000000000000000000000000000000000000000000000000000000000000000000000000000000000000000000000000000000000000000000000000000000000000000000000000000000000000000000000000000000000000000000000000000000000000000000000000000000000000000000000000000000000000000000000000000000000000000000000000000000000000000000000000000000000000000000000000000000000000000000000000000000000000000000000000000000000000000000000000000000000000000000000000000000000000000000000000000000000000000000000000000000000000000000000000000000000000000000000000000000000000000000000000
#050370:00000000000000000000000000000000000000000000000000000056000000000000000000000000000000000000000000000000000000000000000000000000
#050390:0022
#050341:000000000000000000000000000000000000000000000000000000000000000000000000000000000000000000000000000000000000000000000000000000000000000000000000000000000000000000000000000000000000000000000000000000000000000000000000000000000000000000000000000000000000000000000000000000000000000000000000000000000000000000000000000000000000000000000000000000000000000000000000000000000000000000000000000000000000000000000000000000000000000000000000000000000000000000000000000000000000000000000000000000000000000000000000000000000000000000000000000000000000000000000000000000000000000000000000000000000000000000000000000000000000000000000000000000000000000000000000000000000000000000000000000000000000000000000000000000000000000000000000000000000000000000000000000000000000000000000000000000000000000000000000000000000000000000000000000000000000000000000000000000000000000000000000000000000000000000000000000000000000000000000000000000000000000000000000000000000000000000000000000000000000000000000000000000000000000000000000000000000000000000000000000000000000000000000000000000000000000000000000000000000000000000000000000000000000000000000000000000000000000000000000000000000000000000000000000000000000000000000000000000000000000000000000000000000000000000000000000000000000000000000000000000000000000000000000000000000000000000000000000000000000000000000000000000000000000000000000000000000000000000000000000000000000000000000000000000000000000000000000000000000000000000000000000000000000000000000000000000000000000000000000000000000000000000000000000000000000000000000000000000000000000000000000000000000000000000000000000000000000000000000000000000000000000000000000000000000000000000000000000000000000000000000000000000000000000000000000000000000000000000000000000000000000000000000000000000000000000000000000000000000000000000000000000000000000000000000000000000000000000000000000000000000000000000000000000000000000000000000000140000000000000000000000000000000000000000000000000000000000000000000000000000000000000000000000000000000000000000000000000000000000000000000000000000000000000000000000000000000000000000000000000000000000000000000000000000000000000000000000000000000000000000000000000000000000000000000000000000000000000000000000000000000000000000000000000000000000000000000000000000000000000000000000000000000000000000000000000000000000000000000000000000000000000000000000000000000000000000000000000000000000000000000000000000000000000000000000000000000000000000000000000000000000000000000000000000000000000000000000000000000000000000000000000000000000000000000000000000000054000000000000000000000000000000000000000000000000000000000000000000000000000000000000000000000000000000000000000000000000000000000000000000000000000000000000000000000000000000000000000000000000000000000000000000000000000000000000000000000000000000000000000000000000000000000000000000000000000000000000000000000000000000000000000000000000000000000000000000000000000000000000000000000000000000000000000000000000000000000000000000000000000000000000000000000000000000000000000000000000000000000000000000000000000000000000000000000000000000000000000000000000000000000000000000000000000000000000000000000000000000000000000000000000000000000000000000000000000000000000000000000000000000000000000000000000000000000000000000000000000000000000000000000000000000000000000000000000000000000000000000000000000000000000000000000000000000000000000000000000000000000000000000000000000000000000000000000000000000000000000000000000000000000000000000000000000000000000000000000000000000000000000000000000000000000000000000000000000000000000000000000000000000000000000000000000000000000000000000000000000000000000000000000000000000000000000000000000000000000000000000000000000000000000000000000000000000000000000000000000000000000000000000000000000000000000000000000000000000000000
#050331:00000000000000000000000000000000000000000000000000000000000000000000000000000000000000560000000000000000000000000000000000000000
#050351:00000022
#0503b1:0000000000000013
#051381:0023000000000000
#0513b1:00000013
#052381:23
#056381:13
#0573b1:33
#058381:23
#056320:13
#057350:33
#058320:23
#060380:0000001300000000
#0603b0:00000023
#061380:0000000000000013
#0623b0:00230000
#066340:000000000000000000000000000000000000000000000000000000000000000000000000000000000000000000000000000000000000000000000000000000000000000000000000000000000000000000000000000000000000000000000000000000000000000000000000000000000000000000000000000000000000000000000000000000000000000000000000000000000000000000000000000000000000000000000000000000000000000000000000000000000000000000000000000000000000000000000000000000000000000000000000000000000000000000000000000000000000000000000000000000000000000000000000000000000000000000000000000000000000000000000000000000000000000000000000000000000000000000000000000000000000000000000000000000000000000000000000000000000000000000000000000000000000000000000000000000000000000000000000000000000000000000000000000000000000000000000000000000000000000000000000000000000000000000000000000000000000000000000000000000000000000000000000000000000000000000000000000000000000000000000000000000000000000000000000000000000000000000000000140000000000000000000000000000000000000000000000000000000000000000000000000000000000000000000000000000000000000000000000000000000000000000000000000000000000000000000000000000000000000000000000000000000000000000000000000000000000000000000000000000000000000000000000000000000000000000000000000000000000000000000000000000000000000000000000000000000000000000000000000000000000000000000000000000000000000000000000000000000000000000000000000000000000000000000000000000000000000000000000000000000000000000000000000000000000000000000000000000000000000000000000000000000000000000000000000000000000000000000000000000000000000000000000000000000000000000000000000000000054000000000000000000000000000000000000000000000000000000000000000000000000000000000000000000000000000000000000000000000000000000000000000000000000000000000000000000000000000000000000000000000000000000000000000000000000000000000000000000000000000000000000000000000000000000000000000000000000000000000000000000000000000000000000000000000000000000000000000000000000000000000000000000000000000000000000000000000000000000000000000000000000000000000000000000000000000000000000000000000000000000000000000000000000000000000000000000000000000000000000000000000000000000000000000000000000000000000000000000000000000000000000000000000000000000000000000000000000000000000000000000000000000000000000000000000000000000000000000000000000000000000000000000000000000000000000000000000000000000000000000000000000000000000000000000000000000000000000000000000000000000000000000000000000000000000000000000000000000000000000000000000000000000000000000000000000000000000000000000000000000000000000000000000000000000000000000000000000000000000000000000000000000000000000000000000000000000000000000000000000000000000000000000000000000000000000000000000000000000000000000000000000000000000000000000000000000000000000000000000000000000000000000000000000000000000000000000000000000000000000000000000000000000000000000000000000000000000000000000000000000000000000000000000000000000000000000000000000000000000000000000000000000000000000000000000000000000000000000000000000000000000000000000000000000000000000000000000000000000000000000000000000000000000000000000000000000000000000000000000000000000000000000000000000000000000000000000000000000000000000000000000000000000000000000000000000000000000000000000000000000000000000000000000000000000000000000000000000000000000000000000000000000000000000000000000000000000000000000000000000000000000000000000000000000000000000000000000000000000000000000000000000000000000000000000000000000000000000000000000000000000000000000000000000000000000000000000000000000000000000000000000000000000000000000000000000000000000000000000000000000000000000000000000000000000000000000000000000000000000000000000000000000000000000000000000000000000000000000000000000000000000000000000000000000000000000000000000000000000000000
#066330:00000000000000000000000000000000000000000000000000000056000000000000000000000000000000000000000000000000000000000000000000000000
#066350:0022
#066381:000000000000000000000000000000000000000000000000000000000000000000000000000000000000000000000000000000000000000000000000000000000000000000000000000000000000000000000000000000000000000000000000000000000000000000000000000000000000000000000000000000000000000000000000000000000000000000000000000000000000000000000000000000000000000000000000000000000000000000000000000000000000000000000000000000000000000000000000000000000000000000000000000000000000000000000000000000000000000000000000000000000000000000000000000000000000000000000000000000000000000000000000000000000000000000000000000000000000000000000000000000000000000000000000000000000000000000000000000000000000000000000000000000000000000000000000000000000000000000000000000000000000000000000000000000000000000000000000000000000000000000000000000000000000000000000000000000000000000000000000000000000000000000000000000000000000000000000000000000000000000000000000000000000000000000000000000000000000000000000000000000000000000000000000000000000000000000000000000000000000000000000000000000000000000000000000000000000000000000000000000000000000000000000000000000000000000000000000000000000000000000000000000000000000000000000000000000000000000000000000000000000000000000000000000000000000000000000000000000000000000000000000000000000000000000000000000000000000000000000000000000000000000000000000000000000000000000000000000000000000000000000000000000000000000000000000000000000000000000000000000000000000000000000000000000000000000000000000000000000000000000000000000000000000000000000000000000000000000000000000000000000000000000000000000000000000000000000000000000000000000000000000000000000000000000000000000000000000000000000000000000000000000000000000000000000000000000000000000000000000000000000000000000000000000000000000000000000000000000000000000000000000000000000000000000000000000000000000000000000000000000000000000000000000000000000000000000000000000000000000140000000000000000000000000000000000000000000000000000000000000000000000000000000000000000000000000000000000000000000000000000000000000000000000000000000000000000000000000000000000000000000000000000000000000000000000000000000000000000000000000000000000000000000000000000000000000000000000000000000000000000000000000000000000000000000000000000000000000000000000000000000000000000000000000000000000000000000000000000000000000000000000000000000000000000000000000000000000000000000000000000000000000000000000000000000000000000000000000000000000000000000000000000000000000000000000000000000000000000000000000000000000000000000000000000000000000000000000000000000054000000000000000000000000000000000000000000000000000000000000000000000000000000000000000000000000000000000000000000000000000000000000000000000000000000000000000000000000000000000000000000000000000000000000000000000000000000000000000000000000000000000000000000000000000000000000000000000000000000000000000000000000000000000000000000000000000000000000000000000000000000000000000000000000000000000000000000000000000000000000000000000000000000000000000000000000000000000000000000000000000000000000000000000000000000000000000000000000000000000000000000000000000000000000000000000000000000000000000000000000000000000000000000000000000000000000000000000000000000000000000000000000000000000000000000000000000000000000000000000000000000000000000000000000000000000000000000000000000000000000000000000000000000000000000000000000000000000000000000000000000000000000000000000000000000000000000000000000000000000000000000000000000000000000000000000000000000000000000000000000000000000000000000000000000000000000000000000000000000000000000000000000000000000000000000000000000000000000000000000000000000000000000000000000000000000000000000000000000000000000000000000000000000000000000000000000000000000000000000000000000000000000000000000000000000000000000000000000000000000000
#066371:00000000000000000000000000000000000000000000000000000000000000000000000000000000000000560000000000000000000000000000000000000000
#066391:00000022
#066321:0000000000000013
#067351:0023000000000000
#067321:00000013
#068351:23
#0723b1:0000000000000013
#073381:00230000
#073321:0013
#073351:00000023
#074361:13
#074321:0033
#075361:33
#075321:0023
#0743b0:13
#074370:0033
#0753b0:33
#075370:0023
#0763b0:00130000
#076380:00000023
#076351:00130000
#076321:00000023
