This file was generated by Ched 2.7.0.0.
#TITLE ""
#ARTIST ""
#DESIGNER ""
#DIFFICULTY 0
#PLAYLEVEL
#SONGID ""
#WAVE ""
#WAVEOFFSET 0
#JACKET ""
#REQUEST "ticks_per_beat 480"
#00002: 4
#BPM01: 188
#00008: 01
#TIL00: ""
#HISPEED 00
#MEASUREHS 00
#0001b:1300000013000013
#00018:0000001300000000
#00015:00130000
#00012:13001313
#00016:0000000000000013
#0011b:0013001300000000
#00112:00131300
#00116:0013000000000000
#00216:00001414
#00212:00000013
#00218:1300000000000023000000000000000000000000000000000000000000000000
#0021b:0013
#00215:00130000
#0031b:1300001313000000
#00318:00001300001300000000130000000000
#00312:0000001300000013
#00315:00130013
#00316:13
#0081b:2300001313001300
#00819:0000000000000013
#00814:0000000000130013
#00818:00130000
#00816:00000013
#00812:23
#00810:41
#0091b:0013000013001300
#00917:0000001300000013
#00915:0000000000130000
#00918:00000000000000000000001300000000
#00914:0013000000000000
#00912:1300000000000013
#0161b:1313
#01619:0013001300000000
#01617:00130013
#01612:13131313
#01610:41
#0171b:0000001313000013
#01718:00130013
#01712:1313
#01715:0013000000130000
#01812:13131313
#01818:0013000000000000
#0181b:13130013
#01817:0013
#01819:0000000000130013
#01917:13
#01912:13
#02318:0000001313000014
#02316:13000014
#0231b:1300130000130000
#02312:0000130000130000
#02315:00000000000000130000000000000000
#0231a:00000014
#02314:0000000000000014
#02419:0000001300000013
#02412:14131300
#02416:14000013
#0241b:00130013
#02417:0013
#02410:41
#02517:1300130000000013
#02512:00130013
#02514:0000001300000000
#02516:0013
#0251b:0013000013000000
#02615:0000000000130013
#0261b:0013130000001300
#02612:1300001313001300
#02617:1300003300000000
#02616:0033000000000000
#02712:1300001313000000
#02717:13
#0271b:00000013000000001300000000000000
#02716:0000000000130000
#02715:00130000
#03017:0033000000001300
#03012:0013130000001300
#0301b:1300001313000000
#03016:1300003300140014
#0311b:1313
#03117:00130000
#03115:0000000013160016
#03118:00000013
#03116:1314000000000000
#03112:00130013
#0321b:13
#03212:13220022
#03218:0012
#0321f:11
#03318:0012
#0331a:00000012
#03316:00120000
#03312:00220022
#03616:14000014000014000000000000000000
#03612:00000000140000000014000000000000
#0361a:2400000000242400
#03915:00120000
#03917:0012
#03919:00000012
#04018:0000000013000013
#04015:0000001300001300
#04012:2500130000190000
#0401b:00130000
#04019:25
#0401f:21
#0411b:0000130013000013
#04116:0000141414000000
#04118:0000000000130000
#04115:00000013
#04112:2500001300000013
#04119:25
#04110:41
#04214:0013001300130013
#04216:00130013
#04212:1313
#04712:1400001300001300
#04715:00000000000000001300001300001300
#04718:00000000000000000000130000000013
#0471b:0000001300001300
#04716:00140000
#04817:0013000000000000
#04819:00130000
#0481b:1300001300000013
#04816:0000000013000013
#04814:0000000000130000
#04812:13000013
#0501b:0013000000000013
#05015:0013000000000000
#05016:1400000000000013
#05018:00121200
#05012:00121213
#05017:00000013
#0511b:0000001300000000
#05118:0013
#05115:0000000000130000
#05117:13
#05112:13000013
#05116:0000000000000013
#05212:1326
#05218:00001326
#05216:0000000000140014
#05215:00000013
#05318:13261326
#05315:00130013
#05316:0014001400140014
#05312:2626
#0721b:1300000013000013
#07218:0000000000130000
#07215:00000013
#07212:1300000000000013
#07210:41
#0761b:0013000000001300
#07616:0024240000000000
#07612:00230000
#0771b:2300000000000013
#07712:23131313
#07715:0000000000130000
#07718:00000000000000000000001300000000
#07817:13130000
#0781b:0013000013000000
#07812:13131313
#07815:0000000000130016
#07818:00000000000000000000001300000000
#01012:1300001313001300
#0101b:13
#01014:0000000000000013
#01019:0000000000130013
#01015:00130000
#01017:00000013
#0121b:1300001313001300
#01212:13
#01219:0000000000000013
#01214:0000000000130013
#01218:00130000
#01216:00000013
#01412:13130013
#0141b:13131300
#01416:0000001300000013
#01417:0000000000130000
#01518:0000000000140000
#0151a:00000014
#01512:00130014
#0151b:13
#01517:0013000000000000
#01516:0000001314000000
#01514:0000000000140000
#02812:13130013
#02814:0000001300000013
#0281b:00131300
#02816:0013
#02817:00000013
#0341c:12
#03418:0012
#03414:0022
#03412:22
#03512:0014
#03514:00000014
#03516:2224
#03518:00000024
#03712:1414
#0371a:00140014
#03714:0014000000140000
#03718:0000001400000000
#03716:24242424
#05419:0000001300000000
#05414:0000000000130013
#05418:13
#05412:26130013
#05417:00130000
#0541b:0013
#05416:0013
#05619:2313
#05614:13131313
#05612:0013000000130000
#05616:0000001300000013
#05618:00130000
#0561a:00000013
#07512:0000000000000016
#07518:1313131316000000
#07515:00130013001300130000000000000000
#07516:0000000000160000
#07514:00000016
#08519:0000001300000000
#0851b:2313
#08512:2300000000001c14
#08517:00130000
#0861a:0014000000000000
#08612:1c001c141c001300
#08618:0000000000130000
#08616:0000000000000014
#08615:00000000000000000000001300000000
#0861b:00000013
#00412:1300000013000013
#00415:0013001300000000
#00418:00130000
#0041b:13001313
#00417:0000000000000013
#00416:0000000000140000
#00512:0013001300000000
#0051b:13131300
#00517:0013000000000000
#00615:1300000013130000
#00618:0000121213131415
#00616:0000121200000000
#00614:00000014
#00613:0000000000000015
#0071b:0013
#00712:0013
#00718:0000000000131313
#00715:00000000000000000000001300130013
#01116:0000001300000013
#0111b:1300000000000013
#01112:0013000013001300
#01118:0000000000130000
#01115:00000000000000000000001300000000
#01119:0013000000000000
#01317:0000001300000013
#01312:1300000000000013
#0131b:0013000013001300
#01315:0000000000130000
#01318:00000000000000000000001300000000
#01314:0013000000000000
#02014:0013001300000000
#02016:00130013
#02012:1313
#0201b:00131313
#02112:0000001313000013
#02115:00130013
#0211b:1313
#02118:0013000000130000
#0221b:13131313
#02215:0013000000000000
#02212:13130013
#02216:0013
#02214:0000000000130013
#02916:1300130000000013
#0291b:00130013
#02919:0000001300000000
#02917:0013
#02912:0013000013000000
#03812:1313000000000000
#03819:0000001313000000
#03815:0000000000001313
#0381b:2323000000000000
#03814:0000002323000000
#03818:0000000000002323
#04317:13131300
#0431b:0013001300130000
#04312:00000000000000000000001300000000
#04319:00000013
#04314:00000000000000000000000000130000
#04318:0000000000000013
#04316:00000000000000000000000000000013
#04512:2500130013000013
#04516:0000141414000000
#04515:0000000000130000
#04518:00000013
#0451b:0000001300000013
#04519:25
#0461b:13
#04616:14141414
#04619:0013000000130000
#04614:0000001300000013
#04912:0013001300000000
#04916:14131400
#0491b:0000000000130013
#04917:00000013
#05516:1300142400000000
#05512:00001400002c0000
#0551a:0000002400000000
#05714:0013
#05719:13131313
#0571b:0013000000130000
#05717:0000001300000013
#05715:00130000
#05713:00000013
#05814:13000012000000000000001200000000
#0581a:0012000000120000
#05815:00000000001200000012000000120000
#05818:0000001200000012
#05816:00000000000000120000000000000012
#05819:00222222
#0631b:0000001300001300
#06318:0000000013000013
#06315:00000000000000000000131600000016
#06312:2400001300001300
#06316:00140000
#0631a:24
#06416:0013000000000000
#06414:00130000
#06412:1300001300000013
#06417:0000000013000023
#06419:0000000000130000
#0641b:13000013
#06612:0013000000000013
#06618:0013000000000000
#06616:14222213
#06617:0000000000000013
#0661b:00000013
#0661c:00222200
#06015:0000001300160000
#06012:2600130000001613
#0601b:0000130000000013
#06018:2616
#06010:41
#0611b:0000130013000013
#06116:0000141414000000
#06118:2600000000130000
#06115:00000013
#06112:2600001300000013
#06216:14141414
#06214:0013000000130000
#06219:0000001300000013
#06212:1324
#0621a:00240024
#0651b:0013002300000000
#06517:00130000
#06516:14001413
#06512:0000000000130023
#06716:13
#0671b:13000013
#06712:0023001300000000
#06715:0013
#06718:0000000000130000
#06717:0023000000000013
#0681b:13000013
#06812:00001326
#06815:0000000000160016
#06818:0026
#06915:0016001600160016
#06912:13261326
#0691b:00130013
#06918:2626
#07014:0000001300000000
#07019:0000000000130013
#0701b:00130013
#07016:00130000
#07012:1313
#07017:0013
#07018:26
#07117:13
#0711a:00140000
#07116:0000141400141400
#07112:0000000000140000
#07412:1300130000131313
#07414:0000001300000000
#07416:0013
#07417:0000000000130000
#07419:00000013
#0741b:0000131313000013
#0731b:00130013
#07312:0013
#07912:2300000000000013
#0791b:23131313
#07918:0000000000130000
#07915:00000000000000000000001300000000
#08016:13130000
#08012:0013000013000000
#0801b:13131313
#08018:0000000000130000
#08015:00000000000000000000001300001600
#0811b:2300000000000013
#08112:23131313
#08115:0000000000130000
#08118:00000000000000000000001300000000
#08217:13130000
#0821b:0013000013000000
#08212:13131313
#08215:0000000000130016
#08218:00000000000000000000001300000000
#0831a:0000001400000000
#08318:0000000000140000
#08316:0000000000000014
#0831b:23
#08312:232c2c2c
#08414:0014000000000000
#08412:2c002c1400002400
#0841a:00001424
#08416:0000000000140000
#08714:0000001300000000
#08712:2300131c
#0871a:0000000000000014
#08716:00130000
#0871b:23
#08812:1c141c001c001300
#0881a:0000001400000000
#0881b:00000013
#08815:0000000000130000
#08816:0000000000000014
#08818:00000000000000000000001300000000
#08919:0000001300000000
#0891b:2313
#08912:2300000000001c14
#08917:00130000
#0901a:0014000000000000
#09012:1c001c141c001300
#09018:0000000000130000
#09016:0000000000000014
#09015:00000000000000000000001300000000
#0901b:00000013
#09113:00120000
#09115:0012
#09112:23
#0911b:23220000
#09119:0022
#09117:00000022
#09219:12
#0921b:00120000
#09215:22
#09213:00220000
#09217:0000000022220000
#09218:00000022
#09216:00000022
#04415:0000000013190013
#04418:0000001300001300
#0441b:00130000
#04412:25130000
#04419:25
#05912:2c2c2c2c
#0095b:0013
#0155a:00000014
#0155b:63430000
#01557:0023000000000000
#01552:33533314
#01556:0000002300000000
#01657:00000053
#01952:13
#0175b:13
#02452:0053
#02457:0013
#02456:00000023
#0255b:0053
#02556:0013
#02652:53
#0265b:00630000
#02757:53
#02752:0053
#0275b:00000023000000001300000000000000
#02756:0000000000230000
#03458:0052
#0365a:54
#03656:00000024000054000000000000000000
#03652:00000000000000000024000000000000
#0505b:0000000000000053
#05056:0000000000000053
#05058:00525200
#05052:00525200
#05654:53535353
#05652:0023000000230000
#05656:0000002300000023
#07657:00000033
#0765b:00000043
#07652:00530000
#0855b:0013
#08552:0000000000000034
#04052:15
#04059:15
#04152:15
#04159:15
#01452:00533353
#01456:0000002300000023
#0145b:00006343
#01457:0000000000230000
#02056:00000063
#0235b:13
#02152:13
#0285b:0063
#02856:0013
#02857:00000023
#02957:0013
#02952:0063
#0305b:63
#03052:00530000
#03258:0052
#03756:00000014
#0385b:0013000000000000
#03854:0013
#03858:0000000000000013
#04357:0013
#04452:15
#04459:15
#04552:15
#04559:15
#04652:00140014
#04656:54645464
#0465a:0014
#0475a:14
#04752:14
#0485b:0000000000000013
#04952:0000001300000000
#0495b:0000000000000013
#05156:0043000000000000
#0515b:0043000000000000
#05157:23
#05152:23
#05252:1336
#05258:00000046
#05352:3636
#05358:00460046
#05452:36
#05552:00001400001c0000
#0555a:0000001400000000
#05759:63636363
#0575b:0023000000230000
#05757:0000002300000023
#06452:0000000000000013
#06256:64546454
#0625a:00140014
#06252:0014
#06058:16
#06052:16
#06158:16
#06152:16
#0635a:14
#06352:14
#0655b:0000001300000000
#06552:0000000000000013
#06656:00525200
#0665c:00525200
#06652:0000000000000063
#06657:0000000000000063
#06756:23
#0675b:23
#06757:0033000000000000
#06752:0033000000000000
#0685b:13
#06858:0046
#06852:00000036
#06958:4646
#06952:00360036
#07058:46
#0715a:00140000
#07156:0000001400001400
#07152:0000000000140000
#07252:0000000000000053
#0735b:00530053
#07352:0053
#0775b:0000000000000053
#0785b:0053000000000000
#07857:23230000
#07952:0000000000000063
#08056:23230000
#08052:0063000000000000
#0815b:0000000000000053
#08257:23230000
#0825b:0053000000000000
#08452:00000034
#0845a:00000044
#0865a:0044000000000000
#08652:0000003400000000
#08752:0013
#0875a:0000000000000044
#08852:0034000000000000
#0885a:0000004400000000
#0895b:0013
#08952:0000000000000034
#0905a:0044000000000000
#09052:0000003400000000
#09256:00000032
#09258:00000042
#01152:0013
#0135b:0013
#0013b0:0000000013230000
#001351:0000000000132300
#001380:0000000000001323
#001321:0000000000000013
#002321:23
#005321:0000000013230000
#005380:0000000000132300
#005351:0000000000001323
#0053b0:0000000000000013
#0063b0:23
#007320:16260000
#007381:16260000
#008321:00132300
#008361:0000003300000000
#009361:00132300
#009321:0000003300000000
#0103b1:00132300
#010371:0000003300000000
#011371:00132300
#0113b1:0000003300000000
#012321:00132300
#012361:0000003300000000
#013361:00132300
#013321:0000003300000000
#014321:00132300
#014361:0000005300000000
#0143b0:00001323
#014370:0000000000530000
#014321:00000013
#014361:0000000000000053
#015321:23
#0153b0:13230000
#015370:0053000000000000
#015321:00132300
#015361:0000005300000000
#016371:00000013
#0173b1:23
#019321:0000132300000000
#019370:0000001323000000
#019341:0000000013230000
#019390:0000000000132300
#019361:0000000000001323
#0193b0:0000000000000013
#0203b0:23
#020360:00000013
#021320:23
#024320:0013
#024360:00000053
#025320:23
#0253b0:0013
#025370:00000023
#026320:13
#026360:0033230000000000
#0263b1:00130000
#026371:0000003323000000
#027371:1300002300000000
#0273b1:00000053000000000000000000000000
#027321:00001323
#027361:0000000000530000
#027370:00000013
#0273b0:0000000000000033
#028370:23
#0283b0:0013
#028370:00000053
#0293b0:23
#029320:0013
#029360:00000023
#0303b0:13
#030370:0033230000000000
#030321:00130000
#030361:0000003323000000
#032381:0012
#0333c1:22
#034381:0012
#0353c1:22
#0363a1:1400002400000000
#036361:00000054000000000000000000000000
#036360:0000001400002400
#036320:00000000000000000054000000000000
#042380:13
#0423a0:0023000000000000
#0423b0:00130000
#042390:0000002300000000
#042370:0013
#042390:0000000000230000
#0423b0:00000013
#042390:0000000000000023
#043320:13332300
#043360:0033003300000000
#046360:14
#046320:00240000
#046361:00140000
#0463a1:0024
#046360:0014
#046320:00000024
#046361:00000014
#0473a1:24
#048321:0013000000000000
#048341:00330000
#048361:0000002300000000
#0483b1:0013
#048391:0000000000330000
#048371:00000023
#049371:0013002300000000
#0493b1:00330000
#049361:0000000000130023
#049321:00000033
#050381:00120000
#0503b1:000000000000000000000000000000000000000000000000000000000000000000000000000000000000000000000000000000000000000000000000000000000000000000000000000000000000000000000000000000000000000000000000000000000000000000000000000000000000000000000000000000000000000000000000000000000000000000000000000000000000000000000000000000000000000000000000000000000000000000000000000000000000000000000000000000000000000000000000000000000000000000000000000000000000000000000000000000000000000000000000000000000000000000000000000000000000000000000000000000000000000000000000000000000000000000000000000000000000000000000000000000000000000000000000000000000000000000000000000000000000000000000000000000000000000000000000000000000000000000000000000000000000000000000000000000000000000000000000000000000000000000000000000000000000000000000000000000000000000000000000000000000000000000000000000000000000000000000000000000000000000000000000000000000000000000000000000000000000000000000000000000000000000000000000000000000000000000000000000000000000000000000000000000000000000000000000000000000000000000000000000000000000000000000000000000000000000000000000000000000000000000000000000000000000000000000000000000000000000000000000000000000000000000000000000000000000000000000000000000000052000000000000000000000000000000000000000000000000000000000000000000000000000000000000000000000000000000000000000000000000000000000000000000000000000000000000000000000000000000000000220000000000000000000000000000000000000000000000000000000000000000000000000000000000000000000000000000000000000000000000000000000000000000000000000000000000000000000000000000000000000000000000000000000000000000000000000000000000000000000000000000000000000000000000000000000000000000000000000000000000000000000000000000000000000000000000000000000000000000000000000000000000000000000000000000000000000000000000000000000000000000000000000000000000000000000000000000000000000000000000000000000000000000000000000000000000000000000000000000000000000000000000000000000000000000000000000000000000000000000000000000000000000000000000000000000000000000000000000000000000000000000000000000000000000000000000000000000000000000000000000000000000000000000000000000000000000000000000000000000000000000000000000000000000000000000000000000000000000000000000000000000000000000000000000000000000000000000000000000000000000000000000000000000000000000000000000000000000000000000000000000000000000000000000000000000000000000000000000000000000000000000000000000000000000000000000000000000000000000000000000000000000000000000000000000000000000000000000000000000000000000000000000000000000000000000000000000000000000000000000000000000000000000000000000000000000000000000000000000000000000000000000000000000000000000000000000000000000000000000000000000000000000000000000000000000000000000000000000000000000000000000000000000000000000000000000000000000000000000000000000000000000000000000000000000000000000000000000000000000000000000000000000000000000000000000000000000000000000000000000000000000000000000000000000000000000000000000000000000000000000000000000000000000000000000000000000000000000000000000000000000000000000000000000000000000000000000000000000000000000000000000000000000000000000000000000000000000000000000000000000000000000000000000000000000000000000000000000000000000000000000000000000000000000000000000000000000000000000000000000000000000000000000000000000000000000000000000000000000000000000000000000000000000000000000000000000000000000000000000000000000000000000000000000000000000000000000000000000000000000000000000000000000000000000000000000000000000000000000000000000000000000000000000000000000000000000000000000000000000000000000000000000000000000000000000000000000000000000000000000000000000000000000000000000000000000000000000000000000000000000000000000000000000000000000000000000000000000000000000000
#0503a1:00000000000000000000000000000000000000000054000000000000000000000000000000000000000000000000000000000000000000000000000000000000
#050320:00120000
#050350:000000000000000000000000000000000000000000000000000000000000000000000000000000000000000000000000000000000000000000000000000000000000000000000000000000000000000000000000000000000000000000000000000000000000000000000000000000000000000000000000000000000000000000000000000000000000000000000000000000000000000000000000000000000000000000000000000000000000000000000000000000000000000000000000000000000000000000000000000000000000000000000000000000000000000000000000000000000000000000000000000000000000000000000000000000000000000000000000000000000000000000000000000000000000000000000000000000000000000000000000000000000000000000000000000000000000000000000000000000000000000000000000000000000000000000000000000000000000000000000000000000000000000000000000000000000000000000000000000000000000000000000000000000000000000000000000000000000000000000000000000000000000000000000000000000000000000000000000000000000000000000000000000000000000000000000000000000000000000000000000000000000000000000000000000000000000000000000000000000000000000000000000000000000000000000000000000000000000000000000000000000000000000000000000000000000000000000000000000000000000000000000000000000000000000000000000000000000000000000000000000000000000000000000000000000000000000000000000000000000052000000000000000000000000000000000000000000000000000000000000000000000000000000000000000000000000000000000000000000000000000000000000000000000000000000000000000000000000000000000000220000000000000000000000000000000000000000000000000000000000000000000000000000000000000000000000000000000000000000000000000000000000000000000000000000000000000000000000000000000000000000000000000000000000000000000000000000000000000000000000000000000000000000000000000000000000000000000000000000000000000000000000000000000000000000000000000000000000000000000000000000000000000000000000000000000000000000000000000000000000000000000000000000000000000000000000000000000000000000000000000000000000000000000000000000000000000000000000000000000000000000000000000000000000000000000000000000000000000000000000000000000000000000000000000000000000000000000000000000000000000000000000000000000000000000000000000000000000000000000000000000000000000000000000000000000000000000000000000000000000000000000000000000000000000000000000000000000000000000000000000000000000000000000000000000000000000000000000000000000000000000000000000000000000000000000000000000000000000000000000000000000000000000000000000000000000000000000000000000000000000000000000000000000000000000000000000000000000000000000000000000000000000000000000000000000000000000000000000000000000000000000000000000000000000000000000000000000000000000000000000000000000000000000000000000000000000000000000000000000000000000000000000000000000000000000000000000000000000000000000000000000000000000000000000000000000000000000000000000000000000000000000000000000000000000000000000000000000000000000000000000000000000000000000000000000000000000000000000000000000000000000000000000000000000000000000000000000000000000000000000000000000000000000000000000000000000000000000000000000000000000000000000000000000000000000000000000000000000000000000000000000000000000000000000000000000000000000000000000000000000000000000000000000000000000000000000000000000000000000000000000000000000000000000000000000000000000000000000000000000000000000000000000000000000000000000000000000000000000000000000000000000000000000000000000000000000000000000000000000000000000000000000000000000000000000000000000000000000000000000000000000000000000000000000000000000000000000000000000000000000000000000000000000000000000000000000000000000000000000000000000000000000000000000000000000000000000000000000000000000000000000000000000000000000000000000000000000000000000000000000000000000000000000000000000000000000000000000000000000000000000000000000000000000000000000000000000000000000000000000
#050340:00000000000000000000000000000000000000000054000000000000000000000000000000000000000000000000000000000000000000000000000000000000
#050380:0012
#0503b0:000000000000000000000000000000000000000000000000000000000000000000000000000000000000000000000000000000000000000000000000000000000000000000000000000000000000000000000000000000000000000000000000000000000000000000000000000000000000000000000000000000000000000000000000000000000000000000000000000000000000000000000000000000000000000000000000000000000000000000000000000000000000000000000000000000000000000000000000000000000000000000000000000000000000000000000000000000000000000000000000000000000000000000000000000000000000000000000000000000000000000000000000000000000000000000000000000000000000000000000000000000000000000000000000000000000000000000000000000000000000000000000000000000000000000000000000000000000000000000000000000000000000000000000000000000000000000000000000000000000000000000000000000000000000000000000000000000000000000000000000000000000000000000000000000000000000000000000000000000000000000000000000000000000000000000000000000000000000000000000000000000000000000000000000000000000000000000000000000000000000000000000000000000000000000000000000000000000000000000000000000000000000000000000000000000000000000000000000000000000000000000000000000000000000000000000000000000000000000000000000000000000000000000000000000000000000000000000000000000000000000000000000000000000000000000000000000000000000000000000000000000000000000000000000000000000000000000000000000000000000000000000000000000000000000000000000000000000000000000000000000000000000000000000000000000000000000000000000000000000000000000000000000000000000000000000000000000000000000000000000000000000000000000000000000000000000000000000000000000000000000000000000000000000000000000000000000000000000000000000000000000000000000000000000000000000000000000000000000000000000000000000000000000000000000000000000000000000000000000000000000000000000000000000000000000000000000000000000000000000000000000000000000000000000000000000000000000000000000000000000000000000000000000000000000000000000000000000000000000000000000000000000000000000000000000000000000000000000000000000000000000000000000000000000000000000000000000000000000000000000000000000000000000000000000000000000000000000000000000000000000000000000000000000000000000000000000000000000000000000052000000000000000000000000000000000000000000000000000000000000000000000000000000000000000000000000000000000000000000000000000000000000000000000000000000000000000000000000000000000000220000000000000000000000000000000000000000000000000000000000000000000000000000000000000000000000000000000000000000000000000000000000000000000000000000000000000000000000000000000000000000000000000000000000000000000000000000000000000000000000000000000000000000000000000000000000000000000000000000000000000000000000000000000000000000000000000000000000000000000000000000000000000000000000000000000000000000000000000000000000000000000000000000000000000000000000000000000000000000000000000000000000000000000000000000000000000000000000000000000000000000000000000000000000000000000000000000000000000000000000000000000000000000000000000000000000000000000000000000000000000000000000000000000000000000000000000000000000000000000000000000000000000000000000000000000000000000000000000000000000000000000000000000000000000000000000000000000000000000000000000000000000000000000000000000000000000000000000000000000000000000000000000000000000000000000000000000000000000000000000000000000000000000000000000000000000000000000000000000000000000000000000000000000000000000000000000000000000000000000000000000000000000000000000000000000000000000000000000000000000000000000000000000000000000000000000000000000000000000000000000000000000000000000000000000000000000000000000000000000000000000000000000000000000000000000000000000000000000000000000000000000000000000000000000000000000000000000000000000000000000000000000000000000000000000000000000000000000000000000000
#0503a0:00000000000000000000000000000000000000000000000000000000000000000000000000540000000000000000000000000000000000000000000000000000
#050321:0012
#050351:000000000000000000000000000000000000000000000000000000000000000000000000000000000000000000000000000000000000000000000000000000000000000000000000000000000000000000000000000000000000000000000000000000000000000000000000000000000000000000000000000000000000000000000000000000000000000000000000000000000000000000000000000000000000000000000000000000000000000000000000000000000000000000000000000000000000000000000000000000000000000000000000000000000000000000000000000000000000000000000000000000000000000000000000000000000000000000000000000000000000000000000000000000000000000000000000000000000000000000000000000000000000000000000000000000000000000000000000000000000000000000000000000000000000000000000000000000000000000000000000000000000000000000000000000000000000000000000000000000000000000000000000000000000000000000000000000000000000000000000000000000000000000000000000000000000000000000000000000000000000000000000000000000000000000000000000000000000000000000000000000000000000000000000000000000000000000000000000000000000000000000000000000000000000000000000000000000000000000000000000000000000000000000000000000000000000000000000000000000000000000000000000000000000000000000000000000000000000000000000000000000000000000000000000000000000000000000000000000000000000000000000000000000000000000000000000000000000000000000000000000000000000000000000000000000000000000000000000000000000000000000000000000000000000000000000000000000000000000000000000000000000000000000000000000000000000000000000000000000000000000000000000000000000000000000000000000000000000000000000000000000000000000000000000000000000000000000000000000000000000000000000000000000000000000000000000000000000000000000000000000000000000000000000000000000000000000000000000000000000000000000000000000000000000000000000000000000000000000000000000000000000000000000000000000000000000000000000000000000000000000000000000000000000000000000000000000000000000000000000000000000000000000000000000000000000000000000000000000000000000000000000000000000000000000000000000000000000000000000000000000000000000000000000000000000000000000000000000000000000000000000000000000000000000000000000000000000000000000000000000000000000000000000000000000000000000000000000000000000000052000000000000000000000000000000000000000000000000000000000000000000000000000000000000000000000000000000000000000000000000000000000000000000000000000000000000000000000000000000000000220000000000000000000000000000000000000000000000000000000000000000000000000000000000000000000000000000000000000000000000000000000000000000000000000000000000000000000000000000000000000000000000000000000000000000000000000000000000000000000000000000000000000000000000000000000000000000000000000000000000000000000000000000000000000000000000000000000000000000000000000000000000000000000000000000000000000000000000000000000000000000000000000000000000000000000000000000000000000000000000000000000000000000000000000000000000000000000000000000000000000000000000000000000000000000000000000000000000000000000000000000000000000000000000000000000000000000000000000000000000000000000000000000000000000000000000000000000000000000000000000000000000000000000000000000000000000000000000000000000000000000000000000000000000000000000000000000000000000000000000000000000000000000000000000000000000000000000000000000000000000000000000000000000000000000000000000000000000000000000000000000000000000000000000000000000000000000000000000000000000000000000000000000000000000000000000000000000000000000000000000000000000000000000000000000000000000000000000000000000000000000000000000000000000000000000000000000000000000000000000000000000000000000000000000000000000000000000000000000000000000000000000000000000000000000000000000000000000000000000000000000000000000000000000000000000000000000000000000000000000000000000000000000000000000000000000000000000000000000000000
#050341:00000000000000000000000000000000000000000000000000000000000000000000000000540000000000000000000000000000000000000000000000000000
#050361:0000000000000013
#051321:53
#051361:0023000000000000
#0503b0:0000000000000013
#051370:53
#0513b0:0023000000000000
#051370:00000013
#0513b0:0000000000000033
#052370:23
#054370:00000013
#054390:0000000000000033
#0553b0:23
#056340:13535353
#056320:0053000000530000
#056360:0000005300000053
#057340:23
#057391:13535353
#0573b1:0053000000530000
#057371:0000005300000053
#058391:23
#062361:14
#0623a1:00240000
#062360:00140000
#062320:0024
#062361:0014
#0623a1:00000024
#062360:00000014
#063320:24
#0643b0:0013000000000000
#064390:00330000
#064370:0000002300000000
#064320:0013
#064340:0000000000330000
#064360:00000023
#065360:0013002300000000
#065320:00330000
#065370:0000000000130023
#0653b0:00000033
#066360:00120000
#066330:000000000000000000000000000000000000000000000000000000000000000000000000000000000000000000000000000000000000000000000000000000000000000000000000000000000000000000000000000000000000000000000000000000000000000000000000000000000000000000000000000000000000000000000000000000000000000000000000000000000000000000000000000000000000000000000000000000000000000000000000000000000000000000000000000000000000000000000000000000000000000000000000000000000000000000000000000000000000000000000000000000000000000000000000000000000000000000000000000000000000000000000000000000000000000000000000000000000000000000000000000000000000000000000000000000000000000000000000000000000000000000000000000000000000000000000000000000000000000000000000000000000000000000000000000000000000000000000000000000000000000000000000000000000000000000000000000000000000000000000000000000000000000000000000000000000000000000000000000000000000000000000000000000000000000000000000000000000000000000000000000000000000000000000000000000000000000000000000000000000000000000000000000000000000000000000000000000000000000000000000000000000000000000000000000000000000000000000000000000000000000000000000000000000000000000000000000000000000000000000000000000000000000000000000000000000000000000000000000000000052000000000000000000000000000000000000000000000000000000000000000000000000000000000000000000000000000000000000000000000000000000000000000000000000000000000000000000000000000000000000220000000000000000000000000000000000000000000000000000000000000000000000000000000000000000000000000000000000000000000000000000000000000000000000000000000000000000000000000000000000000000000000000000000000000000000000000000000000000000000000000000000000000000000000000000000000000000000000000000000000000000000000000000000000000000000000000000000000000000000000000000000000000000000000000000000000000000000000000000000000000000000000000000000000000000000000000000000000000000000000000000000000000000000000000000000000000000000000000000000000000000000000000000000000000000000000000000000000000000000000000000000000000000000000000000000000000000000000000000000000000000000000000000000000000000000000000000000000000000000000000000000000000000000000000000000000000000000000000000000000000000000000000000000000000000000000000000000000000000000000000000000000000000000000000000000000000000000000000000000000000000000000000000000000000000000000000000000000000000000000000000000000000000000000000000000000000000000000000000000000000000000000000000000000000000000000000000000000000000000000000000000000000000000000000000000000000000000000000000000000000000000000000000000000000000000000000000000000000000000000000000000000000000000000000000000000000000000000000000000000000000000000000000000000000000000000000000000000000000000000000000000000000000000000000000000000000000000000000000000000000000000000000000000000000000000000000000000000000000000000000000000000000000000000000000000000000000000000000000000000000000000000000000000000000000000000000000000000000000000000000000000000000000000000000000000000000000000000000000000000000000000000000000000000000000000000000000000000000000000000000000000000000000000000000000000000000000000000000000000000000000000000000000000000000000000000000000000000000000000000000000000000000000000000000000000000000000000000000000000000000000000000000000000000000000000000000000000000000000000000000000000000000000000000000000000000000000000000000000000000000000000000000000000000000000000000000000000000000000000000000000000000000000000000000000000000000000000000000000000000000000000000000000000000000000000000000000000000000000000000000000000000000000000000000000000000000000000000000000000000000000000000000000000000000000000000000000000000000000000000000000000000000000000000000000000000000000000000000000000000000000000000000000000000000000000000000000000000000000000000
#066320:00000000000000000000000000000000000000000054000000000000000000000000000000000000000000000000000000000000000000000000000000000000
#0663c1:00120000
#066391:000000000000000000000000000000000000000000000000000000000000000000000000000000000000000000000000000000000000000000000000000000000000000000000000000000000000000000000000000000000000000000000000000000000000000000000000000000000000000000000000000000000000000000000000000000000000000000000000000000000000000000000000000000000000000000000000000000000000000000000000000000000000000000000000000000000000000000000000000000000000000000000000000000000000000000000000000000000000000000000000000000000000000000000000000000000000000000000000000000000000000000000000000000000000000000000000000000000000000000000000000000000000000000000000000000000000000000000000000000000000000000000000000000000000000000000000000000000000000000000000000000000000000000000000000000000000000000000000000000000000000000000000000000000000000000000000000000000000000000000000000000000000000000000000000000000000000000000000000000000000000000000000000000000000000000000000000000000000000000000000000000000000000000000000000000000000000000000000000000000000000000000000000000000000000000000000000000000000000000000000000000000000000000000000000000000000000000000000000000000000000000000000000000000000000000000000000000000000000000000000000000000000000000000000000000000000000000000000000000000052000000000000000000000000000000000000000000000000000000000000000000000000000000000000000000000000000000000000000000000000000000000000000000000000000000000000000000000000000000000000220000000000000000000000000000000000000000000000000000000000000000000000000000000000000000000000000000000000000000000000000000000000000000000000000000000000000000000000000000000000000000000000000000000000000000000000000000000000000000000000000000000000000000000000000000000000000000000000000000000000000000000000000000000000000000000000000000000000000000000000000000000000000000000000000000000000000000000000000000000000000000000000000000000000000000000000000000000000000000000000000000000000000000000000000000000000000000000000000000000000000000000000000000000000000000000000000000000000000000000000000000000000000000000000000000000000000000000000000000000000000000000000000000000000000000000000000000000000000000000000000000000000000000000000000000000000000000000000000000000000000000000000000000000000000000000000000000000000000000000000000000000000000000000000000000000000000000000000000000000000000000000000000000000000000000000000000000000000000000000000000000000000000000000000000000000000000000000000000000000000000000000000000000000000000000000000000000000000000000000000000000000000000000000000000000000000000000000000000000000000000000000000000000000000000000000000000000000000000000000000000000000000000000000000000000000000000000000000000000000000000000000000000000000000000000000000000000000000000000000000000000000000000000000000000000000000000000000000000000000000000000000000000000000000000000000000000000000000000000000000000000000000000000000000000000000000000000000000000000000000000000000000000000000000000000000000000000000000000000000000000000000000000000000000000000000000000000000000000000000000000000000000000000000000000000000000000000000000000000000000000000000000000000000000000000000000000000000000000000000000000000000000000000000000000000000000000000000000000000000000000000000000000000000000000000000000000000000000000000000000000000000000000000000000000000000000000000000000000000000000000000000000000000000000000000000000000000000000000000000000000000000000000000000000000000000000000000000000000000000000000000000000000000000000000000000000000000000000000000000000000000000000000000000000000000000000000000000000000000000000000000000000000000000000000000000000000000000000000000000000000000000000000000000000000000000000000000000000000000000000000000000000000000000000000000000000000000000000000000000000000000000000000000000000000000000000000000000000000000000000
#066381:00000000000000000000000000000000000000000054000000000000000000000000000000000000000000000000000000000000000000000000000000000000
#066361:0012
#066331:000000000000000000000000000000000000000000000000000000000000000000000000000000000000000000000000000000000000000000000000000000000000000000000000000000000000000000000000000000000000000000000000000000000000000000000000000000000000000000000000000000000000000000000000000000000000000000000000000000000000000000000000000000000000000000000000000000000000000000000000000000000000000000000000000000000000000000000000000000000000000000000000000000000000000000000000000000000000000000000000000000000000000000000000000000000000000000000000000000000000000000000000000000000000000000000000000000000000000000000000000000000000000000000000000000000000000000000000000000000000000000000000000000000000000000000000000000000000000000000000000000000000000000000000000000000000000000000000000000000000000000000000000000000000000000000000000000000000000000000000000000000000000000000000000000000000000000000000000000000000000000000000000000000000000000000000000000000000000000000000000000000000000000000000000000000000000000000000000000000000000000000000000000000000000000000000000000000000000000000000000000000000000000000000000000000000000000000000000000000000000000000000000000000000000000000000000000000000000000000000000000000000000000000000000000000000000000000000000000000000000000000000000000000000000000000000000000000000000000000000000000000000000000000000000000000000000000000000000000000000000000000000000000000000000000000000000000000000000000000000000000000000000000000000000000000000000000000000000000000000000000000000000000000000000000000000000000000000000000000000000000000000000000000000000000000000000000000000000000000000000000000000000000000000000000000000000000000000000000000000000000000000000000000000000000000000000000000000000000000000000000000000000000000000000000000000000000000000000000000000000000000000000000000000000000000000000000000000000000000000000000000000000000000000000000000000000000000000000000000000000000000000000000000000000000000000000000000000000000000000000000000000000000000000000000000000000000000000000000000000000000000000000000000000000000000000000000000000000000000000000000000000000000000000000000000000000000000000000000000000000000000000000000000000000000000000000000000000000000000052000000000000000000000000000000000000000000000000000000000000000000000000000000000000000000000000000000000000000000000000000000000000000000000000000000000000000000000000000000000000220000000000000000000000000000000000000000000000000000000000000000000000000000000000000000000000000000000000000000000000000000000000000000000000000000000000000000000000000000000000000000000000000000000000000000000000000000000000000000000000000000000000000000000000000000000000000000000000000000000000000000000000000000000000000000000000000000000000000000000000000000000000000000000000000000000000000000000000000000000000000000000000000000000000000000000000000000000000000000000000000000000000000000000000000000000000000000000000000000000000000000000000000000000000000000000000000000000000000000000000000000000000000000000000000000000000000000000000000000000000000000000000000000000000000000000000000000000000000000000000000000000000000000000000000000000000000000000000000000000000000000000000000000000000000000000000000000000000000000000000000000000000000000000000000000000000000000000000000000000000000000000000000000000000000000000000000000000000000000000000000000000000000000000000000000000000000000000000000000000000000000000000000000000000000000000000000000000000000000000000000000000000000000000000000000000000000000000000000000000000000000000000000000000000000000000000000000000000000000000000000000000000000000000000000000000000000000000000000000000000000000000000000000000000000000000000000000000000000000000000000000000000000000000000000000000000000000000000000000000000000000000000000000000000000000000000000000000000000000000000
#066321:00000000000000000000000000000000000000000000000000000000000000000000000000540000000000000000000000000000000000000000000000000000
#0663c0:0012
#066390:000000000000000000000000000000000000000000000000000000000000000000000000000000000000000000000000000000000000000000000000000000000000000000000000000000000000000000000000000000000000000000000000000000000000000000000000000000000000000000000000000000000000000000000000000000000000000000000000000000000000000000000000000000000000000000000000000000000000000000000000000000000000000000000000000000000000000000000000000000000000000000000000000000000000000000000000000000000000000000000000000000000000000000000000000000000000000000000000000000000000000000000000000000000000000000000000000000000000000000000000000000000000000000000000000000000000000000000000000000000000000000000000000000000000000000000000000000000000000000000000000000000000000000000000000000000000000000000000000000000000000000000000000000000000000000000000000000000000000000000000000000000000000000000000000000000000000000000000000000000000000000000000000000000000000000000000000000000000000000000000000000000000000000000000000000000000000000000000000000000000000000000000000000000000000000000000000000000000000000000000000000000000000000000000000000000000000000000000000000000000000000000000000000000000000000000000000000000000000000000000000000000000000000000000000000000000000000000000000000000000000000000000000000000000000000000000000000000000000000000000000000000000000000000000000000000000000000000000000000000000000000000000000000000000000000000000000000000000000000000000000000000000000000000000000000000000000000000000000000000000000000000000000000000000000000000000000000000000000000000000000000000000000000000000000000000000000000000000000000000000000000000000000000000000000000000000000000000000000000000000000000000000000000000000000000000000000000000000000000000000000000000000000000000000000000000000000000000000000000000000000000000000000000000000000000000000000000000000000000000000000000000000000000000000000000000000000000000000000000000000000000000000000000000000000000000000000000000000000000000000000000000000000000000000000000000000000000000000000000000000000000000000000000000000000000000000000000000000000000000000000000000000000000000000000000000000000000000000000000000000000000000000000000000000000000000000000000000000000000000052000000000000000000000000000000000000000000000000000000000000000000000000000000000000000000000000000000000000000000000000000000000000000000000000000000000000000000000000000000000000220000000000000000000000000000000000000000000000000000000000000000000000000000000000000000000000000000000000000000000000000000000000000000000000000000000000000000000000000000000000000000000000000000000000000000000000000000000000000000000000000000000000000000000000000000000000000000000000000000000000000000000000000000000000000000000000000000000000000000000000000000000000000000000000000000000000000000000000000000000000000000000000000000000000000000000000000000000000000000000000000000000000000000000000000000000000000000000000000000000000000000000000000000000000000000000000000000000000000000000000000000000000000000000000000000000000000000000000000000000000000000000000000000000000000000000000000000000000000000000000000000000000000000000000000000000000000000000000000000000000000000000000000000000000000000000000000000000000000000000000000000000000000000000000000000000000000000000000000000000000000000000000000000000000000000000000000000000000000000000000000000000000000000000000000000000000000000000000000000000000000000000000000000000000000000000000000000000000000000000000000000000000000000000000000000000000000000000000000000000000000000000000000000000000000000000000000000000000000000000000000000000000000000000000000000000000000000000000000000000000000000000000000000000000000000000000000000000000000000000000000000000000000000000000000000000000000000000000000000000000000000000000000000000000000000000000000000000000000000000000
#066380:00000000000000000000000000000000000000000000000000000000000000000000000000540000000000000000000000000000000000000000000000000000
#066370:0000000000000013
#0673b0:53
#067370:0023000000000000
#066321:0000000000000013
#067361:53
#067321:0023000000000000
#067361:00000013
#067321:0000000000000033
#068361:23
#070361:00000013
#070341:0000000000000033
#071321:23
#072321:0000000000000013
#073371:00230000
#0733b0:00130000
#073360:0023
#073321:0013
#073371:00000023
#0733b0:00000013
#074360:23
#076320:00130000
#076370:00000023
#077370:00132300
#0773b0:0000003300000000
#0773b0:0000000000000013
#078370:53530000
#0783b0:0033002300000000
#079360:00132300
#079320:0000003300000000
#079320:0000000000000013
#080360:53530000
#080320:0033002300000000
#081370:00132300
#0813b0:0000003300000000
#0813b0:0000000000000013
#082370:53530000
#0823b0:0033002300000000
#085320:00132300
#085360:0000003300000000
#0873b0:00132300
#087370:0000003300000000
#089320:00132300
#089360:0000003300000000
