This file was generated by Ched 2.7.0.0.
#TITLE ""
#ARTIST ""
#DESIGNER ""
#DIFFICULTY 0
#PLAYLEVEL
#SONGID ""
#WAVE ""
#WAVEOFFSET 0
#JACKET ""
#REQUEST "ticks_per_beat 480"
#00002: 4
#BPM01: 188
#00008: 01
#TIL00: ""
#HISPEED 00
#MEASUREHS 00
#0001a:14
#00012:0014
#00118:1414
#00114:00140000
#00212:14
#00218:00140000
#00214:0014
#0021a:00000014
#00312:14
#00318:00140000
#00314:0014
#0031a:00000014
#00412:14
#0041a:0014
#00514:1414
#00518:00140000
#0061a:00140000
#00614:0014
#00619:00000014
#00713:14
#00718:00140000
#0081a:14
#00814:0014
#00810:41
#00918:1414
#00914:00140000
#01012:14
#01018:0014
#01114:1414
#01118:00140000
#0121a:14
#01214:0014
#01318:1414
#01314:00140000
#01412:00140000
#01418:0014
#01413:00000014
#01519:14
#01514:00140000
#01612:14
#01618:00140000
#01614:0014
#0161a:00000014
#01610:41
#01712:14
#0171a:0014
#01714:00000014
#01818:1414
#01812:00140000
#01814:00000014
#0191a:14
#0201a:14
#02014:00140000
#02018:0014
#02012:00000014
#0211a:14
#02112:0014
#02118:00000014
#02214:1414
#0221a:00140000
#02218:00000014
#02312:14
#0231a:0014
#02314:00000014
#02418:14
#02412:00140000
#02410:41
#02514:14
#0251a:00140000
#0261a:1414
#02614:00140014
#0271a:14
#02814:14
#0281a:00140000
#02918:14
#02912:00140000
#03012:1414
#03018:00140014
#03114:14001414
#0311a:00140000
#03118:0000000000140014
#03212:14
#03218:0014
#0321f:11
#03314:14
#0331a:0014
#03413:14
#03419:0014
#03512:14
#0351a:14
#03514:0014
#03518:00000014
#03612:14
#03618:00140000
#03614:0014
#0361a:00000014
#03712:14
#03718:00140000
#03714:0014
#0371a:00000014
#04014:00140000
#04018:0014
#04012:00000014
#0401a:24
#0401f:21
#04114:00140000
#04118:0014
#04112:00000014
#0411a:24
#04110:41
#04418:00140000
#04414:0014
#0441a:00000014
#04412:24
#04518:00140000
#04514:0014
#0451a:00000014
#04512:24
#05212:14
#0521a:0014
#05214:00000014
#05318:1414
#05312:00140000
#05314:00000014
#0541a:14
#05512:14
#05814:00140000
#05818:0014
#05812:00000014
#06014:00140000
#06018:2614
#06012:00000014
#06010:41
#06114:00140000
#06118:2614
#06112:00000014
#0681a:14
#06812:0014
#06818:00000014
#06914:1414
#0691a:00140000
#06918:00000014
#07012:14
#0711a:1414
#07114:00140014
#0721a:14
#07212:0014
#07218:00000014
#07210:41
#07314:14
#0731a:00140000
#07312:0014
#07318:00000014
#07714:0014
#0771a:24
#07818:1414
#07814:00140000
#07918:0014
#07912:24
#08014:1414
#08018:00140000
#08114:0014
#0811a:24
#08218:1414
#08214:00140000
#08312:00140000
#08318:0014
#08313:00000014
#08419:14
#08414:00140000
#08518:0014
#08512:24
#08614:1414
#08618:00140000
#08714:0014
#0871a:24
#08818:1414
#08814:00140000
#08918:0014
#08912:24
#09014:1414
#09018:00140000
#05918:26262626
#0911b:00230000
#09115:0023
#0911a:00000023
#09214:23
#09219:00230000
#09213:0023
#09218:00000023
#0431a:0034343400000000
#04812:00343400
#0491a:00343400
#05012:00343400
#0511a:00343400
#0641a:00343400
#06512:00343400
#0661a:00343400
#06712:00343400
#00752:00000014
#0155a:00000014
#0275a:54
#0405a:14
#0415a:14
#04358:0014
#04452:14
#04552:14
#05458:0014
#0545a:54
#05552:64
#05554:0014
#06058:16
#06158:16
#07052:64
#07054:0014
#0845a:00000014
#007320:00001424
#0153a0:00001424
#019320:00001424
#024380:0014
#0243a0:00000024
#025340:0014
#025320:00000024
#0273a0:14
#027380:0024
#028340:0014
#028320:00000024
#029380:0014
#0293a0:00000024
#038320:14
#039340:24
#0423a0:14
#042380:00240000
#042320:0014
#042340:00000024
#0433a0:1434343400000000
#043380:0024
#046320:14
#046340:00240000
#0463a0:0014
#046380:00000024
#047340:14
#047320:00240000
#047380:0014
#0473a0:00000024
#048320:14343400
#048360:00000024
#0493a0:14343400
#049360:00000024
#050320:14343400
#050360:00000024
#0513a0:14343400
#051360:00000024
#0543a0:14
#054380:0024
#055320:14
#055340:0024
#0563a0:14
#057360:34
#0583a0:24
#0623a0:14
#062380:00240000
#062320:0014
#062340:00000024
#063380:14
#0633a0:00240000
#063340:0014
#063320:00000024
#0643a0:14343400
#064360:00000024
#065320:14343400
#065360:00000024
#0663a0:14343400
#066360:00000024
#067320:14343400
#067360:00000024
#070320:14
#070340:0024
#074340:14
#074320:0034
#075340:34
#075320:0034
#076340:24
#0843a0:00001424
