This file was generated by Ched 2.7.0.0.
#TITLE ""
#ARTIST ""
#DESIGNER ""
#DIFFICULTY 0
#PLAYLEVEL
#SONGID ""
#WAVE ""
#WAVEOFFSET 0
#JACKET ""
#REQUEST "ticks_per_beat 480"
#00002: 4
#BPM01: 135
#00008: 01
#TIL00: ""
#HISPEED 00
#MEASUREHS 00
#00019:14
#00213:14
#00119:14
#00313:14
#0081a:14
#00810:41
#0091a:14
#01114:14
#01014:14
#01218:14
#01318:14
#01412:14
#01512:14
#02118:14
#02012:14
#0241a:14
#02410:41
#02514:14
#0281a:14
#02914:14
#02618:14
#02712:14
#03018:14
#03112:14
#03110:41
#04012:0016
#04018:26
#0401f:21
#04118:1616
#04110:41
#04212:16
#04218:0016
#04312:1616
#04418:16
#04412:0016
#04518:16
#04512:0016
#04818:0016
#04812:26
#04912:1616
#05018:16
#05012:0016
#05118:1616
#05212:16
#05218:0016
#05312:16
#05318:0016
#05812:14
#05912:14
#06118:14
#06018:14
#06214:14
#06314:14
#0641a:14
#0651a:14
#01613:14
#01619:14
#01610:41
#0321f:11
#05412:26
#05410:41
#06613:24
#06619:24
#004390:14
#005390:24
#006330:14
#007330:24
#0183a0:14
#0193a0:24
#022320:14
#023320:24
#0323a0:14
#032390:0034
#033380:24
#034320:14
#034330:0034
#035340:24
#036380:14
#036390:0034
#0373a0:24
#038340:14
#038330:0034
#039320:24
#046380:1636
#047380:3626
#054320:1636
#055320:3626
#056380:1636
#057380:3626
